#TITLE:What is Love?;
#SUBTITLE:;
#ARTIST:Haddaway;
#TITLETRANSLIT:;
#SUBTITLETRANSLIT:;
#ARTISTTRANSLIT:;
#CREDIT:;
#BANNER:;
#BACKGROUND:;
#LYRICSPATH:;
#CDTITLE:;
#MUSIC:What Is Love.mp3;
#OFFSET:-9.720;
#SAMPLESTART:47.500;
#SAMPLELENGTH:15.500;
#SELECTABLE:YES;
#DISPLAYBPM:124.000;
#BPMS:0.000=123.870;
#STOPS:;
#BGCHANGES:;

//---------------dance-single - ----------------
#NOTES:
     dance-single:
     :
     Hard:
     7:
     0.427,0.359,0.188,0.075,0.061: // measure 1
1000
0000
0000
0000
0001
0000
0000
0000
0010
0000
0000
0010
0000
0000
0010
0000
,  // measure 2
0100
0000
0000
0000
1000
0000
0000
0000
0010
0000
0000
0010
0000
0000
0010
0000
,  // measure 3
0100
0000
0000
0000
0001
0000
0000
0000
0010
0000
0000
0010
0000
0000
0010
0000
,  // measure 4
0001
0000
1000
0000
0001
0100
0010
1000
,  // measure 5
1100
0000
0000
0000
1001
0000
0000
0000
0001
0000
0000
0010
0000
0000
0100
0000
,  // measure 6
0010
0000
0000
0000
0011
0000
0000
0000
0001
0000
0000
0100
0000
0000
1000
0000
,  // measure 7
0100
0000
0000
0000
0101
0000
0000
0000
0001
0000
0000
1000
0000
0000
0100
0000
,  // measure 8
1000
0000
1010
0000
0010
0100
0101
0000
,  // measure 9
1001
0000
0000
0000
1000
0000
0000
0100
0000
0000
0010
0000
0001
0000
0100
0000
,  // measure 10
0010
0000
1000
0000
0010
0000
0000
0100
0000
0000
0001
0000
1000
0000
0100
0000
,  // measure 11
0010
0000
0100
0000
1000
0000
0000
0001
0000
0000
0010
0000
0001
0000
0100
0000
,  // measure 12
0010
0001
0010
1000
0000
0010
0100
0001
,  // measure 13
2002
0000
3003
0000
1000
0010
0001
0100
,  // measure 14
0000
0001
0010
0000
1000
0100
0001
0100
,  // measure 15
0000
1000
0010
0000
0100
0001
1000
0100
,  // measure 16
0010
0000
0100
1000
0000
1000
0001
0100
,  // measure 17
0010
0000
1010
0000
1000
0100
0001
0100
,  // measure 18
0000
0010
0001
0000
0001
0100
1000
0100
,  // measure 19
0000
0010
1000
0010
0100
0001
1000
0200
,  // measure 20
0000
0000
0000
0000
0300
0100
0010
0001
,  // measure 21
1001
0000
1010
0000
0010
0100
0001
2000
,  // measure 22
0000
0100
0000
3010
0100
0001
0010
0200
,  // measure 23
0000
1000
0000
0310
0100
0010
0001
0100
,  // measure 24
0001
0000
0000
0000
1000
0000
0000
0001
0000
0000
1000
0000
0010
0000
0200
0000
,  // measure 25
0000
0000
0310
0000
1000
0010
0100
0002
,  // measure 26
0000
0010
0000
1003
0001
0100
0010
2000
,  // measure 27
0000
0100
0000
3010
1000
0010
0100
0010
,  // measure 28
0000
0000
1001
0000
1000
0100
0010
0001
,  // measure 29
0101
0000
0101
0000
0001
1000
0100
0010
,  // measure 30
0100
0000
0010
0000
0001
0000
1000
0001
,  // measure 31
0101
0000
0101
0000
0001
1000
0100
1000
,  // measure 32
0010
0000
0000
0000
0100
0000
0000
0100
0010
0000
0000
0000
1010
0000
0000
0000
,  // measure 33
1000
0100
0010
0001
0100
0010
0100
0001
,  // measure 34
0000
1000
0100
0010
0100
1000
0010
0100
,  // measure 35
0000
0010
0100
0001
0010
0001
0100
1000
,  // measure 36
0000
0100
0001
1000
0100
0010
0001
1000
,  // measure 37
0010
0100
0001
0010
0001
1000
0100
0010
,  // measure 38
0000
0100
0010
0001
0100
1000
0100
0001
,  // measure 39
0000
1000
0001
0010
1000
0010
0001
0100
,  // measure 40
0001
0000
0001
0000
0000
1000
0000
0000
1000
0000
0100
0000
0010
0000
1001
0000
,  // measure 41
0000
0000
0101
0000
0001
1000
0100
0010
,  // measure 42
0000
0100
0010
0100
1000
0010
0100
0010
,  // measure 43
0000
0100
0001
0010
0001
1000
0100
0010
,  // measure 44
0000
0100
1000
0000
0001
0100
0010
1000
,  // measure 45
0000
1000
0100
0000
0010
0001
0100
0010
,  // measure 46
0000
0100
0001
0010
1000
0010
0001
0100
,  // measure 47
0000
0001
0100
1000
0100
0001
1000
0100
,  // measure 48
0001
0000
0100
0000
0000
0010
0000
0000
0001
0000
1000
0000
0010
0000
0110
0000
;

//---------------dance-single - ----------------
#NOTES:
     dance-single:
     :
     Medium:
     5:
     0.358,0.359,0.159,0.178,0.028:
1000
0000
0000
0000
0001
0000
0000
0000
0010
0000
0000
0010
0000
0000
0010
0000
,
0010
0000
0000
0000
0100
0000
0000
0000
0001
0000
0000
0001
0000
0000
0001
0000
,
0001
0000
0000
0000
0100
0000
0000
0000
1000
0000
0000
1000
0000
0000
1000
0000
,
1000
0000
0000
0000
0010
0000
0000
0000
0100
0000
0000
0100
0000
0000
0100
0000
,
0100
0000
0110
0000
0010
0000
1000
0100
,
1000
0000
0001
0000
0010
0000
0100
0010
,
0001
0000
1000
0000
0010
0000
0100
0001
,
1000
0100
0001
0101
,
1100
0000
0001
0010
0001
0000
1000
0010
,
1000
0000
0001
0100
0001
0000
1000
0100
,
1000
0000
0001
0010
0100
0000
0010
0001
,
1000
0000
0010
1000
0001
0000
1000
0000
,
2002
0000
3003
0000
1000
0010
1000
0000
,
0202
0000
0303
0000
0001
0010
0001
0000
,
2200
0000
3300
0000
0010
0001
1000
0000
,
0010
0000
0100
0000
0001
1000
0001
1000
,
0200
0000
0300
0000
0010
0001
1000
0000
,
2002
0000
3003
0000
1000
0010
0100
0000
,
0220
0000
0330
0000
0010
1000
0001
2000
,
0000
0000
0000
0000
0000
0010
0010
3010
,
0000
0000
0101
0000
0001
1000
0100
1000
,
0000
0001
0010
0000
0001
0000
0100
0001
,
0000
1000
0010
0000
0100
0000
0001
1000
,
0000
0001
1000
0000
0100
0010
0001
1000
,
0000
0000
1010
0000
0100
0001
1000
0100
,
0000
0010
0100
0000
0010
0000
0001
1000
,
0000
1000
0010
0000
0100
0000
0010
1000
,
0000
0001
0100
0000
0001
0010
0001
0000
,
1001
0000
2002
0000
0000
0000
3003
1000
,
0100
0010
0001
0100
,
0110
0000
0220
0000
0000
0000
0330
0100
,
0010
1000
1100
0011
,
1001
0000
0001
0000
0100
0000
0010
1000
,
0000
1000
0100
0000
0010
0000
0100
0010
,
0000
0010
0001
0000
0100
0000
0010
0000
,
1000
0100
0001
0100
,
1000
0000
0010
0000
0100
0000
0001
0100
,
0000
0100
1000
0000
0100
0000
0001
0010
,
0000
0010
1000
0000
0010
0000
0001
1000
,
0002
0000
1000
0000
0000
1000
0000
0000
2000
0000
0000
0000
3003
0000
0000
0000
,
1000
0000
0100
0000
0010
0001
0010
0001
,
0000
1000
0100
0000
0010
0000
0001
0100
,
0000
0010
1000
0000
0100
0000
0010
0100
,
0000
0010
0001
0000
1000
0001
1000
0002
,
0000
0000
0103
0000
0010
1000
0010
1000
,
0000
0001
0010
0000
0100
0000
0010
0001
,
0000
0001
1000
0000
0010
0000
0100
0001
,
0000
0000
1000
0000
0000
1000
0000
0000
1000
0000
0001
0000
1000
0000
0001
0000
;

//---------------dance-single - ----------------
#NOTES:
     dance-single:
     :
     Easy:
     3:
     0.220,0.224,0.084,0.019,0.000:
1000
0000
0001
1000
,
0001
0000
1000
0100
,
1000
0000
0001
0010
,
0001
0000
1000
0001
,
1001
0000
1000
0010
,
1000
0000
0001
0100
,
0001
0000
1000
0100
,
1000
0000
0001
0010
,
0001
0000
1000
0000
,
0010
0000
0100
0000
,
0001
0000
1000
0000
,
0100
0010
0100
0010
,
0110
0000
0010
0001
,
1000
0000
0001
1000
,
0010
0000
0100
0001
,
0010
0100
0010
0001
,
1000
0000
0010
1000
,
0001
0000
0010
0001
,
1000
0000
1000
0100
,
0220
0000
0000
0330
,
1001
0000
0001
0100
,
0001
0000
1000
0100
,
1000
0000
0001
0010
,
0001
0000
1000
0010
,
0100
0001
0010
0100
,
0010
0000
0001
0010
,
0001
0000
1000
0010
,
1000
0001
0010
0100
,
0110
0110
0000
0000
,
0010
0001
1000
0001
,
1001
1001
0000
0000
,
1000
0010
0100
0001
,
1000
1000
0100
0010
,
0100
0100
0010
0001
,
0100
0100
0010
1000
,
0001
0001
1000
0100
,
0010
0100
0010
0001
,
0100
1000
0100
0001
,
1000
0100
0010
0001
,
1000
0000
0000
0000
,
1001
0000
0001
0100
,
0001
1000
0001
0100
,
0010
1000
0100
0010
,
0100
0000
0010
0000
,
0001
0010
0001
1000
,
0100
1000
0010
0100
,
0010
1000
0100
0010
,
0001
0000
0000
0000
1000
0000
0001
0001
;

//---------------dance-single - ----------------
#NOTES:
     dance-single:
     :
     Beginner:
     1:
     0.100,0.132,0.047,0.000,0.000:
1000
0000
0000
0000
,
0001
0000
0000
0000
,
1000
0000
0000
0000
,
0001
0000
0000
0000
,
0100
0000
0010
0000
,
0100
0000
0000
0000
,
0001
0000
1000
0000
,
0001
0000
1000
0000
,
1001
0000
0000
0000
,
0001
0000
1000
0000
,
0010
0000
0000
0000
,
0100
0000
0000
0000
,
0110
0000
0000
0000
,
0010
0000
1000
0000
,
0001
0000
0000
0000
,
1000
0000
0001
0000
,
0010
0000
0000
0000
,
0100
0000
0010
0000
,
0001
0000
1000
0000
,
0001
0000
0000
0000
,
1001
0000
1000
0000
,
0010
0000
0000
0000
,
0100
0000
0000
0000
,
0001
0000
1000
0000
,
0100
0000
0010
0000
,
0100
0000
0000
0000
,
0010
0000
0000
0000
,
0001
0000
1000
0000
,
0001
0001
0000
0000
,
0000
0000
0000
0000
,
1000
1000
0000
0000
,
0000
0000
0000
0000
,
0001
0000
0100
0000
,
0001
0000
1000
0000
,
0100
0000
1000
0000
,
0010
0000
0100
0000
,
0001
0000
0010
0000
,
0100
0000
0010
0000
,
0001
0000
1000
0000
,
0010
0000
0000
0000
,
0110
0000
0010
0000
,
0100
0000
0000
0000
,
0001
0000
0000
0000
,
1000
0000
0100
0000
,
0010
0000
0001
0000
,
0100
0000
0000
0000
,
0010
0000
0000
0000
,
1001
0000
0000
0000
;
