#TITLE:The Planet Plan;
#SUBTITLE:;
#ARTIST:United Future Organization;
#TITLETRANSLIT:;
#SUBTITLETRANSLIT:;
#ARTISTTRANSLIT:;
#CREDIT:;
#BANNER:The Planet Plan.png;
#BACKGROUND:The Planet Plan-bg.png;
#LYRICSPATH:;
#CDTITLE:;
#MUSIC:The Planet Plan.mp3;
#OFFSET:-6.370;
#SAMPLESTART:25.360;
#SAMPLELENGTH:12.660;
#SELECTABLE:YES;
#DISPLAYBPM:189.000;
#BPMS:0.000=189.563;
#STOPS:;
#BGCHANGES:;

//---------------dance-single - ----------------
#NOTES:
     dance-single:
     :
     Hard:
     8:
     0.513,0.602,0.128,0.120,0.040: // measure 1
1000
0000
0001
0100
0000
0100
0001
0000
,  // measure 2
1000
0000
0100
0000
0010
0100
0000
0100
,  // measure 3
1000
0000
0001
0000
0100
0000
1000
0100
,  // measure 4
0000
0100
0001
0000
1000
0000
0001
0000
,  // measure 5
0010
0100
0000
0100
1000
0000
0001
0000
,  // measure 6
1000
0010
0100
0000
0001
0000
0010
0000
,  // measure 7
0100
0000
0010
0001
1000
0000
0001
0000
,  // measure 8
0100
0000
1000
0000
0100
0001
1000
0000
,  // measure 9
0100
0000
0010
0000
0100
0000
0010
0001
,  // measure 10
0100
0010
1000
0001
,  // measure 11
1000
0010
1000
0010
1000
0000
0001
0000
,  // measure 12
0010
0000
0100
0000
1000
0010
0000
0010
,  // measure 13
0100
0000
0001
0000
0010
0001
0010
0001
,  // measure 14
0010
0001
1000
0220
,  // measure 15
0000
0000
0000
0330
,  // measure 16
0010
1000
0000
1000
0001
0000
1000
0000
,  // measure 17
0100
0000
0010
0000
0000
0001
0000
0000
,  // measure 18
1000
0000
0001
0000
1001
0000
1000
0010
,  // measure 19
0000
0100
0001
0000
0010
0000
0100
0000
,  // measure 20
1000
0001
0000
0001
1000
0000
0001
0000
,  // measure 21
0100
0001
0000
1000
0010
0000
1000
0000
,  // measure 22
0100
0000
0010
0000
0000
0001
0000
0000
,  // measure 23
1000
0000
0010
0000
0110
0000
0000
0010
,  // measure 24
0000
1000
0100
0000
0010
0000
0100
1000
,  // measure 25
0000
0100
0000
0010
0001
0000
1000
0000
,  // measure 26
0001
0100
0000
0100
0001
0000
1000
0000
,  // measure 27
1100
0000
0100
0010
0000
0010
0001
0000
,  // measure 28
1000
0000
1010
0000
0010
0100
0000
0100
,  // measure 29
0002
1000
1000
2003
,  // measure 30
0000
0010
0000
0000
0001
0000
3001
0000
,  // measure 31
1000
0100
0000
0010
0001
0000
1000
0001
,  // measure 32
1000
0000
0001
0100
0000
0010
1000
0000
,  // measure 33
0001
0010
0100
0000
0010
0001
0000
1000
,  // measure 34
0001
1000
0100
0011
,  // measure 35
0000
0101
0000
0000
0010
1000
0100
1000
,  // measure 36
2100
0000
0000
3020
0000
0000
0130
0000
,  // measure 37
0001
0000
1000
0000
0100
0010
0000
0100
,  // measure 38
0010
0001
0010
0000
0001
0000
1000
0010
,  // measure 39
0000
1000
0010
0000
0100
0000
0001
0000
,  // measure 40
1000
0100
0000
1000
0010
0100
0001
1000
,  // measure 41
0200
0000
0000
0001
0000
0000
0010
0000
,  // measure 42
1000
0000
2300
0000
0000
0100
0000
0000
,  // measure 43
0001
0000
0010
0000
3020
0000
0000
0001
,  // measure 44
0000
1000
0130
0200
,  // measure 45
0000
0001
0000
0301
0100
0001
1000
0100
,  // measure 46
2100
0000
0000
0000
0001
0000
0000
0000
0000
0000
0001
0000
0000
0000
0000
3001
0000
0000
0000
0000
0000
0000
0000
0000
,  // measure 47
1000
0000
0001
0000
0100
1000
0000
0100
,  // measure 48
0001
0000
1000
0000
0001
0010
0001
0010
,  // measure 49
0100
0010
0100
0000
1000
0000
0001
0100
,  // measure 50
0001
0100
0010
1000
0010
0000
1000
0000
,  // measure 51
0001
0000
0000
0000
2000
0000
0000
0000
0000
0000
0100
0000
0000
0000
0000
3100
0000
0000
0000
0000
0000
0000
0000
0000
,  // measure 52
1000
0001
0010
0001
,  // measure 53
0100
0000
0010
0000
0100
0000
0010
1000
,  // measure 54
0000
0010
1000
0000
0001
0000
0010
0000
,  // measure 55
0001
0010
0000
0001
0010
0000
0100
0000
,  // measure 56
0010
0000
0001
0000
1000
0000
0100
0000
0000
0011
0000
0000
,  // measure 57
1001
0000
0000
1000
0000
0010
0000
0100
0000
0001
0000
0000
,  // measure 58
0101
0000
0000
1001
0000
0000
1000
0000
0100
0000
1000
0000
,  // measure 59
0100
0010
0001
1000
,  // measure 60
0001
0100
0000
0100
0001
1000
0100
0010
,  // measure 61
0110
0000
0100
0000
1000
0000
0001
0100
,  // measure 62
0001
1000
0010
0100
,  // measure 63
0001
0010
0001
0000
1000
0000
0100
0001
,  // measure 64
0100
0000
0100
1000
0100
0000
0010
0000
,  // measure 65
0001
0010
0001
0000
0001
1000
0001
0000
,  // measure 66
1000
0000
0010
0000
0100
0000
0001
0100
,  // measure 67
0010
0100
0001
0010
,  // measure 68
0001
1000
0100
0000
0001
0000
0100
1000
,  // measure 69
0001
0000
0100
0001
1000
0000
0010
0000
,  // measure 70
0100
0001
0010
0000
0100
1000
0010
0000
,  // measure 71
1000
0100
0000
0010
0001
0000
1000
0000
,  // measure 72
0010
0000
0100
0001
0000
1000
0010
0000
,  // measure 73
1000
0000
0100
0000
0010
0001
0000
0010
,  // measure 74
0002
0000
0003
0001
,  // measure 75
0100
0010
1000
0100
,  // measure 76
0110
0000
0000
2002
0000
0000
0000
0000
,  // measure 77
0000
0000
0000
0000
,  // measure 78
0000
0000
0000
0000
,  // measure 79
0000
0000
0000
0000
,  // measure 80
0000
0000
0000
3003
,  // measure 81
1000
0010
1000
0010
0100
0000
0010
0100
,  // measure 82
0001
0000
0010
0001
0100
0001
1000
0000
,  // measure 83
0010
1000
0001
0000
0100
0001
0100
0001
,  // measure 84
1000
0100
0010
0001
0100
0000
0010
1000
,  // measure 85
0100
0010
0100
0010
0100
1000
0001
0000
,  // measure 86
1000
0001
0100
0001
0100
0010
1000
0010
,  // measure 87
1000
0100
0010
0001
0010
0001
0100
0010
,  // measure 88
0100
0010
1000
0100
0010
0001
0100
1000
,  // measure 89
0100
0001
0100
0010
1000
0100
0010
0000
;

//---------------dance-single - ----------------
#NOTES:
     dance-single:
     :
     Medium:
     6:
     0.419,0.460,0.152,0.088,0.024: // measure 1
1000
0000
0000
0001
0000
0000
1000
0000
,  // measure 2
0100
0000
0010
0000
0000
0100
0000
0000
,  // measure 3
0010
0000
0001
0000
1000
0000
0000
0001
,  // measure 4
0000
0100
0010
1000
,  // measure 5
0001
0100
0000
0100
0001
0000
1000
0000
,  // measure 6
0001
1000
0100
0001
,  // measure 7
0100
1000
0001
0100
,  // measure 8
0010
0001
0010
1000
,  // measure 9
0100
0010
0100
1000
,  // measure 10
0001
1000
0010
0100
,  // measure 11
0001
1000
0001
0000
1000
0000
0100
0000
,  // measure 12
0010
0100
1000
0010
,  // measure 13
0100
0000
0001
0000
1000
0100
1000
0000
,  // measure 14
0010
0100
0001
2002
,  // measure 15
0000
0000
0000
3003
,  // measure 16
1000
0001
0000
0001
1000
0000
0001
0000
,  // measure 17
0100
0000
0010
0000
0000
0100
0000
0000
,  // measure 18
0001
0000
1000
0000
0100
0000
0000
0100
,  // measure 19
0000
0010
0001
1000
,  // measure 20
0000
1000
0000
0000
0001
0000
0100
0000
,  // measure 21
0010
1000
0000
1000
0010
0000
0100
0000
,  // measure 22
0001
0000
1000
0000
0000
0001
0000
0000
,  // measure 23
1000
0000
0100
0000
0110
0000
0000
0010
,  // measure 24
0000
0001
1000
0001
,  // measure 25
0000
0100
0000
0000
0010
0000
1000
0000
,  // measure 26
0001
0100
0000
0100
0001
0000
1000
0000
,  // measure 27
0100
0000
1000
0100
0000
0100
1000
0000
,  // measure 28
0001
0000
0010
0000
0100
0010
0000
0010
,  // measure 29
0100
0010
0001
2001
,  // measure 30
0000
0001
0000
0000
0100
0000
3100
0000
,  // measure 31
0010
0001
0000
0010
0001
0000
1000
0000
,  // measure 32
0010
0000
0100
0001
0000
0100
0001
0000
,  // measure 33
1000
0000
0010
0000
1000
0001
0000
0001
,  // measure 34
1000
0100
0010
0100
,  // measure 35
0000
1000
0000
0000
0001
0000
0100
0000
,  // measure 36
0210
0000
0000
0002
0000
0000
0000
0000
,  // measure 37
0303
0000
0001
0000
0000
0001
0000
0000
,  // measure 38
0001
0000
1000
0000
0100
0000
0000
0100
,  // measure 39
0000
0100
1000
0010
,  // measure 40
0000
0010
0000
0000
1000
0001
1000
0001
,  // measure 41
0020
0000
0000
0001
0000
0000
0001
0000
,  // measure 42
0001
0000
0032
0000
0000
1000
0000
0000
,  // measure 43
1000
0000
1000
0000
2003
0000
0000
0010
,  // measure 44
0000
0010
3010
1000
,  // measure 45
0000
0100
0000
0010
0001
1000
0001
0000
,  // measure 46
1001
1000
0100
1000
,  // measure 47
0000
0001
0010
0001
,  // measure 48
0100
0000
0010
0000
0110
0000
0000
1010
,  // measure 49
0000
1000
0100
0110
,  // measure 50
0000
0011
0000
0000
0001
0000
1000
0000
,  // measure 51
0001
0100
1000
0100
,  // measure 52
0000
0010
1000
0100
,  // measure 53
0010
0000
0001
0000
1100
0000
0000
0110
,  // measure 54
0000
0010
0001
0011
,  // measure 55
0000
1001
0000
0000
1000
0000
0010
0000
,  // measure 56
0100
0000
0010
0000
0100
0000
0010
0000
0000
1000
0000
0000
,  // measure 57
0001
0000
0000
1000
0000
0001
0000
1000
0000
0001
0000
0000
,  // measure 58
0010
0000
0000
0001
0000
0000
1000
0000
0100
0000
1000
0000
,  // measure 59
0200
0000
0000
0310
,  // measure 60
0000
0011
0000
0010
0001
1000
0001
0000
,  // measure 61
1001
1000
0010
0001
,  // measure 62
0010
0100
0001
0010
,  // measure 63
0100
0010
0001
1000
,  // measure 64
0100
0001
0100
0010
,  // measure 65
0001
1000
0001
0100
,  // measure 66
1000
0100
0001
0100
,  // measure 67
1000
0001
0010
1000
,  // measure 68
0010
0001
0010
1000
,  // measure 69
0100
0001
0100
1000
,  // measure 70
0010
0100
0001
0010
,  // measure 71
0100
0010
0000
0010
0100
0000
0010
0000
,  // measure 72
0001
0000
1000
0001
0000
0001
1000
0000
,  // measure 73
0001
0000
0100
0000
0010
1000
0000
1000
,  // measure 74
0001
1000
0100
1100
,  // measure 75
0000
1001
0000
0000
0001
0000
0010
0000
,  // measure 76
0011
0000
0000
2002
0000
0000
0000
0000
,  // measure 77
0000
0000
0000
0000
,  // measure 78
0000
0000
0000
0000
,  // measure 79
0000
0000
0000
0000
,  // measure 80
0000
0000
0000
3003
,  // measure 81
1000
0000
0001
0000
0100
0000
0010
0100
,  // measure 82
0010
0100
0001
1000
,  // measure 83
0100
1000
0100
0000
1000
0000
0100
0000
,  // measure 84
0010
0000
0100
0010
0100
0000
0010
0000
,  // measure 85
0001
0000
1000
0000
0001
0100
0001
0000
,  // measure 86
1000
0010
0100
0000
0001
0000
0010
0001
,  // measure 87
0100
0000
0010
0100
0001
0000
0100
0000
,  // measure 88
0010
1000
0001
0000
1000
0100
0010
0100
,  // measure 89
0010
0000
0001
0010
0001
1000
0001
0000
;

//---------------dance-single - ----------------
#NOTES:
     dance-single:
     :
     Easy:
     4:
     0.263,0.319,0.088,0.167,0.000: // measure 1
1000
0000
0000
0001
,  // measure 2
0100
0001
0000
0000
,  // measure 3
0010
0001
0010
0000
,  // measure 4
0000
0100
1000
0001
,  // measure 5
0000
0000
1000
0001
,  // measure 6
0100
0000
0000
0000
,  // measure 7
0100
0100
0000
0000
,  // measure 8
0000
0010
0010
0000
,  // measure 9
0000
0000
1000
1000
,  // measure 10
0000
0000
0000
0000
,  // measure 11
0001
0000
1000
0000
,  // measure 12
0100
0100
0000
0010
,  // measure 13
0000
0001
0001
0000
,  // measure 14
1000
0000
0010
0020
,  // measure 15
0000
0000
0000
0030
,  // measure 16
0001
1000
0100
0010
,  // measure 17
0001
0010
0000
0000
,  // measure 18
0001
0000
1000
0000
0001
0000
0000
2002
,  // measure 19
0000
0000
0000
0000
,  // measure 20
0000
0000
0000
3003
,  // measure 21
1000
0001
1000
0010
,  // measure 22
0100
0001
0000
0000
,  // measure 23
1000
0100
0020
0000
,  // measure 24
0000
0000
0000
0002
,  // measure 25
0000
0000
0000
0033
,  // measure 26
0001
0000
0000
1000
0000
0000
0001
0000
,  // measure 27
0000
0000
0100
0000
0000
0001
0000
0000
,  // measure 28
0100
0000
0000
0000
0010
0000
0000
1000
,  // measure 29
0000
0001
0000
1000
,  // measure 30
0000
0100
0000
0000
1000
0000
0000
0000
,  // measure 31
0001
0000
0000
0001
0000
0000
0001
0000
,  // measure 32
0000
0000
0100
0000
0000
0100
0000
0000
,  // measure 33
0100
0000
0000
0000
0010
0000
0000
0010
,  // measure 34
0000
0010
0000
1000
,  // measure 35
0000
1000
0000
0000
1000
0000
0001
0000
,  // measure 36
2001
0000
0000
0002
0000
0000
0000
0000
,  // measure 37
3003
0000
0001
0000
0000
0100
0000
0000
,  // measure 38
0000
0000
0000
0000
0100
0000
0000
0010
,  // measure 39
0000
0000
0000
0010
,  // measure 40
0000
1000
0000
0000
0001
0000
1000
0000
,  // measure 41
0100
0000
0000
0100
0000
0000
0000
0000
,  // measure 42
0000
0000
0010
0000
0000
0010
0000
0000
,  // measure 43
0000
0000
0000
0000
0001
0000
0000
0001
,  // measure 44
0000
0000
0000
1000
,  // measure 45
0000
1000
0000
0000
0001
0000
1000
0000
,  // measure 46
2002
0000
0000
0000
,  // measure 47
0000
3003
0000
0000
,  // measure 48
1000
0000
0001
0000
0100
0000
0000
0100
,  // measure 49
0000
0000
0100
0001
,  // measure 50
0000
0001
0000
0000
0000
0000
1000
0000
,  // measure 51
0220
0000
0000
0000
,  // measure 52
0000
0330
0000
0000
,  // measure 53
0010
0001
2000
0000
,  // measure 54
0000
0000
0000
3002
,  // measure 55
0000
0000
0000
0000
,  // measure 56
1003
0000
0000
0000
0000
1100
0000
0000
,  // measure 57
0000
0000
0100
0000
0000
0000
0000
0110
,  // measure 58
0000
0000
0010
0000
,  // measure 59
0000
0011
0000
0000
0000
0000
2002
0000
,  // measure 60
0000
0000
0000
3003
,  // measure 61
1000
0100
1000
0100
,  // measure 62
0000
0010
0001
0010
,  // measure 63
0001
0000
1000
0001
,  // measure 64
1000
0001
0000
0100
,  // measure 65
0001
0100
0001
1000
,  // measure 66
0001
1000
0100
1000
,  // measure 67
0000
0001
0010
0001
,  // measure 68
0100
0000
0010
1000
,  // measure 69
0100
0010
0000
0100
,  // measure 70
0010
0001
0010
0001
,  // measure 71
2000
0000
0000
0001
0000
0000
3001
0000
,  // measure 72
0000
0000
0002
0000
0000
0100
0000
0000
,  // measure 73
0103
0000
0000
0000
0200
0000
0000
0020
,  // measure 74
0000
0000
0330
1010
,  // measure 75
0000
1000
0000
0000
0010
0000
1000
0000
,  // measure 76
1001
0000
0000
2002
0000
0000
0000
0000
,  // measure 77
0000
0000
0000
0000
,  // measure 78
0000
0000
0000
0000
,  // measure 79
0000
0000
0000
0000
,  // measure 80
0000
0000
0000
3003
,  // measure 81
1000
0100
0010
0001
,  // measure 82
0010
0001
0010
0100
,  // measure 83
1000
0010
0100
0001
,  // measure 84
0010
0100
0010
0001
,  // measure 85
1000
0001
0100
1000
,  // measure 86
0100
0010
1000
0100
,  // measure 87
0001
0100
1000
0010
,  // measure 88
0100
0001
1000
0001
,  // measure 89
0010
0100
0010
0001
;

//---------------dance-single - ----------------
#NOTES:
     dance-single:
     :
     Beginner:
     2:
     0.123,0.177,0.064,0.000,0.000: // measure 1
1000
0000
0000
0000
,  // measure 2
0000
0001
0000
0000
,  // measure 3
0000
0000
0100
0000
,  // measure 4
0000
0000
0000
0010
,  // measure 5
0000
0000
0000
0000
,  // measure 6
1001
0000
0000
0000
,  // measure 7
0000
1000
0000
0000
,  // measure 8
0000
0000
0100
0000
,  // measure 9
0000
0000
0000
0010
,  // measure 10
0000
0000
0000
0000
,  // measure 11
0001
0000
0000
0000
,  // measure 12
0000
0001
0000
0000
,  // measure 13
0000
0000
1000
0000
,  // measure 14
0000
0000
0000
1001
,  // measure 15
0000
0000
0000
0000
,  // measure 16
1001
0000
0000
0000
,  // measure 17
0000
1000
0000
0000
,  // measure 18
0001
0000
0100
0000
,  // measure 19
0000
0000
0000
0010
,  // measure 20
0000
0000
0000
0000
,  // measure 21
1000
0000
0000
0000
,  // measure 22
0000
0001
0000
0000
,  // measure 23
0010
0000
0001
0000
,  // measure 24
0000
0000
0000
1000
,  // measure 25
0000
0000
0000
0000
,  // measure 26
0001
0000
0000
0100
,  // measure 27
0000
0100
0000
0000
,  // measure 28
0010
0000
0010
0000
,  // measure 29
0000
0000
0000
1000
,  // measure 30
0000
0000
0001
0000
,  // measure 31
1000
0000
0000
0001
,  // measure 32
0000
0001
0000
0000
,  // measure 33
1000
0000
1000
0000
,  // measure 34
0000
0010
0000
0100
,  // measure 35
0000
0000
0000
0000
,  // measure 36
1001
0000
0000
0000
,  // measure 37
0000
0001
0000
0000
,  // measure 38
0000
0000
1000
0000
,  // measure 39
0000
0000
0000
0010
,  // measure 40
0000
0000
0000
0000
,  // measure 41
0110
0000
0000
0000
,  // measure 42
0000
0100
0000
0000
,  // measure 43
0000
0000
0001
0000
,  // measure 44
0000
0000
0000
1000
,  // measure 45
0000
0000
0000
0000
,  // measure 46
1001
0000
0000
0000
,  // measure 47
0000
0001
0000
0000
,  // measure 48
0010
0000
0001
0000
,  // measure 49
0000
0000
0000
1000
,  // measure 50
0000
0000
0000
0000
,  // measure 51
0010
0000
0000
0000
,  // measure 52
0000
1000
0000
0000
,  // measure 53
0010
0000
1000
0000
,  // measure 54
0000
0000
0000
0001
,  // measure 55
0000
0000
0000
0000
,  // measure 56
1000
0000
0000
0100
,  // measure 57
0000
0100
0000
0000
,  // measure 58
0010
0000
0010
0000
,  // measure 59
0000
0001
0000
0001
,  // measure 60
0000
0000
0000
0000
,  // measure 61
0110
0000
0010
0000
,  // measure 62
0000
0100
0000
0100
,  // measure 63
0000
0000
0001
0000
,  // measure 64
0001
0000
0000
1000
,  // measure 65
0000
1000
0000
0000
,  // measure 66
0001
0000
0100
0000
,  // measure 67
0000
0010
0000
1000
,  // measure 68
0000
0000
0001
0000
,  // measure 69
0010
0000
0000
0100
,  // measure 70
0000
1000
0000
0000
,  // measure 71
0001
0000
0000
0000
,  // measure 72
1000
1000
0000
0000
,  // measure 73
0000
0010
0010
0000
,  // measure 74
0000
0100
0100
0000
,  // measure 75
0000
0000
0000
0000
,  // measure 76
1001
0000
0000
0000
,  // measure 77
0000
0000
0000
0000
,  // measure 78
0000
0000
0000
0000
,  // measure 79
0000
0000
0000
0000
,  // measure 80
0000
0000
0000
0000
,  // measure 81
1000
0000
0000
1000
,  // measure 82
0000
0100
0000
0000
,  // measure 83
0010
0000
0001
0000
,  // measure 84
0000
0001
0000
1000
,  // measure 85
0000
0000
1000
0000
,  // measure 86
0010
0000
0000
0010
,  // measure 87
0000
0100
0000
0000
,  // measure 88
0100
0000
0001
0000
,  // measure 89
0000
1000
0000
0001
;
