#TITLE:Tequila;
#SUBTITLE:(Mint Royale Shot);
#ARTIST:Terrorvision;
#TITLETRANSLIT:;
#SUBTITLETRANSLIT:;
#ARTISTTRANSLIT:;
#CREDIT:;
#BANNER:;
#BACKGROUND:;
#LYRICSPATH:;
#CDTITLE:;
#MUSIC:Tequila (Mint Royale Shot).mp3;
#OFFSET:-2.840;
#SAMPLESTART:63.060;
#SAMPLELENGTH:14.990;
#SELECTABLE:YES;
#DISPLAYBPM:113:128;
#BPMS:0.000=128.030,212.000=124.000,214.000=120.000,216.000=118.000,218.000=113.000;
#STOPS:;
#BGCHANGES:;

//---------------dance-single - ----------------
#NOTES:
     dance-single:
     :
     Medium:
     6:
     0.380,0.350,0.134,0.134,0.000:
1000
0000
0001
0000
1000
0010
0100
0000
,
0001
0000
0010
0000
0100
0010
0001
0000
,
1000
0000
0001
0000
0100
0010
1000
0000
,
0001
0000
1000
0000
0001
0010
0100
0010
,
0001
0000
0100
0000
1000
0100
0001
0000
,
1000
0000
0100
0000
0001
0100
1000
0001
,
1000
0000
0001
0100
0001
1000
0000
0101
,
0000
0000
0001
0000
1000
0000
0100
0010
,
0002
0000
0000
0003
,
1001
0000
0001
0100
0000
0100
0001
0000
,
1000
0000
0100
0010
0000
0010
0100
0000
,
0010
0000
0001
1000
0000
1000
0001
0000
,
1000
0000
0010
0100
0000
0100
0001
1000
,
0100
0000
0001
0000
0100
1000
0001
0000
,
0100
0000
0001
0000
0100
0001
1000
0001
,
1000
0000
0100
0000
0010
0001
0010
0000
,
0001
0100
1010
0101
,
1001
0000
1000
0100
0000
1000
0100
0000
,
0010
0001
0100
0000
0001
0100
0010
0000
,
1000
0000
0001
0000
0010
0100
0000
0010
,
0001
1000
0001
0000
1000
0010
1000
1000
,
0100
0000
0010
0000
0100
0010
0001
0010
,
0001
0000
1000
0000
0010
0100
0010
0100
,
0001
0000
1000
0000
0001
1000
0001
0200
,
0000
0010
0010
0000
0001
0000
0310
0000
,
1010
0000
2000
0200
0000
0000
3300
0000
,
0010
0001
0100
0000
0010
1000
0100
0000
,
0011
0000
0002
0200
0000
0000
0303
0000
,
0001
1000
0100
0010
0000
0100
1000
0000
,
1001
0000
0020
0200
0000
0000
0330
0000
,
0010
1000
0010
0000
0100
0001
0100
0000
,
1001
0000
0002
0200
0000
0000
0303
0000
,
2002
0000
0000
3003
,
1001
0000
1000
0000
0100
0010
0100
0000
,
0010
0001
1000
0000
0001
0000
0100
0010
,
0100
0000
0010
0000
1000
0001
1000
0100
,
0000
0010
0001
0000
0100
0001
0100
0010
,
1000
0000
0100
0000
0001
0100
0000
1000
,
0000
0100
0010
0000
0001
0000
0100
0000
,
1000
0000
0100
0000
0001
1000
0000
1001
,
0000
1000
0100
0010
0001
0000
0100
0000
,
0110
0000
0010
0000
1000
0001
1000
0100
,
0010
0000
0100
0000
1000
0000
0001
0100
,
0010
0000
0100
0000
0001
1000
0001
1000
,
0000
0100
0010
0000
0100
0000
1000
0100
,
0001
0100
1000
0000
0001
0100
0000
0010
,
0000
1000
0010
0000
0100
0000
0001
0100
,
1000
0100
0001
0000
1000
0100
0000
0022
,
0000
0000
0000
0033
,
1001
0000
0000
1000
0100
0000
0010
0000
,
0001
0000
0000
0001
0100
0000
0010
0000
,
1000
0000
0000
1000
0010
0000
0100
0000
,
0001
0000
0000
0001
1000
0000
0100
0010
,
0100
0000
0000
0010
0001
0000
1000
0000
,
0001
0000
0000
0001
1000
0000
0010
0000
,
0200
0000
0000
0300
;

//---------------dance-single - ----------------
#NOTES:
     dance-single:
     :
     Hard:
     7:
     0.483,0.425,0.179,0.269,0.027:
1001
0000
0001
0000
0100
1000
0100
0001
,
1000
0000
0100
0000
0010
0001
0010
0000
,
0001
0000
1000
0000
0010
0100
0001
0010
,
0100
0000
0010
0000
0001
1000
0001
0100
,
0100
0000
1000
0000
0100
0001
1000
0100
,
0010
0000
0100
0000
0010
0001
1000
0001
,
0100
0010
0100
1000
0100
0200
0000
0302
,
0000
1003
0100
0010
0001
1000
0010
0100
,
0002
0000
0000
0003
,
1001
0000
1000
0100
0000
0010
0001
1000
,
0001
0100
1000
0100
0000
0010
0100
0001
,
0010
0000
0100
0001
0000
0100
1000
0010
,
0001
0010
1000
0001
0000
1000
0001
0100
,
0200
0000
0010
0000
0301
0100
0001
1000
,
0200
0000
0001
0000
0010
0000
1300
0010
,
2000
0000
0010
0000
3001
1000
0010
0100
,
0002
0000
0010
0000
1000
1000
1003
0000
,
0110
0000
0100
0002
0000
1003
0100
0001
,
0100
1000
0010
0200
0000
0310
0100
0001
,
0010
1000
0010
0002
0000
0103
0100
0010
,
0100
0001
1000
0200
0000
0310
0001
0001
,
2001
0000
0010
0000
3001
1000
0010
0100
,
0002
0000
0010
0000
1000
0000
0100
0100
,
0203
0000
1000
0000
0310
1000
0100
0001
,
0100
0010
0001
0100
0001
1000
1010
0000
,
1001
0000
1000
0002
0000
0000
0103
0000
,
0001
0100
0010
1000
0100
0001
0100
1000
,
0010
0000
0100
0002
0000
0000
1003
0000
,
0001
0010
0100
1000
0010
0100
0010
1000
,
1001
0000
1000
0200
0000
0000
0310
0000
,
0001
0010
0001
0100
0010
1000
0001
1000
,
0100
0000
0010
0002
0000
0000
1003
0000
,
0220
0000
0000
0330
,
1010
0000
0000
0000
1000
0000
0000
1000
0100
0000
0010
0000
0001
0000
0100
0000
,
1000
0000
0100
0000
0001
0000
0000
1000
0001
0000
1000
0000
0100
0000
0010
0000
,
0001
0000
0000
0000
1000
0000
0000
0010
0001
0000
0010
0000
1000
0000
0001
0000
,
0000
0101
0000
0100
0010
1000
0001
1000
,
0100
0100
0010
0010
0100
1000
0000
1100
,
0000
0011
0000
0001
0100
1000
0100
0001
,
1000
1000
0001
0001
0100
0010
0000
1002
,
0000
0000
1003
0100
0010
0001
0100
0010
,
1010
0000
0000
0000
0001
0000
0000
0010
0100
0000
0010
0000
0001
0000
0100
0000
,
1000
0000
0100
0000
0001
0000
0000
1000
0100
0000
0010
0000
0001
0000
0100
0000
,
0110
0000
0000
0000
0010
0000
0000
1000
0100
0000
0001
0000
0100
0000
1000
0000
,
0000
1100
0000
0010
0001
0100
0010
1000
,
0001
0001
1000
1000
0010
0100
0000
0101
,
0000
0011
0000
0010
0100
1000
0100
0010
,
0001
0001
1000
1000
0010
0001
0000
0011
,
0000
0010
1000
0100
0010
0100
0010
0001
,
2001
0000
0000
0010
0010
0000
0001
0000
,
3200
0000
0000
0010
0010
0000
1000
1000
,
2300
0000
0000
0010
0010
0000
0001
0000
,
3020
0000
0000
0100
0100
0000
1000
1000
,
2030
0000
0000
0001
3002
0000
0100
0000
,
0023
0000
0000
0001
0032
0000
1000
1000
,
2000
0000
0000
3003
;

//---------------dance-single - ----------------
#NOTES:
     dance-single:
     :
     Easy:
     4:
     0.255,0.250,0.063,0.188,0.000:
1000
0000
0001
0100
,
0001
1000
0100
0010
,
0100
0000
0010
0001
,
0100
1000
0100
0001
,
1000
0000
0001
1000
,
0001
1000
0100
0010
,
0100
0000
0010
0001
,
0100
0000
0010
0000
,
0220
0000
0000
0330
,
1001
0000
0001
1000
,
0100
0000
1000
0001
,
0100
0000
0010
0100
,
0001
0010
0100
0100
,
0110
0000
0000
0010
,
0001
0000
0000
0001
,
1000
0000
0000
1000
,
0010
0000
0100
0010
,
0100
0000
0001
1000
,
0100
0000
0010
0100
,
0010
0000
0001
0010
,
0001
0001
1000
1000
,
1000
0000
0001
0100
,
0001
1000
0001
1000
,
0100
0000
0010
0001
,
0200
0000
0010
0000
,
0302
0000
0203
0000
,
0310
1000
0100
0001
,
0200
0000
0320
0000
,
0031
0010
0001
0100
,
0020
0000
0230
0000
,
0310
1000
0100
0010
,
0002
0000
0203
0000
,
0002
0000
0000
0303
,
1001
0000
1000
0001
,
0100
0000
0010
0100
,
0001
0000
1000
0001
,
1000
0100
0010
0001
,
0100
0100
0010
1000
,
0100
0010
0100
1000
,
0001
0001
0100
0010
,
1000
0000
0001
1000
,
1001
0000
1000
0100
,
0001
0100
1000
0010
,
0100
0010
0100
0001
,
2000
0000
0010
3010
,
1010
1000
0100
0001
,
0100
0010
0001
0001
,
1000
0001
0100
0010
,
0120
0000
0100
0100
,
0230
0000
0301
0100
,
0002
0000
1003
0100
,
2000
0000
3010
0100
,
0020
0000
0130
0001
,
2000
0000
0010
0001
,
3200
0000
0010
1000
,
0020
0000
0000
0330
;

//---------------dance-single - ----------------
#NOTES:
     dance-single:
     :
     Beginner:
     1:
     0.114,0.148,0.036,0.000,0.000: // measure 1
1001
0000
0001
0000
,  // measure 2
0100
0000
0010
0000
,  // measure 3
1000
0000
0100
0000
,  // measure 4
0001
0000
0100
0000
,  // measure 5
1000
0000
0010
0000
,  // measure 6
0100
0000
0001
0000
,  // measure 7
1000
0000
0100
0000
,  // measure 8
0010
0000
0001
0000
,  // measure 9
0000
0000
0000
0000
,  // measure 10
1000
0000
0000
0000
,  // measure 11
0001
0000
0100
0000
,  // measure 12
0001
0000
0000
0000
,  // measure 13
1000
0000
0010
0000
,  // measure 14
1000
0000
0000
0000
,  // measure 15
0100
0000
0010
0000
,  // measure 16
0100
0000
0000
0000
,  // measure 17
0010
0000
0001
0000
,  // measure 18
1000
0000
0001
0000
,  // measure 19
0100
0000
0000
0000
,  // measure 20
0010
0000
0100
0000
,  // measure 21
0001
0000
0000
0000
,  // measure 22
1000
0000
0100
0000
,  // measure 23
1000
0000
0000
0000
,  // measure 24
0001
0000
0010
0000
,  // measure 25
0001
0000
1000
0000
,  // measure 26
1001
0000
0000
0000
,  // measure 27
0001
0000
1000
0000
,  // measure 28
0010
0000
0100
0000
,  // measure 29
0001
0000
0010
0000
,  // measure 30
0100
0000
0000
0000
,  // measure 31
0010
0000
0001
0000
,  // measure 32
1000
0000
0001
0000
,  // measure 33
0000
0000
0000
0000
,  // measure 34
1001
0000
0000
0000
,  // measure 35
0001
0000
0000
0000
,  // measure 36
1000
0000
0000
0000
,  // measure 37
0010
0000
0000
0000
,  // measure 38
0100
0000
0001
0000
,  // measure 39
0100
0000
0001
0000
,  // measure 40
1000
0000
0100
0000
,  // measure 41
0010
0000
0000
0000
,  // measure 42
0100
0000
0000
0000
,  // measure 43
1000
0000
0000
0000
,  // measure 44
0001
0000
0000
0000
,  // measure 45
0100
0000
0000
0000
,  // measure 46
0010
0000
1000
0000
,  // measure 47
0001
0000
0010
0000
,  // measure 48
0001
0000
0100
0000
,  // measure 49
0010
0000
0000
0000
,  // measure 50
1001
0000
0000
0000
,  // measure 51
1000
0000
0001
0000
,  // measure 52
0100
0000
0000
0000
,  // measure 53
0010
0000
0100
0000
,  // measure 54
0001
0000
0000
0000
,  // measure 55
1000
0000
0001
0000
,  // measure 56
1000
0000
0000
0000
;
