#TITLE:Somebody Told Me;
#SUBTITLE:;
#ARTIST:The Killers;
#TITLETRANSLIT:;
#SUBTITLETRANSLIT:;
#ARTISTTRANSLIT:;
#CREDIT:;
#BANNER:Somebody Told Me.png;
#BACKGROUND:Somebody Told Me-bg.png;
#LYRICSPATH:;
#CDTITLE:;
#MUSIC:Somebody Told Me.mp3;
#OFFSET:-7.090;
#SAMPLESTART:58.270;
#SAMPLELENGTH:14.120;
#SELECTABLE:YES;
#DISPLAYBPM:136.000;
#BPMS:0.000=136.000,208.000=142.000;
#STOPS:;
#BGCHANGES:;

//---------------dance-single - ----------------
#NOTES:
     dance-single:
     :
     Hard:
     6:
     0.373,0.364,0.106,0.173,0.010: // measure 1
2000
0000
3002
0000
,  // measure 2
0023
0000
0032
0000
,  // measure 3
0203
0000
0320
0000
,  // measure 4
2030
0000
0000
0000
,  // measure 5
3001
0000
0001
0000
0001
0000
0001
1000
,  // measure 6
0100
0000
0100
0000
0100
0000
0100
0010
,  // measure 7
0001
0000
0001
0000
0001
0000
0001
1000
,  // measure 8
0010
0000
0010
0000
0010
0000
0010
1000
,  // measure 9
0001
0000
1001
0000
0001
1000
0100
0000
,  // measure 10
0010
0001
0100
0000
0010
1000
0001
0000
,  // measure 11
0100
0010
0100
0010
,  // measure 12
0100
0000
0001
0000
1000
0100
1000
0100
,  // measure 13
0010
0001
0010
0001
,  // measure 14
0100
0000
0001
0000
0100
0001
0100
0001
,  // measure 15
1000
0010
0100
0001
,  // measure 16
1000
0100
0010
0001
,  // measure 17
1000
1100
0001
0101
,  // measure 18
1000
1010
0001
0011
,  // measure 19
0001
0100
1000
0100
,  // measure 20
0001
0000
0100
0000
0010
1000
0010
0000
,  // measure 21
1000
0100
0001
0100
,  // measure 22
1000
0000
0100
0000
0010
0001
0010
0000
,  // measure 23
0001
0100
0001
0000
1000
0000
0010
0000
,  // measure 24
1000
0010
1000
0000
0001
0100
0001
0000
,  // measure 25
2000
0010
0001
0100
,  // measure 26
3002
0010
1000
0100
,  // measure 27
1003
0001
1000
0000
0001
0100
0001
0000
,  // measure 28
1000
0010
1000
0000
0100
1000
0100
0000
,  // measure 29
0010
0000
0001
0000
0100
0001
0100
0000
,  // measure 30
0110
2002
0000
3003
,  // measure 31
0001
0100
0010
1000
0100
0000
0010
0000
,  // measure 32
0001
1000
0001
1000
0001
0000
0010
0000
,  // measure 33
0001
0100
0010
1000
0100
0000
1000
0000
,  // measure 34
0100
1000
0100
0010
0000
0100
0010
0001
,  // measure 35
0000
0010
0000
0001
0100
0001
0100
0000
,  // measure 36
0010
1000
0010
0000
1000
0001
1000
0000
,  // measure 37
0001
0010
0001
1000
0100
0000
0010
0000
,  // measure 38
1000
0000
0001
0000
1000
0001
1000
0000
,  // measure 39
1002
0000
0010
0000
,  // measure 40
0100
0000
1000
2000
,  // measure 41
0003
0000
0010
0000
,  // measure 42
0001
0000
0100
3000
,  // measure 43
0220
0300
1000
0000
,  // measure 44
0100
0000
0001
0000
,  // measure 45
2030
0000
0010
3000
,  // measure 46
1010
0202
0000
0303
,  // measure 47
1000
0100
0010
0001
0000
0001
0010
0100
,  // measure 48
0000
1000
0000
0010
1000
0001
0010
0001
,  // measure 49
0000
0100
0000
0001
0010
0001
1000
0010
,  // measure 50
0000
1000
0000
0100
0000
0010
0001
0100
,  // measure 51
0000
0000
0001
0000
0000
0000
1000
0000
0010
0000
0000
1000
0000
0000
0001
0000
,  // measure 52
0100
0000
0001
0000
0000
0000
0010
0000
0001
0000
0000
0010
0000
0000
0100
0000
,  // measure 53
0010
0001
0000
1000
0001
1000
0100
0000
,  // measure 54
1000
0010
1000
0000
0001
0100
0001
1000
,  // measure 55
0001
0001
0000
0000
0000
0000
0000
0000
;

//---------------dance-single - ----------------
#NOTES:
     dance-single:
     :
     Medium:
     5:
     0.332,0.338,0.144,0.096,0.000: // measure 1
2000
0000
0001
0000
,  // measure 2
0010
0000
0001
0000
,  // measure 3
0100
0000
0001
0000
,  // measure 4
0002
0000
0000
3003
,  // measure 5
0010
0100
0001
0010
,  // measure 6
1000
0010
0001
0000
,  // measure 7
0100
0001
1000
0010
,  // measure 8
1000
0100
1000
0000
,  // measure 9
0001
0010
0100
1000
,  // measure 10
0010
1000
0001
0100
,  // measure 11
0001
0010
0001
1000
,  // measure 12
0010
0000
1000
0000
0010
1000
0000
0001
,  // measure 13
0100
0001
0100
0001
,  // measure 14
1000
0000
0100
0000
1000
0001
0000
1000
,  // measure 15
0001
0010
0100
1000
,  // measure 16
0010
0100
0001
1000
,  // measure 17
0001
0010
0100
1000
,  // measure 18
0010
0100
0001
1000
,  // measure 19
1001
0000
0010
0000
,  // measure 20
1000
0100
0010
0001
,  // measure 21
0100
0000
0001
0000
,  // measure 22
1000
0010
1000
0000
,  // measure 23
0001
0000
1000
0001
1000
0000
0001
0000
,  // measure 24
1000
0001
1000
0000
0001
0000
0100
0000
,  // measure 25
0010
1000
0010
0000
0001
0100
0001
0000
,  // measure 26
0010
0000
0001
0000
1000
0001
1000
0000
,  // measure 27
0002
0010
1000
0100
,  // measure 28
2003
0010
0001
3100
,  // measure 29
1000
0000
0100
0010
0100
0000
0010
0000
,  // measure 30
0110
2002
0000
3003
,  // measure 31
0001
0100
0001
0000
1000
0000
0100
0000
,  // measure 32
1000
0100
1000
0000
0001
0000
0100
0000
,  // measure 33
0010
0100
0010
0000
1000
0000
0100
0000
,  // measure 34
1000
0100
1000
0000
0010
0100
0010
0000
,  // measure 35
0001
0010
0001
0000
0100
0000
0001
0000
,  // measure 36
1000
0010
0100
0000
0001
0000
0010
0000
,  // measure 37
0100
0010
0001
0000
0100
0000
0010
0000
,  // measure 38
1000
0010
1000
0000
0001
0100
0001
0000
,  // measure 39
1001
0000
0101
0000
,  // measure 40
0011
0000
1100
0000
,  // measure 41
2001
0001
0010
0010
,  // measure 42
0100
0100
0010
3010
,  // measure 43
0101
0000
1010
0000
,  // measure 44
1100
0000
0011
0000
,  // measure 45
1002
1000
0010
0013
,  // measure 46
1001
2002
0000
3003
,  // measure 47
0000
1000
0000
0001
0010
0000
0001
0010
,  // measure 48
0000
0100
0000
1000
0100
0000
1000
0100
,  // measure 49
0000
0010
0000
0001
0100
0000
0010
1000
,  // measure 50
0000
0001
0000
0010
0001
0000
0100
0001
,  // measure 51
0000
1000
0000
0010
1000
0000
0100
1000
,  // measure 52
0000
0001
0000
0010
0100
0000
0010
0100
,  // measure 53
0000
0010
0000
0001
0100
0000
0010
1000
,  // measure 54
0010
0000
1000
0001
1000
0000
0001
1000
,  // measure 55
0001
1000
0000
0000
0000
0000
0000
0000
;

//---------------dance-single - ----------------
#NOTES:
     dance-single:
     :
     Easy:
     2:
     0.189,0.207,0.096,0.019,0.000: // measure 1
1000
0000
0100
0000
,  // measure 2
1000
0000
0001
0000
,  // measure 3
0100
0000
0001
0000
,  // measure 4
0010
0000
0000
0000
,  // measure 5
0110
0000
0010
0000
,  // measure 6
0001
0000
0100
0000
,  // measure 7
0010
0000
1000
0000
,  // measure 8
0100
0000
0010
0010
,  // measure 9
0010
0000
0001
0000
,  // measure 10
1000
0000
0001
0000
,  // measure 11
0100
0000
0010
0000
,  // measure 12
1000
1000
1000
0000
,  // measure 13
0001
0000
0010
0000
,  // measure 14
0001
0001
0001
0000
,  // measure 15
0100
0000
0010
0000
,  // measure 16
1000
1000
1000
1000
,  // measure 17
2000
0000
3001
0000
,  // measure 18
0002
0000
1003
0000
,  // measure 19
0010
0000
1000
0000
,  // measure 20
0100
0010
0100
0000
,  // measure 21
0010
0000
0001
0000
,  // measure 22
1000
0001
1000
0000
,  // measure 23
0001
0000
0100
0000
,  // measure 24
0010
0000
1000
0001
,  // measure 25
1000
0000
1000
0000
,  // measure 26
0001
0000
0001
0000
,  // measure 27
0100
0000
0010
0000
,  // measure 28
0100
0000
0001
0000
,  // measure 29
1000
0000
0001
0000
,  // measure 30
1001
1001
0000
0000
,  // measure 31
1001
0000
0001
0000
,  // measure 32
0100
0000
0010
0000
,  // measure 33
1000
0000
0100
0000
,  // measure 34
1000
0000
0100
0000
,  // measure 35
0110
0000
0010
0000
,  // measure 36
0001
0000
0100
0000
,  // measure 37
0010
0000
1000
0000
,  // measure 38
0001
0001
1000
1000
,  // measure 39
1001
0000
0010
0000
,  // measure 40
1000
0000
0100
0000
,  // measure 41
0010
0000
0001
0000
,  // measure 42
0100
0000
0001
1000
,  // measure 43
1001
0000
0010
0000
,  // measure 44
0100
0000
0001
0000
,  // measure 45
1000
0000
0100
0000
,  // measure 46
0110
0110
0000
0000
,  // measure 47
0010
0000
0010
0100
,  // measure 48
0010
0000
1000
0001
,  // measure 49
1000
0000
0010
0100
,  // measure 50
0010
0000
1000
0000
,  // measure 51
1001
0000
0001
1000
,  // measure 52
0001
0000
0100
0010
,  // measure 53
0100
0000
0010
0000
,  // measure 54
1000
0001
1000
0001
,  // measure 55
1000
0000
0000
0000
;

//---------------dance-single - ----------------
#NOTES:
     dance-single:
     :
     Beginner:
     1:
     0.130,0.156,0.048,0.000,0.000: // measure 1
1000
0000
1000
0000
,  // measure 2
0001
0000
0001
0000
,  // measure 3
0100
0000
0010
0000
,  // measure 4
0100
0000
0000
0000
,  // measure 5
0010
0000
0010
0000
,  // measure 6
0100
0000
0000
0000
,  // measure 7
0001
0000
0001
0000
,  // measure 8
1000
0000
0000
0000
,  // measure 9
0001
0000
1000
0000
,  // measure 10
0001
0000
1000
0000
,  // measure 11
0100
0000
0100
0000
,  // measure 12
0010
0000
0000
0000
,  // measure 13
0001
0000
0001
0000
,  // measure 14
1000
0000
0001
0000
,  // measure 15
1000
0000
0000
0000
,  // measure 16
0001
0000
0000
0000
,  // measure 17
0100
0000
0100
0000
,  // measure 18
0010
0000
0000
0000
,  // measure 19
1000
0000
0010
0000
,  // measure 20
1000
0000
0000
0000
,  // measure 21
0001
0000
1000
0000
,  // measure 22
0100
0000
1000
0000
,  // measure 23
1001
0000
0000
0000
,  // measure 24
0110
0000
0000
0000
,  // measure 25
0001
0000
0001
0000
,  // measure 26
1000
0000
1000
0000
,  // measure 27
0001
0000
0100
0000
,  // measure 28
0001
0000
1000
0000
,  // measure 29
0100
0000
0010
0000
,  // measure 30
0100
0100
0000
0000
,  // measure 31
1001
0000
0000
0000
,  // measure 32
0001
0000
1000
0000
,  // measure 33
0001
0000
0000
0000
,  // measure 34
0100
0000
0010
0000
,  // measure 35
0100
0000
0000
0000
,  // measure 36
0001
0000
0100
0000
,  // measure 37
0010
0000
0000
0000
,  // measure 38
1000
0000
0100
0000
,  // measure 39
0010
0000
0010
0000
,  // measure 40
0001
0000
0001
0000
,  // measure 41
1000
0000
0000
0000
,  // measure 42
0001
0000
0000
0000
,  // measure 43
0100
0000
0100
0000
,  // measure 44
0010
0000
0010
0000
,  // measure 45
1000
0000
0000
0000
,  // measure 46
0001
0001
0000
0000
,  // measure 47
1001
0000
0000
0000
,  // measure 48
1000
0000
0010
0000
,  // measure 49
0100
0000
0000
0000
,  // measure 50
0001
0000
0010
0000
,  // measure 51
0100
0000
0010
0000
,  // measure 52
0001
0000
1000
0000
,  // measure 53
0001
0000
1000
0000
,  // measure 54
0010
0000
0100
0000
,  // measure 55
0110
0000
0000
0000
;
