#TITLE:Self vs Self;
#SUBTITLE:(ft. In Flames);
#ARTIST:Pendulum;
#TITLETRANSLIT:;
#SUBTITLETRANSLIT:;
#ARTISTTRANSLIT:;
#CREDIT:;
#BANNER:;
#BACKGROUND:;
#LYRICSPATH:;
#CDTITLE:;
#MUSIC:Self vs Self (ft In Flames).mp3;
#OFFSET:-6.920;
#SAMPLESTART:83.440;
#SAMPLELENGTH:11.030;
#SELECTABLE:YES;
#BPMS:0.000=87.000,24.000=174.000,120.000=87.000,160.000=174.000;
#STOPS:;
#BGCHANGES:;

//---------------dance-single - ----------------
#NOTES:
     dance-single:
     :
     Hard:
     10:
     0.730,0.805,0.378,0.064,0.523:
1001
0000
1001
0000
0001
0100
0001
0100
0000
0010
1000
0000
0100
0000
0010
0000
,
0110
0000
1001
0000
1000
0010
0100
0001
0000
0100
0001
0000
1000
0100
1000
0010
,
0001
0000
0110
0000
1000
0010
0100
0001
0000
0100
0001
0000
1000
0100
1000
0100
,
0010
0000
1100
0000
0010
0001
0100
0001
0000
0100
0001
0000
1000
0010
0100
0000
,
1010
0000
1001
0000
0001
0010
0001
1000
0000
1000
0100
0010
0001
0010
0001
0000
,
0100
0001
0100
0000
0010
1000
0100
1000
0002
0000
0203
0000
0320
0000
1030
0000
,
1001
0000
1000
0001
0000
1000
0010
0000
,
0100
0001
0010
0100
0010
0001
1000
0000
,
0001
1000
0100
0010
0100
1000
0010
0100
,
0000
0000
0001
0100
0001
0000
1000
0010
1000
0000
0001
0000
1000
0000
0100
0000
,
0110
0000
0010
0001
0000
1000
0010
0100
,
0001
0010
0100
0010
0001
1000
0010
0000
,
0100
0000
0001
1000
0001
0000
1000
0000
0100
0010
0100
0000
1000
0000
0001
0000
,
1000
0100
0000
0000
0100
0010
0000
0000
0010
0001
0010
0001
1000
0001
1000
0000
,
0101
0000
0001
1000
0100
0000
0010
0100
,
0000
0010
0001
0001
1000
0010
1000
0001
,
0000
0000
1000
0000
0010
0000
0100
0000
0001
0000
1000
0100
1000
0000
1001
0000
,
0000
0001
0010
0100
0010
0100
1000
1001
,
0000
0000
0001
0000
0100
0000
0010
0000
0100
0000
0001
1000
0001
0000
0100
0000
,
0000
0010
1000
0100
0001
0100
1000
1001
,
0000
0000
1000
0000
0010
0000
0100
0000
0001
0000
1000
0100
0010
0000
0011
0000
,
0000
0000
1000
0000
0010
1000
0010
0000
0100
0001
0010
0001
0100
0000
0110
0000
,
0000
0010
1000
0100
0010
0100
0010
0011
,
0000
0001
1000
1000
0010
0100
0001
0101
,
0000
0000
0100
0000
0010
0000
1000
0000
0100
0000
0010
0001
1000
0000
0001
0000
,
0000
1000
0100
0010
0001
0100
0010
1001
,
0000
0000
1000
0000
0010
0000
0100
0000
0010
0000
1000
0001
0100
0000
0001
0000
,
0000
1000
0010
0100
0010
1000
0010
0100
,
0001
1000
0100
0000
1000
0100
0010
0000
0100
0010
0001
0000
0010
0001
1000
0000
,
1000
0001
1000
0001
0100
0001
0100
0001
1000
0010
1000
0010
0100
0000
0001
1000
,
0001
0000
0000
0000
1100
0000
0010
0100
0000
0010
0001
0000
1001
0000
1000
0010
,
0100
0010
1000
0001
0100
0000
0010
1000
0000
0100
0010
0001
0100
0010
1000
0001
,
0101
0000
0001
1000
0100
0000
1000
0000
0001
0000
0100
0000
0010
0100
0001
1000
,
0100
0010
0100
0010
0001
0000
1001
0000
1000
0010
0100
1000
0100
0010
1000
0100
,
1100
0000
0011
0000
2002
0000
3003
0000
1000
0010
0100
0001
0010
0000
0011
0001
,
0001
0000
1000
0000
0010
0100
0001
0000
1000
0100
0010
0001
0100
0010
1000
0001
,
0101
0000
1001
0000
1000
0100
0010
0100
0000
0010
0001
0010
0001
0000
1000
0001
,
1000
1000
1000
0000
0001
0100
0010
0100
0001
0001
1000
1000
0100
0100
0010
0010
,
0012
0010
0100
0100
,
1000
0000
0000
0000
2000
0000
3003
0000
1000
0100
0010
0001
1000
0010
0100
0001
,
1000
0000
0010
0000
0100
0000
0001
0010
0001
0000
1000
0000
0100
0000
0110
0000
,
0000
1001
0000
0100
0010
1000
0001
1001
,
0000
0101
0000
1010
0000
1000
0010
0110
,
0000
0100
0010
1000
0001
1000
0100
0010
,
0011
0000
1000
0010
0001
0010
0100
0010
,
0100
0010
1000
0100
0010
0100
0000
0110
,
0000
0010
0001
1000
0010
0100
0000
0001
,
0100
0001
0100
0000
0010
1000
0010
0000
1000
0001
1000
0001
0100
0010
1000
0000
,
0101
0000
0001
0000
1000
0000
0001
0000
0000
0000
0100
0010
0100
0000
0001
0000
,
1000
0001
0100
1000
0001
0010
1000
0100
,
0010
0000
0000
0000
0001
0000
1000
0000
0000
0000
0001
0100
0001
0000
1000
0100
,
1000
0000
0001
0000
0100
0000
0010
0000
0000
0000
1000
0001
0100
0000
0010
0000
,
0110
0010
1000
0001
0000
1000
0100
1000
,
0010
0001
0100
1000
0100
0010
1000
0000
,
1000
0000
0010
0000
0100
0000
0001
0000
0000
0000
1000
0010
0001
0000
0010
0000
,
1000
0100
1000
0100
0010
0001
0010
0001
1000
0001
1000
0001
0100
0000
0010
0100
,
0010
0000
1000
0000
0100
0000
0110
0000
0000
0000
0010
0000
0001
0000
1000
0010
,
0100
0000
0001
0000
0010
0000
0100
0010
0001
0000
1000
0000
0100
0000
0000
0000
,
1000
0000
0010
0000
0100
0000
0001
0010
0001
0000
1000
0000
0010
0100
0010
0000
,
0000
0000
1000
0001
1000
0000
0001
0010
0001
0000
1000
0000
1100
0000
0000
0000
,
0011
0000
0001
0000
0100
0000
0110
0000
0000
0000
0010
0000
1000
0000
0100
0010
,
0001
0000
0100
0000
1000
0000
0100
0010
1000
0000
0100
0000
0010
0000
0001
0000
,
1001
0100
0010
1001
0010
0100
1001
0010
,
0100
0001
0100
0001
1000
0100
0010
0001
1000
0100
1000
0100
1000
0010
0100
0001
,
2000
0000
3000
0000
;

//---------------dance-single - ----------------
#NOTES:
     dance-single:
     :
     Medium:
     8:
     0.576,0.747,0.346,0.097,0.181:
1001
0000
1001
0000
0001
0000
1000
0100
0000
0010
0001
0000
0100
0000
0010
0000
,
0110
0000
0110
0000
0010
0000
1000
0001
0000
1000
0001
0100
0001
1000
0100
0000
,
0011
0000
1001
0000
1100
0000
0010
0001
0000
0001
1000
0010
0100
0000
0001
0000
,
0011
0000
0101
0000
0110
0000
0010
0100
0000
0100
0001
1000
0100
0010
0100
0000
,
0011
0000
0101
0000
1010
0000
1000
0001
0000
0001
1000
0000
0010
0100
0010
1000
,
0001
0000
0010
0000
0100
0010
0001
1000
0002
0000
0010
0000
1000
0000
0103
0000
,
0101
0000
0001
1000
0000
1000
0100
0000
,
0010
0001
0100
0010
0100
0001
1000
0000
,
0001
1000
0000
1000
0001
0000
0100
0010
,
0000
0010
0100
0001
0010
0100
0010
0001
,
1000
0000
0001
0100
0000
0100
0001
0000
,
1000
0100
0010
0001
0100
0000
0010
0000
,
0100
0001
1000
0100
0010
0100
1000
0001
,
1001
1100
0011
0110
,
0001
0100
0100
0001
0100
0100
0001
0000
,
1000
0100
0010
0100
1000
0000
0001
0000
,
1000
0010
0010
1000
0010
0010
0100
0000
,
0001
0010
0100
0000
0010
0001
0100
0001
,
0000
1000
0001
1000
0010
0100
0001
0000
,
1000
0100
1000
0100
0010
0100
1000
0001
,
0000
1000
0010
1000
0010
0100
0001
1000
,
0000
0001
0010
0100
0010
0001
1001
0000
,
1010
0000
0101
0000
0001
1000
0100
0010
,
0000
0100
0010
0000
0001
1000
0001
0100
,
0000
0010
1000
0100
0010
0100
1000
0001
,
0000
1000
0010
0100
0001
0010
0001
1001
,
0000
1000
0010
0100
0001
0000
1000
0100
,
0000
0010
0100
0010
1000
0001
1000
0010
,
0100
0001
0100
0001
1000
0010
1000
0010
,
1000
0100
0010
0001
1000
0100
0010
0001
,
1000
0000
0001
0000
1001
0000
0000
1000
0000
0100
0010
0000
0011
0000
0001
0100
,
0001
0000
1000
0000
1010
0000
0000
0010
0000
0100
0001
0000
1000
0100
1000
0000
,
0011
0000
0001
1000
0010
0000
0100
0000
0001
0000
0010
0000
0100
0000
0010
0001
,
0000
0001
1000
0000
0001
0000
1000
0000
0010
0000
0100
0000
0001
1000
0100
0000
,
0110
0000
0000
0000
0010
0000
0001
0000
0100
0000
1000
0000
0100
0000
0001
1000
,
0000
1000
0100
0010
0001
0000
1000
0010
0000
0010
1000
0100
0010
0100
0010
0000
,
1001
0000
1000
0000
0010
0100
0001
1000
0000
0100
0000
0010
0000
0001
0000
0100
,
0000
1000
0000
0010
0000
0001
0000
0000
2002
0000
0000
0000
3003
0000
0100
0000
,
1002
0203
2300
3020
,
0032
0000
0203
0000
0310
0100
0001
1000
,
1100
0000
0010
0001
0000
0001
1000
0000
,
0001
0100
0001
0000
1000
0010
1000
0100
,
0000
0010
0100
1000
0001
0000
1000
0010
,
0000
0100
0001
0010
0100
0000
0011
0000
,
1001
0000
1000
0010
0000
0100
0001
0000
,
0010
0001
0100
0000
0010
1000
0100
0010
,
0000
0100
0010
0001
0100
0010
1000
0001
,
0000
1000
0010
0000
0100
0001
0100
0000
,
1001
0000
1000
0001
0000
0100
0010
1000
,
0100
0000
0010
0001
1000
0100
1000
0001
,
0000
0101
0000
1001
0000
1000
0010
0100
,
0000
0110
0000
1001
0000
1000
0100
0010
,
0001
0000
1000
0010
0000
0010
1000
0000
,
0001
0100
0010
0000
0010
0100
0001
0000
,
1000
0010
0100
0001
0010
0100
0010
0001
,
2000
3020
0230
0301
,
1000
0100
0010
0001
0000
1000
0010
0000
,
0100
0001
0010
0100
0010
0000
1001
0000
,
1000
0010
0100
0010
0000
1000
0100
0000
,
0010
0001
0100
0001
1000
0000
0101
0000
,
1001
0000
1000
0100
0000
0010
0001
0000
,
0100
0001
1000
0010
0100
0000
0110
0000
,
1000
0100
0010
0100
0010
0001
0010
0001
,
1000
0010
0100
0001
0010
0100
0010
0001
,
1001
0000
0000
0000
;

//---------------dance-single - ----------------
#NOTES:
     dance-single:
     :
     Easy:
     5:
     0.311,0.387,0.113,0.064,0.000:
1001
0000
1000
0001
0100
0000
0001
0000
,
1000
0000
0100
0010
0100
0000
0010
0000
,
0011
0000
0001
1000
0001
0000
1000
0000
,
0010
0000
0100
0001
0100
0000
0001
0000
,
1001
0000
1000
0010
0100
0000
0001
0000
,
1000
0000
0100
0010
0001
0000
1000
0000
,
0001
0000
0000
0100
0000
0000
0001
0000
,
1000
0100
0010
0001
,
1000
0000
0000
0010
0000
0000
1000
0000
,
0010
0100
0001
0010
,
0100
0000
0000
0010
0000
0000
0001
0000
,
1000
0001
0100
0010
,
0100
0100
0010
0010
,
1000
0100
0010
0001
,
2002
0000
0000
3003
,
1000
0010
0100
0001
,
1000
0000
0001
0010
,
0100
0010
0001
1000
,
0001
0000
1000
0010
,
1000
0000
0001
0100
,
0001
0000
1000
0100
,
0010
0100
1000
0001
,
2002
0000
0000
3003
,
1000
0010
1000
0001
,
0100
0000
0001
0010
,
0001
1000
0100
0010
,
0100
0000
0010
0001
,
1000
0000
1000
0001
,
0100
1000
0010
0001
,
1000
0100
0010
0001
,
1001
0000
0101
0000
1000
0100
1000
0000
,
0001
0000
0010
0001
1000
0001
0100
0010
,
0100
0000
0010
1000
0001
0000
1000
0001
,
1000
0000
0001
0000
0010
0001
0100
0000
,
0110
0000
0010
1000
0001
0000
1000
0000
,
0100
0000
0010
0000
0001
1000
0001
1000
,
0010
0000
0100
0010
0100
0000
0010
0000
,
1000
0100
0010
0001
1000
0000
0001
0000
,
0201
0001
0010
0010
,
0002
0000
0000
0000
0303
0000
0001
1000
,
0001
0000
1000
0100
,
1000
0000
0001
0100
,
0010
0001
0100
1000
,
0010
0001
1000
0001
,
1001
0000
1000
0010
,
1000
0000
0001
0100
,
0010
0100
1000
0010
,
0001
1000
0010
0100
,
0110
0000
0010
1000
,
0001
0000
0010
0001
,
0100
1000
0010
0001
,
0100
0001
1000
0100
,
0011
0000
0001
1000
,
0001
0000
1000
0010
,
0100
1000
0100
0001
,
2002
0000
0000
3003
,
1000
0100
0010
0001
,
0100
0010
0100
0010
,
1000
0100
1000
0001
,
0100
0010
0100
0001
,
0010
0100
0010
0001
,
1000
0010
0100
0001
,
1000
0010
0001
1000
,
0010
0001
1000
0100
,
1100
0000
0000
0000
;

//---------------dance-single - ----------------
#NOTES:
     dance-single:
     :
     Beginner:
     2:
     0.158,0.232,0.089,0.000,0.000: // measure 1
1000
0001
1000
0000
,  // measure 2
0010
0100
0010
0000
,  // measure 3
1000
0100
0010
0000
,  // measure 4
0100
0010
0001
0000
,  // measure 5
1000
0001
1000
0000
,  // measure 6
0001
0100
0001
0000
,  // measure 7
0110
0000
0000
0000
,  // measure 8
0010
0000
1000
0000
,  // measure 9
0001
0000
0000
0000
,  // measure 10
1000
0000
0100
0000
,  // measure 11
0010
0000
0000
0000
,  // measure 12
0100
0000
0010
0000
,  // measure 13
0001
0000
0000
0000
,  // measure 14
1001
0000
0000
0000
,  // measure 15
0110
0000
0000
0000
,  // measure 16
0010
0000
1000
0000
,  // measure 17
0001
0000
0000
0000
,  // measure 18
1000
0000
0100
0100
,  // measure 19
0100
0000
0010
0000
,  // measure 20
0001
0000
1000
0000
,  // measure 21
0001
0000
0100
0000
,  // measure 22
0110
0000
0000
0000
,  // measure 23
1001
0000
0001
0001
,  // measure 24
0001
0000
1000
0000
,  // measure 25
0010
0000
0100
0000
,  // measure 26
0010
0000
0000
0000
,  // measure 27
0100
0000
0001
0000
,  // measure 28
1000
0000
0100
0000
,  // measure 29
0010
0000
0001
0000
,  // measure 30
1001
0000
0000
0000
,  // measure 31
0110
0000
0100
0010
,  // measure 32
0100
0000
0010
0000
,  // measure 33
0001
0001
1000
1000
,  // measure 34
0001
0000
1000
0000
,  // measure 35
0010
0000
0100
0010
,  // measure 36
0100
0000
0010
0000
,  // measure 37
1000
1000
0001
0001
,  // measure 38
1000
0001
1000
0000
,  // measure 39
0110
0000
0010
0000
,  // measure 40
1001
0000
0000
0000
,  // measure 41
1000
0000
0100
0000
,  // measure 42
1000
0000
0000
0000
,  // measure 43
0001
0000
0100
0000
,  // measure 44
0001
0000
0000
0000
,  // measure 45
1000
0000
0001
0000
,  // measure 46
1000
0000
0000
0000
,  // measure 47
0001
0000
0010
0000
,  // measure 48
0100
0000
0010
0000
,  // measure 49
0001
0000
1000
0000
,  // measure 50
0001
0000
0000
0000
,  // measure 51
0100
0000
0010
0000
,  // measure 52
0100
0000
0000
0000
,  // measure 53
0010
0000
1000
0000
,  // measure 54
0001
0000
0000
0000
,  // measure 55
1000
0000
0100
0000
,  // measure 56
0110
0000
0000
0000
,  // measure 57
0010
0000
0001
0000
,  // measure 58
1000
0000
0010
0000
,  // measure 59
0100
0000
0001
0000
,  // measure 60
0100
0000
0010
0000
,  // measure 61
1000
0000
0100
0000
,  // measure 62
0001
0000
0100
0000
,  // measure 63
0010
0000
0001
0000
,  // measure 64
1000
0000
0001
0000
,  // measure 65
1001
0000
0000
0000
;
