#TITLE:Sans Logique;
#SUBTITLE:;
#ARTIST:Mylène Farmer;
#TITLETRANSLIT:;
#SUBTITLETRANSLIT:;
#ARTISTTRANSLIT:;
#CREDIT:;
#BANNER:;
#BACKGROUND:;
#LYRICSPATH:;
#CDTITLE:;
#MUSIC:Sans Logique.mp3;
#OFFSET:-8.180;
#SAMPLESTART:40.750;
#SAMPLELENGTH:16.300;
#SELECTABLE:YES;
#DISPLAYBPM:118.000;
#BPMS:0.000=117.790;
#STOPS:;
#BGCHANGES:;

//---------------dance-single - ----------------
#NOTES:
     dance-single:
     :
     Hard:
     8:
     0.419,0.450,0.106,0.016,0.176:
1000
0000
0000
0001
0100
0000
0010
0000
0100
0000
0000
0000
0010
0000
1000
0000
,
0100
0000
0010
0100
0000
0100
1000
0000
,
0001
0000
0000
1000
0010
0000
1000
0000
0001
0000
0000
0000
1000
0000
0001
0000
,
0100
0000
0010
1000
0000
1000
0001
0000
,
0100
0000
0000
0010
0100
0000
0001
0000
1000
0000
0000
0000
0001
0000
1000
0000
,
0100
0000
0010
0100
0000
1000
0001
0000
,
1000
0000
0000
0010
0100
0000
0001
0000
1000
0000
0100
0000
0010
0000
0001
0000
,
1000
0000
0001
0002
0000
1000
1003
0000
,
1000
0000
0000
1000
0100
0000
1000
0000
0001
0000
0000
0000
0100
0000
0010
0000
,
0100
0000
0001
1000
0001
0000
0110
0000
,
0010
0000
0000
0010
1000
0000
0010
0000
0100
0000
0000
0000
0001
0000
1000
0000
,
0100
0000
0010
0001
1000
0000
0110
0000
,
1001
0000
0000
0001
1000
0000
0001
0000
1000
0000
0000
0000
0100
0000
0010
0000
,
0001
0000
1000
0001
0100
0000
1010
0000
,
0001
0000
0000
1000
0100
0000
0010
0000
0001
0000
0000
0000
0100
0000
0010
0000
,
1000
0000
0000
0000
0100
0000
0010
0000
0001
0000
1000
0000
0001
0100
0001
0100
,
0010
1000
0100
0010
0001
0000
0001
0100
,
0000
0000
0100
0000
0001
0000
1000
0000
0001
0000
1000
0001
1000
0000
0000
0000
,
0001
0010
0002
0000
0100
0000
1000
1003
,
0000
0000
0001
0000
1000
0000
0010
0000
0100
0000
0001
0100
0001
0000
0000
0000
,
1000
0001
1000
0100
0000
0010
0001
0100
,
0000
0000
0010
0000
1000
0000
0001
0000
0100
0000
0001
1000
0001
0000
1000
0000
,
0100
0000
0001
1000
0000
1000
0001
0100
,
0100
0000
0010
0000
1000
0000
0100
0000
0010
0000
0100
1000
0100
0000
1000
0000
,
1001
0000
0101
0001
1000
0000
0001
1000
,
0000
1000
0001
0000
0010
0001
0100
0000
,
0010
1000
0100
0001
0100
1000
0010
0100
,
0000
0001
0100
0000
0001
1000
0001
0000
,
1000
0100
0010
0001
0010
0001
0100
0010
,
0000
0010
0100
0000
0001
1000
0001
0000
,
1000
0100
0001
0100
1000
0010
1000
0001
,
0000
0110
0000
0001
1000
0001
1000
0000
,
0001
0000
0100
0000
0000
0000
0110
0000
0000
0000
0010
1000
0001
0000
1000
0000
,
0100
0000
0010
0000
0000
0000
0011
0000
0000
0000
0001
0000
1000
0001
1000
0001
,
0100
0000
0001
0000
0000
0100
0000
0000
0001
0000
1000
0000
0000
0001
0000
1000
,
0100
0000
0010
0000
0000
0001
0000
0000
0010
0000
0000
0001
0000
0000
1000
0000
,
0010
0000
0100
0000
0000
0001
0000
0000
1000
0000
0100
0000
0000
0010
0000
0001
,
0010
0000
0001
0000
0000
1000
0000
0000
0010
0000
0000
0100
0000
0000
0001
0000
,
1000
0000
0100
0000
0000
0010
0000
0100
1000
0000
0001
0000
0000
1000
0000
0001
,
1000
0000
0010
0000
0000
0100
0000
0000
0001
0000
0000
0100
0000
0000
0010
0000
,
1000
0000
0001
0000
0100
0010
0000
0010
0100
0000
0001
0000
1000
0100
0000
0100
,
1000
0000
0001
0000
0010
0001
0000
0001
1000
0000
0001
0000
0101
0000
0100
0000
,
0110
0000
1001
0000
1000
0001
0100
0010
,
1000
0000
0100
0000
0010
0000
0000
0010
0001
0000
1000
0000
0010
0000
0000
0000
,
1000
0001
1000
0010
0100
0010
1000
0100
,
0010
0001
1000
0001
0010
0100
0110
0000
,
0010
0001
0100
0010
1000
0100
1000
0010
,
0100
0000
0001
0000
1000
0000
0000
0001
1000
0000
0001
0000
1000
0000
0000
0000
,
0010
0100
0001
0010
0100
1000
0010
0100
,
0010
0000
1000
0000
0100
0000
0010
0000
0001
0000
1000
0000
0001
0100
0001
0100
,
0001
0000
0000
0000
;

//---------------dance-single - ----------------
#NOTES:
     dance-single:
     :
     Easy:
     2:
     0.141,0.143,0.033,0.016,0.000:
1000
0001
1000
0000
,
0010
0000
0100
0000
,
0001
1000
0001
0000
,
1000
0000
0100
0000
,
0010
0100
0010
0000
,
0100
0000
1000
0000
,
0010
0100
0010
0000
,
0100
0000
0001
0000
,
1000
1000
1000
0000
,
0001
0000
0100
0000
,
0001
0001
0001
0000
,
0100
0000
0010
0000
,
0100
0100
0100
0000
,
0010
0000
1000
0000
,
0010
0010
0010
0000
,
1000
0000
0001
0000
,
1001
0000
1000
0001
,
0100
0000
0010
0000
,
0100
0000
0010
1000
,
0001
0000
1000
0000
,
0001
0000
1000
0001
,
0010
0000
0100
0000
,
0010
0000
0100
1000
,
0001
0000
1000
0000
,
1001
0000
0001
0000
,
0100
0000
0010
1000
,
0010
0000
0100
0000
,
0001
0000
1000
0001
,
1000
0000
0001
0000
,
0010
0000
0001
0010
,
0001
0000
0100
0000
,
0010
0000
1000
0000
,
2002
0000
0000
0000
,
0000
0000
0000
3003
,
1000
0000
0001
0000
,
0100
0000
0010
0010
,
0010
0000
0100
0000
,
0001
0000
1000
1000
,
1000
0000
0001
0000
,
1000
0000
0100
0100
,
0100
0000
0010
0000
,
0100
0000
0010
0001
,
0010
0000
0001
0000
,
1000
0000
0010
0000
,
0100
0000
0001
0000
,
1000
0000
0000
0000
,
0001
0000
1000
0000
,
0100
0000
0010
0000
,
0001
0000
0100
0000
,
0010
0000
0000
0000
,
1001
0000
0000
0000
;

//---------------dance-single - ----------------
#NOTES:
     dance-single:
     :
     Beginner:
     1:
     0.098,0.123,0.016,0.000,0.000:
1000
0000
0000
0000
,
0001
0000
1000
0000
,
0001
0000
0000
0000
,
0100
0000
0010
0000
,
0100
0000
0000
0000
,
0010
0000
1000
0000
,
0010
0000
0000
0000
,
0100
0000
0001
0000
,
0100
0000
0000
0000
,
0001
0000
0001
0000
,
0001
0000
0000
0000
,
1000
0000
1000
0000
,
1000
0000
0000
0000
,
0100
0000
0100
0000
,
0100
0000
0000
0000
,
0010
0000
0010
0000
,
0010
0000
0001
0000
,
1000
0000
0000
0000
,
0001
0000
1000
0000
,
0010
0000
0000
0000
,
0100
0000
0010
0000
,
1000
0000
0000
0000
,
0001
0000
1000
0000
,
0001
0000
0000
0000
,
1000
0000
0100
0000
,
1000
0000
1000
0000
,
0001
0000
0100
0000
,
0001
0000
0001
0000
,
1000
0000
0010
0000
,
0100
0000
0100
0000
,
0010
0000
0100
0000
,
0001
0000
0001
0000
,
1001
0000
0000
0000
,
0000
0000
0000
0000
,
0001
0000
0001
0000
,
0001
0000
0001
0000
,
1000
0000
1000
0000
,
1000
0000
1000
0000
,
0010
0000
0100
0000
,
0010
0000
0100
0000
,
0001
0000
1000
0000
,
0001
0000
1000
0000
,
0100
0000
0000
0000
,
0010
0000
0001
0000
,
1000
0000
0000
0000
,
0001
0000
0100
0000
,
0010
0000
0000
0000
,
0100
0000
0010
0000
,
1000
0000
0000
0000
,
0001
0000
1000
0000
,
1001
0000
0000
0000
;

//---------------dance-single - ----------------
#NOTES:
     dance-single:
     :
     Medium:
     5:
     0.312,0.307,0.057,0.016,0.000:
1000
0000
0001
0100
0001
0000
1000
0000
,
0001
0000
1000
0001
0000
0001
0100
0000
,
0010
0000
1000
0010
1000
0000
0001
0000
,
1000
0000
0100
1000
0000
1000
0100
0000
,
0010
0000
0001
0100
0001
0000
1000
0000
,
0010
0000
0100
0001
0000
0001
1000
0000
,
0100
0000
0010
0100
1000
0000
0100
0010
,
0100
0000
0010
0001
0000
0001
1000
0000
,
0001
0000
1000
0000
0010
0000
0100
0001
,
0100
0000
0001
1000
0000
1000
0001
0000
,
1000
0000
0100
0000
0010
0000
0001
1000
,
0001
0000
1000
0010
0000
0100
0001
0000
,
1000
0000
0001
0000
1000
0000
0100
0010
,
0100
0000
0010
0001
0000
1000
0100
0000
,
1000
0000
0010
0000
0100
0000
0001
0100
,
0001
0000
1000
0001
0000
1000
1001
0000
,
0101
0000
1000
0010
0100
0000
0010
0000
,
1000
0000
0100
0000
0010
0001
0010
0000
,
0001
0000
1000
0100
0010
0000
0100
0000
,
0010
0000
0001
0000
1000
0001
1000
0000
,
0001
0000
0100
0010
1000
0000
0010
0000
,
0100
0000
0001
0000
0010
0001
0010
0000
,
0001
0000
1000
0001
1000
0000
0001
0100
,
0000
0001
1000
0000
0010
1000
0010
0000
,
0101
0000
1001
0000
1000
0100
1000
0000
,
0001
0000
1000
0000
0001
0100
0010
1000
,
0100
0000
0010
0000
0001
1000
0001
0000
,
1000
0000
0010
0000
0100
0001
0100
0010
,
0100
0000
0001
0000
1000
0001
1000
0000
,
0001
0000
0010
0000
0001
1000
0001
1000
,
0100
0000
0010
0000
0001
0000
1000
0001
,
0000
0001
1000
0000
0001
0100
0001
0000
,
2000
0010
0000
0001
0000
3100
0000
0000
,
0020
0001
0000
0100
0000
0031
0000
0000
,
0001
1000
0000
0000
1000
0010
0000
0000
,
0010
0100
0000
0000
0100
0000
0001
0000
,
1000
0001
0000
0000
0001
1000
0000
0000
,
1000
0100
0000
0000
0010
0000
0001
0000
,
1000
0100
1000
0000
0001
0100
0001
0000
,
1000
0010
1000
0000
0001
0000
0100
0000
,
0001
1000
0001
0000
0100
0010
0100
0000
,
0010
1000
0100
0000
0110
0000
1001
0000
,
0101
0000
0001
1000
0100
0000
0010
0001
,
0000
0001
1000
0000
0010
0100
0010
0000
,
0100
0000
0001
1000
0100
0000
0010
0001
,
0000
0001
1000
0000
0010
0100
0001
0100
,
0001
0000
1000
0100
1000
0000
0001
0010
,
0000
0010
0001
0000
1000
0010
1000
0000
,
0001
0000
0100
0010
0100
0000
0001
1000
,
0000
1000
0001
0000
1000
0100
0010
0001
,
0100
0000
0000
0000
;
