#TITLE:RVTK-1;
#SUBTITLE:;
#ARTIST:DUB-GB;
#TITLETRANSLIT:;
#SUBTITLETRANSLIT:;
#ARTISTTRANSLIT:;
#CREDIT:;
#BANNER:;
#BACKGROUND:;
#LYRICSPATH:;
#CDTITLE:;
#MUSIC:RVTK-1.mp3;
#OFFSET:-3.600;
#SAMPLESTART:8.770;
#SAMPLELENGTH:10.390;
#SELECTABLE:YES;
#DISPLAYBPM:92.000;
#BPMS:0.000=92.360;
#STOPS:;
#BGCHANGES:;

//---------------dance-single - ----------------
#NOTES:
     dance-single:
     :
     Hard:
     7:
     0.391,0.385,0.226,0.181,0.130: // measure 1
1000
0000
0001
0000
0100
0010
0100
0000
,  // measure 2
0001
0000
1000
0000
0100
0010
0100
1100
,  // measure 3
1001
0000
0000
0000
0101
0000
0000
0000
0001
0000
1000
0000
0100
1000
0100
0000
,  // measure 4
0010
0000
0001
0000
1000
0001
0000
0002
0000
0000
0000
0000
0100
0000
0100
0000
,  // measure 5
0103
0000
0001
0000
1000
0100
1000
0000
,  // measure 6
0100
0000
0010
0000
0100
0000
1000
0002
0000
0000
0100
0000
0100
0000
0100
0000
,  // measure 7
0103
0000
0010
1000
0000
0100
0001
0100
,  // measure 8
1000
0001
1000
0010
0000
0100
0001
0010
,  // measure 9
0012
0000
1003
0010
0000
0100
0001
0010
,  // measure 10
1000
0010
0001
0100
0000
0010
1000
0001
,  // measure 11
1002
0000
1000
0000
1000
0100
1003
0000
,  // measure 12
2010
0000
0010
0000
0010
0001
3010
0000
,  // measure 13
0120
0000
0100
0000
0100
1000
0130
0000
,  // measure 14
0102
0000
0000
0000
0100
0000
0000
0100
0000
0000
0100
0000
0103
0000
0000
0000
,  // measure 15
0001
0100
1000
0000
1000
0100
0001
0000
,  // measure 16
0010
0001
1000
0000
0001
1000
1100
0000
,  // measure 17
0100
0000
0010
0000
0001
0000
1000
0001
0000
0001
1000
0000
0001
0000
0100
0000
,  // measure 18
1000
0000
0100
0000
0001
1000
0000
0000
0001
0000
0011
0000
0110
0000
0011
0000
,  // measure 19
0001
0000
0000
0000
1000
0000
0010
0000
0100
0001
0000
0001
1000
0000
0100
0000
,  // measure 20
0010
0000
0100
0000
0011
0001
1000
0000
,  // measure 21
2010
3002
0020
0000
,  // measure 22
0000
0000
0000
0000
0033
0000
0000
0000
0001
1000
0001
1000
0001
0000
1000
0000
,  // measure 23
0001
0000
0010
0000
1000
0000
0000
1000
0000
0010
0000
0001
1000
0000
0001
0000
,  // measure 24
0100
0000
0010
0000
1000
0000
0000
2002
0000
0000
0003
0000
0001
0000
3001
0000
,  // measure 25
0001
0000
0100
0000
1000
0000
0000
1000
0000
0100
0000
0001
1000
0000
0100
0000
,  // measure 26
0010
0000
0100
0000
1000
0000
0001
0200
0000
0000
0010
0000
0310
0000
0000
0000
,  // measure 27
2000
0000
3100
0010
0000
0100
1000
0001
,  // measure 28
0100
1000
0100
0001
0000
1001
0000
1000
,  // measure 29
0100
0010
0001
0200
0000
0010
0310
0000
,  // measure 30
0010
1000
0100
0020
0000
0001
0000
0100
,  // measure 31
0000
0001
0031
0000
0000
0011
1100
0011
,  // measure 32
0001
0000
1000
0000
0010
0000
0000
0110
0000
0000
0100
0000
0010
1000
0001
0000
,  // measure 33
1000
0000
0001
0000
1000
0000
0010
1000
0000
0000
0000
0000
0000
0000
0000
0000
;

//---------------dance-single - ----------------
#NOTES:
     dance-single:
     :
     Medium:
     5:
     0.283,0.257,0.090,0.136,0.017: // measure 1
1000
0000
0001
0000
0010
0010
0010
0000
,  // measure 2
0001
0000
1000
0000
0100
0100
0100
0000
,  // measure 3
0010
0001
0100
0000
0001
0100
0001
0000
,  // measure 4
1000
0000
0010
1000
0200
0000
0300
0000
,  // measure 5
0010
0001
1000
0000
0001
1000
0100
0000
,  // measure 6
0010
0000
0100
0010
0002
0000
0003
0000
,  // measure 7
1001
0000
0000
0001
0000
0000
1000
0000
,  // measure 8
0010
0000
0100
0000
0010
0100
0000
0100
,  // measure 9
0001
0000
0000
1000
0000
0000
0001
0000
,  // measure 10
1000
0000
0100
0000
0010
0001
0000
0001
,  // measure 11
1000
0000
0001
0000
0100
0100
0001
0000
,  // measure 12
0010
0000
0100
0000
0010
0010
0001
0000
,  // measure 13
1000
0000
0010
0000
0100
0100
0001
0000
,  // measure 14
0010
0100
0220
0330
,  // measure 15
0010
0001
0010
0000
0001
1000
0001
0000
,  // measure 16
1000
0010
1000
0000
0001
0000
1001
0000
,  // measure 17
1000
0100
0001
0100
,  // measure 18
0010
0001
0010
0000
0001
1000
0001
1000
,  // measure 19
0010
0000
0100
0000
0001
0100
0001
0000
,  // measure 20
1000
0100
1000
0000
0022
0000
0033
0000
,  // measure 21
0011
1100
2002
0000
,  // measure 22
0000
0000
3003
0000
0001
1000
0001
1000
,  // measure 23
0001
0000
0100
0000
0010
0100
0001
0000
,  // measure 24
1000
0000
0100
0000
0010
0000
0000
0020
0000
0000
0000
0000
0030
0000
0000
0000
,  // measure 25
0001
0000
0010
0000
0001
1000
0001
0000
,  // measure 26
1000
0010
0100
0001
2000
0000
3000
0000
,  // measure 27
0001
0000
0000
1000
0000
1000
0100
0000
,  // measure 28
0010
0000
0100
0000
0010
0001
0000
0010
,  // measure 29
0001
1000
0001
2000
0000
0000
3001
0000
,  // measure 30
0001
0010
0001
0020
0000
0000
0130
0000
,  // measure 31
0000
0000
0110
0000
0000
0001
1000
0001
,  // measure 32
1000
0000
0000
0000
0001
0000
0000
0001
0000
0000
0001
0000
1000
0000
0001
0000
,  // measure 33
0100
0000
0100
0000
0100
0000
0100
0010
0000
0000
0000
0000
0000
0000
0000
0000
;

//---------------dance-single - ----------------
#NOTES:
     dance-single:
     :
     Easy:
     3:
     0.181,0.184,0.068,0.113,0.000: // measure 1
1000
0001
0100
0100
,  // measure 2
0100
0010
2000
3000
,  // measure 3
1001
0001
0010
0100
,  // measure 4
0010
0001
0100
0000
,  // measure 5
0010
0100
0001
1000
,  // measure 6
0100
0010
0001
0000
,  // measure 7
1000
0000
0010
0000
,  // measure 8
1000
0100
0010
0100
,  // measure 9
0010
0000
0001
0000
,  // measure 10
0100
0001
1000
0010
,  // measure 11
0200
0000
0000
0000
,  // measure 12
0302
0000
0010
0000
,  // measure 13
2003
0000
0000
0000
,  // measure 14
3200
0000
0020
0330
,  // measure 15
0010
0001
1000
0001
,  // measure 16
0100
0010
0100
0110
,  // measure 17
0100
0001
2000
0000
,  // measure 18
3010
1000
0100
0100
,  // measure 19
0100
0000
0010
0000
,  // measure 20
0001
1000
1001
0000
,  // measure 21
0001
0100
0220
0000
,  // measure 22
0000
0000
0330
0000
,  // measure 23
1001
0001
0010
0100
,  // measure 24
0010
0001
1000
0000
,  // measure 25
0001
0100
0010
0100
,  // measure 26
0001
1000
0100
0000
,  // measure 27
0010
0000
0100
0000
,  // measure 28
0010
0001
1000
0001
,  // measure 29
0100
0010
1000
0000
,  // measure 30
0001
1000
0200
0000
,  // measure 31
0000
0310
0000
0000
,  // measure 32
1000
0001
0100
0010
,  // measure 33
0100
0001
1001
0000
;

//---------------dance-single - ----------------
#NOTES:
     dance-single:
     :
     Beginner:
     1:
     0.111,0.129,0.045,0.000,0.000: // measure 1
1000
0000
0001
0000
,  // measure 2
0100
0000
0100
0000
,  // measure 3
0010
0000
0100
0000
,  // measure 4
0001
0001
0001
0000
,  // measure 5
1000
0000
0001
0000
,  // measure 6
1000
1000
1000
0000
,  // measure 7
1001
0000
0001
0000
,  // measure 8
0010
0000
0100
0000
,  // measure 9
0010
0000
0001
0000
,  // measure 10
0100
0000
0010
0000
,  // measure 11
0110
0000
0000
0000
,  // measure 12
0010
0000
0000
0000
,  // measure 13
1000
0000
0000
0000
,  // measure 14
0001
0000
0000
0000
,  // measure 15
1000
0000
1000
0000
,  // measure 16
0001
0000
0100
0000
,  // measure 17
0010
0000
0010
0000
,  // measure 18
0100
0000
0001
1000
,  // measure 19
0001
0000
1000
0000
,  // measure 20
0100
0000
0010
0000
,  // measure 21
0100
0100
0100
0000
,  // measure 22
0000
0000
0000
0000
,  // measure 23
0110
0000
0010
0000
,  // measure 24
0001
0000
0000
0000
,  // measure 25
1000
0000
0001
0000
,  // measure 26
0100
0000
0010
0000
,  // measure 27
0100
0000
0010
0000
,  // measure 28
1000
0000
0001
0000
,  // measure 29
1000
1000
1000
0000
,  // measure 30
0001
0001
0001
0000
,  // measure 31
0000
1001
0000
0000
,  // measure 32
0001
0000
1000
0000
,  // measure 33
0100
0100
0100
0000
;
