#TITLE:ROTTARA ROTTARA;
#SUBTITLE:;
#ARTIST:Buono!;
#TITLETRANSLIT:;
#SUBTITLETRANSLIT:;
#ARTISTTRANSLIT:;
#CREDIT:;
#BANNER:;
#BACKGROUND:;
#LYRICSPATH:;
#CDTITLE:;
#MUSIC:ROTTARA ROTTARA.mp3;
#OFFSET:-5.840;
#SAMPLESTART:45.350;
#SAMPLELENGTH:10.900;
#SELECTABLE:YES;
#BPMS:0.000=176.000;
#STOPS:;
#BGCHANGES:;

//---------------dance-single - ----------------
#NOTES:
     dance-single:
     :
     Hard:
     8:
     0.621,0.613,0.377,0.244,0.000: // measure 1
1000
0000
1000
0100
0001
0000
0001
0100
,  // measure 2
1000
0000
2000
0002
3000
0000
0003
0000
,  // measure 3
0001
0000
0001
0010
1000
0000
1000
0010
,  // measure 4
0001
0000
0002
2000
0000
0000
3003
0000
,  // measure 5
1001
0000
0000
0100
0001
0000
1000
0000
,  // measure 6
0100
0000
0000
0010
0100
0000
1000
0000
,  // measure 7
0001
0000
0000
1000
0001
0000
0100
0000
,  // measure 8
0010
0100
0000
0100
0001
1000
0100
0000
,  // measure 9
0110
0000
0010
0001
1000
0001
0100
0000
,  // measure 10
0110
0000
0100
0001
1000
0001
0010
0000
,  // measure 11
0011
0000
0000
0001
1000
0000
0001
0000
,  // measure 12
0100
0000
0001
0100
1000
0000
1000
0100
,  // measure 13
0001
0000
1000
0001
0100
0000
0010
0100
,  // measure 14
0000
0100
0001
1000
0100
0000
0010
0000
,  // measure 15
0100
0000
0010
0001
0100
0000
0010
1000
,  // measure 16
0010
0100
0000
0010
1000
0000
0001
0010
,  // measure 17
1000
0100
0001
0010
,  // measure 18
1000
0000
0001
0000
0100
0010
0100
0000
,  // measure 19
0001
0000
1000
0010
0100
0000
0001
0010
,  // measure 20
0100
0000
0100
0010
0001
0000
0001
0010
,  // measure 21
0110
0000
0100
1100
0000
1000
0001
0202
,  // measure 22
0000
0303
1001
0000
1010
0000
0101
0000
,  // measure 23
0001
0100
0010
1010
0000
1000
0100
2200
,  // measure 24
0000
3300
1100
0000
0011
0000
1001
0000
,  // measure 25
1000
0000
0001
0000
0100
0010
0100
0010
,  // measure 26
0000
0100
0001
1000
0100
0010
0100
1000
,  // measure 27
0002
0000
0003
1000
0100
0010
0100
1000
,  // measure 28
2002
0000
0000
0003
,  // measure 29
0001
0000
0001
0000
0001
0001
3001
0000
,  // measure 30
0001
0100
1000
0100
0001
0000
1000
0100
,  // measure 31
1000
0011
0001
0101
,  // measure 32
0100
0010
0001
0010
0100
0000
0010
1000
,  // measure 33
0001
0000
1001
0000
1000
0100
0010
0000
,  // measure 34
0110
0100
1000
0010
,  // measure 35
0110
0000
0100
0000
0001
1000
0001
0000
,  // measure 36
1000
0010
0100
0001
0100
0001
0010
0000
,  // measure 37
0001
0010
0200
0020
0000
0000
0330
0000
,  // measure 38
0110
0000
1000
0100
0001
0000
0100
1000
,  // measure 39
0001
0100
1000
0000
0100
0001
0100
0000
,  // measure 40
0001
0010
1000
0010
0001
0000
0100
0010
,  // measure 41
1000
0000
0100
0010
1000
0010
0001
0000
,  // measure 42
0011
0000
0010
0000
1000
0010
0001
0000
,  // measure 43
0001
0000
0100
0000
1000
0100
0001
0000
,  // measure 44
1000
0010
0100
0000
0010
0000
0100
0001
,  // measure 45
0000
0001
1000
0000
0001
0010
0100
1000
,  // measure 46
1001
1001
0110
0110
,  // measure 47
1010
0101
0011
1100
,  // measure 48
1001
0000
0001
0001
0001
0000
0100
0100
,  // measure 49
0100
0000
0010
2000
0000
0001
3001
0000
,  // measure 50
1001
0000
0001
0100
1000
0000
0001
0100
,  // measure 51
1000
0000
0001
1000
0002
0000
1003
0000
,  // measure 52
1001
0000
0001
0100
1000
0000
0001
0010
,  // measure 53
1000
0000
0001
2000
0000
0001
3001
0000
,  // measure 54
1001
0000
1000
0100
0001
0000
0001
0100
,  // measure 55
1000
0000
0002
0200
0000
0000
0303
0000
,  // measure 56
0001
0100
0010
0100
0001
0100
0010
1000
,  // measure 57
0100
1000
0010
2000
0000
0000
3001
0000
,  // measure 58
1000
0100
0010
0100
0010
0001
1000
0010
,  // measure 59
0001
0010
1000
0002
0000
0000
1003
0000
,  // measure 60
0001
0100
0001
0010
0100
0010
0001
1000
,  // measure 61
0010
1000
0100
0020
0000
0000
0031
0000
,  // measure 62
0001
1000
0010
0100
0001
1000
0001
0100
,  // measure 63
1000
0100
0001
2000
0000
0000
3100
0000
,  // measure 64
0011
0001
0100
0010
0100
0001
1000
0100
,  // measure 65
0001
0100
1000
0010
0100
0001
0010
0100
,  // measure 66
0010
0001
0100
1000
0100
0001
1000
0100
,  // measure 67
1000
0001
1000
2002
0000
0000
0000
3003
;

//---------------dance-single - ----------------
#NOTES:
     dance-single:
     :
     Medium:
     5:
     0.490,0.475,0.478,0.204,0.000: // measure 1
1000
0100
0010
0001
,  // measure 2
1000
0000
0002
2000
0003
0000
3000
0000
,  // measure 3
0001
0100
0010
1000
,  // measure 4
0001
0000
0020
0200
0000
0000
0330
0000
,  // measure 5
1000
0000
0000
1000
0100
0000
0000
0000
,  // measure 6
0010
0001
1000
0001
,  // measure 7
0100
0000
0000
0100
0010
0000
0000
0000
,  // measure 8
1000
0100
0010
0001
,  // measure 9
1000
0000
0001
0100
,  // measure 10
0010
0100
0001
0000
,  // measure 11
1001
0000
1000
0100
,  // measure 12
0010
0010
0100
0100
,  // measure 13
1001
0000
0000
1000
0001
0000
0100
0000
,  // measure 14
0010
0100
0001
1000
,  // measure 15
0100
0000
0000
0010
0100
0000
0010
0000
,  // measure 16
0001
0100
1000
0100
,  // measure 17
0001
1000
0001
0010
,  // measure 18
0100
0010
0001
0100
,  // measure 19
0010
0000
0000
1000
0010
0000
0100
0000
,  // measure 20
0001
0000
0010
0001
0010
0000
0001
0000
,  // measure 21
1001
0000
0000
0110
0000
0000
0100
0020
,  // measure 22
0000
1000
1000
1030
,  // measure 23
1010
0000
0000
0101
0000
0000
1000
0002
,  // measure 24
0000
0010
0010
0013
,  // measure 25
1100
0000
1000
0000
0010
0000
0001
0010
,  // measure 26
0000
0010
1000
0000
0001
0000
1000
0000
,  // measure 27
0100
0000
0010
0100
0010
0000
0001
0000
,  // measure 28
2002
0000
0000
0003
,  // measure 29
0001
0000
0001
0000
0001
0001
3001
0000
,  // measure 30
1000
0001
0000
0001
1000
0000
0001
0000
,  // measure 31
0100
0000
0010
0000
0100
0010
0100
0000
,  // measure 32
0010
1000
0000
1000
0001
0000
0010
0000
,  // measure 33
0100
0000
0010
0000
0001
1000
0001
0000
,  // measure 34
1000
0100
0010
0011
,  // measure 35
0001
0100
0010
1010
,  // measure 36
1000
0100
0001
0100
,  // measure 37
1000
0000
0002
2000
0000
0000
3003
0000
,  // measure 38
1000
0010
0000
0010
1000
0000
0001
0000
,  // measure 39
0100
0010
0100
0001
,  // measure 40
1000
0100
0000
0100
1000
0000
0001
0000
,  // measure 41
0010
0000
0100
0000
0010
0001
1000
0000
,  // measure 42
0001
0100
0010
0110
,  // measure 43
0100
0001
0010
0110
,  // measure 44
0100
0000
1000
0000
0001
0000
1000
0001
,  // measure 45
0000
0001
0100
0000
0010
0000
0100
0000
,  // measure 46
0110
0110
1001
1001
,  // measure 47
0011
0011
1100
1100
,  // measure 48
1000
0001
0100
1000
,  // measure 49
0100
0000
0020
0200
0000
0330
0000
0000
,  // measure 50
1001
0000
1000
0000
0100
0000
0010
0001
,  // measure 51
1000
0000
2000
0002
3000
0000
0003
0000
,  // measure 52
1001
1000
0010
0100
,  // measure 53
0001
0000
2000
0200
0000
3300
0000
0000
,  // measure 54
1100
0000
0100
0000
0010
0000
0001
0010
,  // measure 55
0001
0000
0002
2000
0000
0000
3003
0000
,  // measure 56
1100
1100
0011
0011
,  // measure 57
0001
0000
1000
0001
0000
0001
0100
0000
,  // measure 58
0110
0110
1010
1010
,  // measure 59
1000
0000
0001
0010
0000
0010
0001
0000
,  // measure 60
0101
0101
0011
0011
,  // measure 61
1000
0000
0100
1000
0000
1000
0001
0000
,  // measure 62
0101
0101
1001
1001
,  // measure 63
1000
0000
0001
1000
0000
1000
0100
0000
,  // measure 64
0110
0011
0110
0011
,  // measure 65
0001
0000
1000
0010
0000
0010
1000
0000
,  // measure 66
0101
1001
0101
0110
,  // measure 67
1000
0001
2000
0002
0000
3003
0000
0000
;

//---------------dance-single - ----------------
#NOTES:
     dance-single:
     :
     Easy:
     4:
     0.307,0.372,0.132,0.020,0.000: // measure 1
1000
0000
0001
0000
,  // measure 2
0100
0010
0100
0000
,  // measure 3
0001
0000
1000
0000
,  // measure 4
0100
0010
0100
0000
,  // measure 5
1000
0000
0001
0000
,  // measure 6
0100
0010
0100
0000
,  // measure 7
0010
0000
1000
0000
,  // measure 8
0001
1000
0001
1000
,  // measure 9
0100
0000
0001
0000
,  // measure 10
0100
0000
1000
0001
,  // measure 11
0100
0000
0010
0000
,  // measure 12
0100
0010
0100
0001
,  // measure 13
1001
0000
0001
1000
,  // measure 14
0100
0010
0100
0000
,  // measure 15
0010
0000
0100
0010
,  // measure 16
0001
1000
0001
0000
,  // measure 17
1000
0000
0001
0000
,  // measure 18
0100
0001
0100
0010
,  // measure 19
1000
0000
0001
1000
,  // measure 20
0100
0000
0010
0000
,  // measure 21
0110
0000
0000
0110
0000
0000
0000
1001
,  // measure 22
0000
1000
0001
1000
,  // measure 23
1001
0000
0000
1001
0000
0000
0000
0110
,  // measure 24
0000
0100
0001
1000
,  // measure 25
0001
0010
0100
0010
,  // measure 26
0001
1000
0001
0100
,  // measure 27
0010
0000
0100
0000
,  // measure 28
2002
0000
0000
0000
,  // measure 29
0000
0000
0000
3003
,  // measure 30
0001
1000
1001
0000
,  // measure 31
0001
0100
0010
0100
,  // measure 32
0010
1000
1001
0000
,  // measure 33
0001
0010
0100
0010
,  // measure 34
0001
0000
1000
0001
,  // measure 35
0100
0000
0010
0100
,  // measure 36
0001
1000
0100
0010
,  // measure 37
0100
0000
0000
0100
0000
0000
0000
0000
,  // measure 38
0010
0001
1001
0000
,  // measure 39
1000
0010
0100
0001
,  // measure 40
0100
0010
0110
0000
,  // measure 41
0100
0001
1000
0000
,  // measure 42
0001
0000
1000
0100
,  // measure 43
1000
0000
0001
0010
,  // measure 44
0100
0010
0001
1000
,  // measure 45
0001
0000
0100
0010
,  // measure 46
0100
0100
0100
0100
,  // measure 47
0100
0100
0100
0100
,  // measure 48
0100
0000
0001
0000
,  // measure 49
1000
0000
0000
1000
0000
0000
0000
0000
,  // measure 50
0010
0000
0100
0000
,  // measure 51
0001
0000
0000
0001
0000
0000
0000
0000
,  // measure 52
1000
0000
0100
0000
,  // measure 53
0010
0000
0000
0010
0000
0000
0000
0000
,  // measure 54
0001
0000
0100
0000
,  // measure 55
0010
0000
0000
0010
0000
0000
0000
0000
,  // measure 56
1000
0100
0010
0001
,  // measure 57
0010
0100
1000
0000
,  // measure 58
0001
0100
0010
1000
,  // measure 59
0010
0100
0001
0000
,  // measure 60
1000
0001
1000
0001
,  // measure 61
0100
0010
0100
0000
,  // measure 62
0010
0100
0001
0010
,  // measure 63
0100
0010
0001
0000
,  // measure 64
1000
0010
1000
0010
,  // measure 65
0100
0001
0010
0100
,  // measure 66
0010
0001
1000
0010
,  // measure 67
0100
0000
0000
1001
0000
0000
0000
0000
;

//---------------dance-single - ----------------
#NOTES:
     dance-single:
     :
     Beginner:
     1:
     0.166,0.235,0.112,0.020,0.000: // measure 1
1000
0000
0010
0000
,  // measure 2
0100
0000
0000
0000
,  // measure 3
0010
0000
0100
0000
,  // measure 4
0001
0000
0000
0000
,  // measure 5
1000
0000
0000
0000
,  // measure 6
0100
0000
0000
0000
,  // measure 7
0010
0000
0000
0000
,  // measure 8
0001
0000
0000
0000
,  // measure 9
1000
0000
0000
0000
,  // measure 10
0001
0000
0100
0000
,  // measure 11
0001
0000
0000
0000
,  // measure 12
1001
0000
0000
0000
,  // measure 13
0110
0000
0000
0000
,  // measure 14
0100
0000
0010
0000
,  // measure 15
1000
0000
0000
0000
,  // measure 16
0001
0000
1000
0000
,  // measure 17
0100
0000
0000
0000
,  // measure 18
0010
0000
0001
0000
,  // measure 19
1000
0000
0000
0000
,  // measure 20
0001
0000
1000
0000
,  // measure 21
1001
0000
0000
0000
,  // measure 22
0000
0100
0100
0000
,  // measure 23
0110
0000
0000
0000
,  // measure 24
0000
0001
0001
0000
,  // measure 25
1001
0000
1000
0000
,  // measure 26
0100
0000
0010
0000
,  // measure 27
0001
0000
0000
0000
,  // measure 28
2002
0000
0000
0000
,  // measure 29
0000
0000
0000
3003
,  // measure 30
1001
0000
0000
0000
,  // measure 31
0001
0000
0100
0000
,  // measure 32
0001
0000
0000
0000
,  // measure 33
1000
0000
0001
0000
,  // measure 34
1000
0000
0000
0000
,  // measure 35
0100
0000
0000
0000
,  // measure 36
0010
0000
0100
0000
,  // measure 37
0010
0000
0001
0000
,  // measure 38
1000
0000
0001
0000
,  // measure 39
0100
0000
0000
0000
,  // measure 40
0010
0000
0100
0000
,  // measure 41
0001
0000
0000
0000
,  // measure 42
1000
0000
0010
0000
,  // measure 43
0100
0000
0010
0000
,  // measure 44
1000
0000
0001
0000
,  // measure 45
1000
0000
0000
0000
,  // measure 46
0001
0000
0010
0000
,  // measure 47
0001
0001
0001
0001
,  // measure 48
0001
0000
1000
0000
,  // measure 49
0001
0000
0000
0000
,  // measure 50
0100
0000
0001
0000
,  // measure 51
0100
0000
0000
0000
,  // measure 52
0010
0000
0100
0000
,  // measure 53
0001
0000
0000
0000
,  // measure 54
1000
0000
0001
0000
,  // measure 55
0010
0000
0000
0000
,  // measure 56
1001
0000
0001
0000
,  // measure 57
0100
0000
0000
0000
,  // measure 58
0110
0000
0010
0000
,  // measure 59
0100
0000
0000
0000
,  // measure 60
1001
0000
1000
0000
,  // measure 61
0100
0000
0000
0000
,  // measure 62
0110
0000
0010
0000
,  // measure 63
0001
0000
0000
0000
,  // measure 64
1000
0000
0001
0000
,  // measure 65
0100
0000
0010
0000
,  // measure 66
1000
0000
0001
0000
,  // measure 67
1000
0000
0000
0000
;
