#TITLE:Prelude;
#SUBTITLE:;
#ARTIST:NAOKI underground;
#TITLETRANSLIT:;
#SUBTITLETRANSLIT:;
#ARTISTTRANSLIT:;
#CREDIT:;
#BANNER:;
#BACKGROUND:;
#LYRICSPATH:;
#CDTITLE:;
#MUSIC:Prelude.mp3;
#OFFSET:-6.880;
#SAMPLESTART:69.030;
#SAMPLELENGTH:13.710;
#SELECTABLE:YES;
#DISPLAYBPM:135.000:140.000;
#BPMS:0.000=140.000,76.000=135.000,100.000=138.000,104.000=140.000;
#STOPS:;
#BGCHANGES:;

//---------------dance-single - ----------------
#NOTES:
     dance-single:
     :
     Beginner:
     2:
     0.139,0.176,0.075,0.000,0.000: // measure 1
1000
0000
1000
0000
,  // measure 2
0001
0000
0001
0000
,  // measure 3
0100
0000
0100
0000
,  // measure 4
0010
0000
0010
0000
,  // measure 5
0110
0000
0000
0000
,  // measure 6
0010
0000
1000
0000
,  // measure 7
0001
0000
0000
0000
,  // measure 8
1000
0000
0001
0000
,  // measure 9
0010
0000
0000
0000
,  // measure 10
0100
0000
0010
0000
,  // measure 11
0001
0000
0000
0000
,  // measure 12
1000
0000
0000
0000
,  // measure 13
1001
0000
0001
0000
,  // measure 14
1000
0000
0010
0000
,  // measure 15
0100
0000
0001
0000
,  // measure 16
0010
0000
0100
0000
,  // measure 17
0010
0000
0000
0000
,  // measure 18
0001
0000
1000
0000
,  // measure 19
0001
0000
0000
0000
,  // measure 20
1000
0000
0010
0000
,  // measure 21
0110
0000
0000
0000
,  // measure 22
0000
0000
0000
0000
,  // measure 23
1001
0000
0000
0000
,  // measure 24
0000
0000
0000
0000
,  // measure 25
0110
0000
0000
0000
,  // measure 26
0000
0000
0000
0000
,  // measure 27
1001
0000
0000
0000
,  // measure 28
0000
0000
0000
0000
,  // measure 29
1001
0000
0001
0000
,  // measure 30
1000
0000
1000
0000
,  // measure 31
0010
0000
0010
0000
,  // measure 32
0100
0000
0100
0000
,  // measure 33
0110
0000
0010
0000
,  // measure 34
1000
0000
0001
0000
,  // measure 35
0000
0000
0000
0000
,  // measure 36
0000
0000
0000
0000
,  // measure 37
1000
0000
0001
0000
,  // measure 38
0100
0000
0010
0000
,  // measure 39
0100
0000
0001
0000
,  // measure 40
1000
0000
0001
0001
,  // measure 41
0001
0000
0100
0000
,  // measure 42
0010
0000
0100
0000
,  // measure 43
0001
0000
1000
0000
,  // measure 44
0100
0100
0100
0000
,  // measure 45
0110
0000
0010
0000
,  // measure 46
0001
0000
1000
0000
,  // measure 47
0001
0000
0100
0000
,  // measure 48
0010
0000
0100
0000
,  // measure 49
0001
0000
1000
0000
,  // measure 50
0100
0000
0010
0000
,  // measure 51
0100
0000
1000
0000
,  // measure 52
0010
0010
0010
0010
,  // measure 53
0010
0000
0100
0000
,  // measure 54
0001
0000
1000
1000
,  // measure 55
1000
0000
0001
0000
,  // measure 56
0010
0000
0100
0100
,  // measure 57
0100
0000
0010
0000
,  // measure 58
0001
0000
0100
0100
,  // measure 59
0100
0000
0010
0000
,  // measure 60
1000
1000
1000
1000
,  // measure 61
1000
0000
0000
0000
;

//---------------dance-single - ----------------
#NOTES:
     dance-single:
     :
     Easy:
     4:
     0.243,0.251,0.050,0.117,0.017:
1000
0000
0001
0100
,
0001
0000
1000
0010
,
0100
0000
0010
0100
,
0001
0000
1000
0100
,
1000
0100
0001
0100
,
1000
0010
0001
0010
,
1000
0100
0010
0001
,
0001
0100
0010
1000
,
0001
0000
1000
0100
,
1000
0000
0001
0010
,
0001
0000
0100
0010
,
0100
0002
0000
0003
,
1000
0010
1000
0001
,
0100
0001
0100
0000
,
0001
0010
0001
1000
,
0100
1000
0001
0000
,
0100
0010
0100
0001
,
1000
0100
0010
0000
,
0100
0010
0001
0100
,
0001
1000
0010
0100
,
0220
0000
0000
0000
,
0000
0000
0000
0330
,
2002
0000
0000
0000
,
0000
0000
0000
3003
,
0202
0000
0000
0000
,
0000
0000
0000
0303
,
2020
0000
0000
0030
,
0001
0001
0002
3003
,
2000
0000
0010
0000
,
0001
0000
0100
0000
,
3002
0000
0010
0000
,
1000
0000
0103
0000
,
2001
0000
0001
0000
,
0010
0000
0010
0000
,
0000
0001
0000
0000
0000
0000
0000
0001
0000
0000
0000
0000
0000
0000
0000
0001
,
0000
0000
0000
0000
0000
0000
0000
0002
0000
0000
0000
0000
3003
0000
0000
0000
,
1000
0010
0100
0010
,
1000
0100
0010
0000
,
0100
0010
0001
0100
,
0001
1000
0010
0100
,
0001
1000
0010
1000
,
0001
0010
0001
0000
,
1000
0100
0001
0100
,
0010
0100
0010
0001
,
1000
1000
0001
0100
,
0001
0001
0100
0000
,
0010
0010
0100
0001
,
1000
1000
0100
0000
,
0010
0010
0100
0010
,
0001
0001
0010
0000
,
0001
1000
0010
0100
,
0001
0001
0001
0001
,
1000
0010
1000
0010
,
0100
0001
0100
0001
,
1000
0100
1000
0100
,
0010
0001
0010
0001
,
1000
0010
0100
0001
,
1000
0100
0010
0001
,
1000
0010
0100
0001
,
1000
0001
0100
0010
,
0110
0000
0000
0000
;

//---------------dance-single - ----------------
#NOTES:
     dance-single:
     :
     Medium:
     7:
     0.414,0.378,0.176,0.159,0.130:
1000
0000
1000
0000
0000
0000
0000
0100
0000
0000
0100
0000
0000
0000
0000
0010
,
0000
0000
0010
0000
0000
0000
0000
0001
0000
0000
0001
0000
0000
0000
1000
0000
,
1000
0000
1000
0000
0000
0000
0000
0010
0000
0000
0010
0000
0000
0000
0000
0100
,
0000
0000
0100
0000
0000
0000
0000
0001
0000
0000
0001
0000
0000
0000
0000
0000
,
1000
0100
1000
0000
0001
0000
0100
0000
,
0001
0100
0001
0000
1000
0000
0010
0000
,
0100
0100
0100
0000
0010
0000
0100
0000
,
0001
0001
0001
0000
1000
0000
0100
0000
,
0010
0100
0010
0000
0001
1000
0001
0000
,
1000
0000
0010
0000
0100
0001
0100
0000
,
0001
0010
0001
0000
1000
0100
1000
0000
,
0001
0000
0000
0000
0200
0000
0000
0000
0000
0001
0000
0001
0000
0301
0000
0000
,
0001
1000
0100
0000
0010
0000
0100
0000
,
0010
0001
0010
0000
0001
1000
0010
1000
,
0001
0100
0010
0100
,
0001
0010
0001
0000
1000
0010
1000
0010
,
0100
0000
0001
0000
1000
0100
1000
0000
,
0001
0100
0001
0000
1000
0010
0100
0010
,
0100
0000
0001
0000
1000
0100
0010
0000
,
0001
1000
0001
1000
0010
0100
0001
1000
,
2001
0000
0000
0001
0000
0000
0002
0000
0000
0000
0000
0000
0000
0000
0000
0000
,
3003
0000
0000
0000
0000
0000
0000
0000
0000
0000
0010
0000
0000
0010
0000
0000
,
0210
0000
0000
0010
0000
0000
0020
0000
0000
0000
0000
0000
0000
0000
0000
0000
,
0330
0000
0000
0000
0000
1000
0001
1000
,
0001
0000
0000
1010
0000
0110
0000
0202
,
0000
0000
0000
0000
0303
0000
0000
0000
0000
0000
0001
0000
0000
1000
0000
0000
,
2010
0000
0000
0001
0000
0000
3100
0000
,
0010
0001
2002
3003
,
0200
0000
0320
0000
,
0230
0000
0302
0000
,
2003
0000
3200
0000
,
0320
0000
0032
0000
,
1003
0000
1000
0000
0000
1000
0000
0000
0001
0000
0001
0000
0000
0001
0000
0000
,
0100
0000
0100
0000
0000
0100
0000
0000
0010
0000
0010
0000
0000
0010
0000
0000
,
0000
1001
0000
0000
0000
0000
0000
0110
0000
0000
0000
0000
0000
0000
0000
1001
,
0000
0000
0000
0000
0000
0000
0000
1100
0000
0000
1001
0000
0000
0000
0000
0000
,
0001
0100
0010
0100
0001
1000
0000
1001
,
0000
1000
0100
0010
0000
0110
0000
1001
,
0000
0001
0100
0010
0100
0001
1000
0100
,
0010
0000
0100
0000
0010
0001
0100
0000
,
1001
0000
0001
0000
1000
0010
1000
0001
,
0000
0100
0010
0100
0000
0110
0000
1001
,
0000
0001
0010
0000
0100
1000
0100
0000
,
0010
0001
0100
0001
2000
0001
3001
0000
,
0001
0010
0001
0000
1000
0100
1000
0000
,
0001
0100
0001
0000
1000
0010
0100
0001
,
0010
0001
0010
0000
0001
0100
0001
0000
,
1000
0010
1000
0000
0010
0100
0010
0100
,
0001
1000
0100
0000
0010
0001
0010
0000
,
0001
1000
0001
0000
1000
0010
0100
0001
,
0010
0001
0010
0000
0001
0100
0010
0000
,
1000
0010
1000
0001
0100
0000
0110
0000
,
1001
0000
0000
0000
0001
0000
0000
0100
0001
0000
0000
0000
1000
0000
0000
0100
,
1000
0000
0000
0000
0001
0000
0000
0010
0001
0000
0010
0000
0000
0000
0001
0000
,
1000
0000
0000
0000
0001
0000
0000
0100
0010
0000
0000
0000
0100
0000
0000
0010
,
1000
0000
0000
0000
0010
0000
0000
1000
0001
0000
1000
0000
0000
0000
0001
0000
,
0010
0000
0000
0000
0001
0000
0000
0001
0100
0000
0000
0000
0100
0000
0000
0010
,
1000
0000
0000
0000
1000
0000
0000
0100
0010
0000
0100
0000
0010
0000
0001
0000
,
0010
0000
0001
1000
0001
0000
1000
0010
,
1000
0001
0100
0001
0100
0001
1000
0010
,
0100
0000
0000
0110
0000
0000
0000
0000
0000
0000
0000
0000
0000
0000
0000
0000
;

//---------------dance-single - ----------------
#NOTES:
     dance-single:
     :
     Hard:
     8:
     0.502,0.505,0.210,0.151,0.432:
1000
0000
0001
0000
0000
0000
0000
1000
0000
0000
0001
0000
0000
0000
0000
0100
,
0000
0000
0010
0000
0000
0000
0000
0100
0000
0000
0001
0000
0000
0000
1000
0000
,
0100
0000
0010
0000
0000
0000
0000
0100
0000
0000
0010
0000
0000
0000
0000
0010
,
0000
0000
0001
0000
0000
0000
0000
0001
1000
0000
0001
0000
0000
0000
0100
0000
,
0120
0000
0000
0000
1000
0000
0000
0100
0000
0100
0000
0130
0000
0000
0000
0000
,
2000
0000
0000
0000
0010
0000
0000
0001
0000
0001
0000
3001
0000
0000
0000
0001
,
0200
0000
0000
0000
0010
0000
0000
0001
0000
0001
0000
0301
0000
0000
0000
0000
,
0002
0000
0000
0000
1000
0000
0000
0100
0000
0100
0000
0103
0000
0000
0000
0010
,
1000
0000
0000
0000
0101
0000
0000
1000
0000
0001
0000
1000
0000
0001
0000
0001
,
0010
0000
0000
0000
1100
0000
0000
0010
0000
0001
0000
0010
0000
0001
0000
0001
,
1000
0000
0001
0000
0100
0000
0000
0010
0000
1000
0000
0001
0000
1000
0000
0100
,
0010
0000
0100
0000
1000
0000
0000
0000
0000
1001
0000
1000
0000
0001
0100
0000
,
0101
0000
1010
0000
0010
1000
0001
1000
,
0100
0000
0000
0000
0010
0000
0000
0001
0000
0010
0000
0001
0000
1000
0000
0010
,
0100
0010
1000
0000
0001
0100
0001
1000
,
0100
0000
0010
0000
0100
0000
0000
0010
0000
0001
0000
1000
0000
0001
0000
1000
,
0010
1000
0010
0100
0001
0010
0001
1000
,
0100
0000
0010
0000
0001
0000
1000
0010
0000
1000
0000
0001
0000
0100
0000
0001
,
0100
0010
1000
0100
0001
0100
1000
0010
,
0100
0001
0010
0100
0010
0001
1000
0001
,
2001
0000
0000
0001
0000
0000
0002
0000
0000
0000
0000
0000
0000
0000
0000
0000
,
3003
0000
0000
0000
0000
0000
0000
0000
0000
0000
0010
0000
0000
1000
0000
0000
,
1002
0000
0000
1000
0000
0000
2000
0000
0000
0000
0000
0000
0000
0000
0000
0000
,
3003
0000
0000
0000
0000
1000
0001
0100
,
0101
0000
0001
1000
0000
1100
0000
0011
,
0000
0000
0000
0000
0000
0000
0000
0000
0000
0000
0001
0000
0000
1000
0000
0000
,
2001
0000
0000
0001
0000
0000
0001
0000
0002
0000
0000
0000
3003
0000
0000
0000
,
1010
0101
1001
0000
,
2000
0000
3020
0000
,
0230
0000
0302
0000
,
2003
0000
3200
0000
,
0320
0000
0230
0000
,
0310
0000
0001
0000
0000
0010
0000
0000
0001
0000
1000
0000
0000
0010
0000
0000
,
0100
0000
0001
0000
0000
1000
0000
0000
0001
0000
1000
0000
0000
0100
0000
0010
,
0000
0110
0000
0000
0000
0100
0000
1100
0000
0000
0000
0000
0000
1000
0000
1001
,
0000
0000
0000
0000
0001
0100
0000
0101
0000
0000
1001
0000
0000
0000
0000
0000
,
0100
0010
0100
0001
0100
0010
0100
0001
,
1000
0100
0010
0001
0100
0010
0100
0001
,
0100
0010
1000
0001
0100
0010
1000
0100
,
1000
0001
0010
0100
0010
0001
1000
0001
,
1001
0001
1000
0010
1000
0100
1000
0001
,
1000
0010
0100
0001
0010
0001
0100
0001
,
1000
0010
0100
0001
0010
0100
0010
0001
,
0100
0010
1000
0010
0100
0001
1000
0100
,
1100
0000
0000
0000
1000
0000
0000
0001
0100
0000
0000
0000
0001
0000
0000
1000
,
0100
0000
0000
0000
1000
0000
0000
0001
0010
0000
0001
0000
1000
0000
0010
0000
,
0100
0000
0000
0000
0001
0000
0000
1000
0010
0000
0000
0000
1000
0000
0000
0100
,
0010
0000
0000
0000
0100
0000
0000
0010
0001
0000
1000
0000
0001
0000
0100
0000
,
0101
0000
0000
0000
0001
0000
0000
1000
0001
0000
0000
0000
1000
0000
0000
0010
,
1000
0000
0000
0000
0010
0000
0000
0100
0010
0000
0100
0000
0001
0000
1000
0000
,
0100
0000
0000
0000
0010
0000
0000
0100
1000
0000
0000
0000
0001
0000
0000
1000
,
0100
1000
0000
0100
1000
0000
0001
0000
0010
0001
0010
0000
1001
0000
0000
0000
,
1000
0000
0010
0000
1000
0000
0000
1000
0001
0000
1000
0000
0100
0000
0000
0100
,
0010
0000
0100
0000
0010
0000
0000
0010
0001
0000
1000
0000
0001
0000
0100
0000
,
0010
0000
1000
0000
0001
0000
0000
1000
0001
0000
0100
0000
0010
0000
0000
0010
,
1000
0000
0100
0000
0010
0000
0000
0100
0010
0000
0100
0000
0010
0000
0001
0000
,
1000
0000
0001
0000
1000
0001
0000
0001
1000
0000
0010
0000
0100
0010
0000
0010
,
0100
0000
0001
0000
1000
0100
0000
0100
1000
0000
0001
0000
0010
0000
0001
0000
,
0100
0000
0010
0000
1000
0010
0000
0010
1000
0000
0001
0000
0100
0001
0000
0001
,
0100
0000
0001
0000
1000
0000
0100
0000
1000
0000
0001
0000
0100
0010
0100
0010
,
0000
0000
0000
1001
0000
0000
0000
0000
0000
0000
0000
0000
0000
0000
0000
0000
;

//---------------dance-single - ----------------
#NOTES:
     dance-single:
     :
     Challenge:
     9:
     0.590,0.631,0.235,0.075,0.675:
1000
0000
0001
0000
0000
0000
0000
0001
0000
0000
0100
0000
0000
0000
0000
0010
,
0000
0000
1000
0000
0000
0000
0000
0001
0000
0000
1000
0000
0001
0000
1000
0000
,
0100
0000
0010
0000
0000
0000
0000
0100
0000
0000
1000
0000
0000
0000
0000
0001
,
0000
0000
0100
0000
0000
0000
0000
0010
0000
0000
1000
0000
0100
0000
0010
0000
,
0011
0000
0000
0000
0001
0000
0000
1000
0000
0010
0000
1000
0000
0010
0000
0100
,
0010
0000
1000
0000
0001
0000
0000
1000
0000
0001
0000
1000
0000
0001
0000
0010
,
0100
0000
0000
0000
0010
0000
0000
0001
0000
0010
0000
0100
0000
1000
0000
0001
,
1000
0000
0001
0000
1000
0000
0000
0001
0000
0100
0000
0010
0000
1000
0000
0001
,
0010
0000
0010
0000
0010
0000
0000
0100
0000
1000
0000
0001
0000
1000
0000
0010
,
0100
0000
0100
0000
0100
0000
0000
0001
0000
1000
0000
0100
0000
0010
0000
0001
,
1000
0000
1000
0000
1000
0000
0000
0010
0000
1000
0000
0001
0000
0010
0000
0100
,
0010
0000
0010
0000
0010
0000
0000
0100
0000
1100
0000
1001
0000
0001
0100
0000
,
1001
0000
1000
0000
0100
0000
0010
0001
0000
0000
1000
0000
0010
0000
0100
0000
,
0001
0000
1000
0000
0100
0000
0010
0100
0000
0010
0000
0001
0000
1000
0000
0001
,
0100
0000
0001
0000
1000
0000
0001
0100
0000
0000
0010
0000
1000
0000
0001
0000
,
1000
0000
0100
0000
0010
0000
0001
0010
0000
0100
0000
1000
0000
0100
0000
0010
,
0001
0000
1000
0000
0001
0000
1000
0010
0000
0100
0000
0001
0000
1000
0000
0100
,
1000
0000
0100
0000
0010
0000
0001
0100
0000
0010
0000
0100
0000
0001
0000
1000
,
0100
0000
0010
0000
0001
0000
1000
0001
0000
1000
0000
0010
0000
0100
0000
0001
,
1000
0000
0010
0000
0100
0000
0001
0000
1000
0000
0100
0000
0010
0100
0010
0100
,
2000
0000
0000
0010
0000
0000
0002
0000
0000
0000
0000
0000
0000
0000
0000
0000
,
3003
0000
0000
0000
0000
0000
0000
0000
0000
0000
1100
0000
0000
0110
0000
0000
,
1100
0000
0000
1001
0000
0000
0202
0000
0000
0000
0000
0000
0000
0000
0000
0000
,
0303
0000
0000
0000
0000
0001
1000
0010
,
0110
0000
0000
0101
0000
1001
0000
1100
,
0000
0000
0000
0000
0000
0000
0000
0000
0000
0000
1001
0000
0000
0101
0000
0000
,
0120
0000
0000
1000
0000
0000
0100
0000
0200
0000
0000
0000
0330
0000
0000
0000
,
1000
0010
1000
0000
0001
0000
2000
0000
0002
0000
0000
0000
3003
0000
0000
0000
,
0200
0000
0001
0000
0000
0001
0000
0001
0000
0000
0010
0000
0000
0010
0000
0010
,
0000
0000
1000
0000
0000
1000
0000
1000
0000
0000
0010
0000
0000
0010
0000
0010
,
0000
0000
0001
0000
0000
0010
0000
0001
0000
0000
0010
0000
0000
0001
0000
0010
,
0000
0000
1000
0000
0000
0010
0000
0001
0000
0000
0010
0010
0000
0301
0000
0010
,
1000
0000
0001
0000
1000
0100
0000
0100
0010
0000
0100
0000
0010
0001
0000
0001
,
1000
0000
0010
0000
0100
0001
0000
0001
1000
0000
0010
0000
0100
0001
0000
0101
,
0000
1001
0000
0000
0000
1100
0000
0011
0000
0000
0000
0000
0000
0101
0000
1010
,
0000
0000
0000
0000
1000
0001
0000
0101
0000
0000
0110
0000
0000
0000
0001
1000
,
0001
1000
0100
0010
0100
1000
0010
0100
,
0010
1000
1000
0100
0010
0100
1000
0001
,
0100
0001
0001
1000
0010
0010
0100
0001
,
0010
0100
1000
0010
0100
0001
1000
0010
,
1010
1000
0100
0010
0100
1000
0010
0100
,
0001
0010
0010
0001
0100
0010
1000
0100
,
0001
0100
1000
0010
0100
0100
0001
0010
,
0001
0000
1000
0000
0100
0000
0100
0000
0010
0001
0000
0010
0001
0000
1000
0000
,
0001
0000
0100
0000
0001
0000
0000
1000
0010
0000
1000
0000
0100
0000
0000
0010
,
0001
0000
0100
0000
0010
0000
0000
0010
1000
0000
0001
0000
1000
0000
0100
0000
,
0010
0000
0001
0000
0100
0000
0000
0010
0100
0000
0001
0000
1000
0000
0000
0001
,
1000
0000
0100
0000
0010
0000
0000
0100
0010
0000
0001
0000
1000
0000
0001
0000
,
0101
0000
0100
0000
0010
0000
0000
1000
0100
0000
0010
0000
0001
0000
0000
0001
,
0100
0000
0010
0000
0100
0000
0000
0010
0100
0000
0001
0000
1000
0000
0100
0000
,
1000
0000
0001
0000
0010
0000
0000
0100
0010
0000
0001
0000
0100
0000
0000
0010
,
0100
0001
0000
1000
0001
0000
1000
0000
0001
0100
0001
0000
1000
0001
1000
0000
,
0101
0000
0001
0000
1000
0010
0000
0010
0100
0000
0001
0000
1000
0100
0000
0100
,
0010
0000
0100
0000
0010
0001
0000
0001
0100
0000
0010
0000
1000
0010
1000
0000
,
0001
0000
0100
0000
0010
0100
0000
0100
0001
0000
1000
0000
0100
0010
0000
0010
,
0100
0000
0010
0000
0001
1000
0000
1000
0010
0000
0100
0000
0001
0100
0001
0100
,
0010
0000
0100
0000
0001
1000
0000
0001
1000
0000
0010
0000
0100
0010
0000
0100
,
0010
0000
1000
0000
0001
0100
0000
0001
0100
0000
0010
0000
1000
0010
0100
0000
,
0010
0000
1000
0000
0001
0010
0001
1000
0100
0000
1000
0000
0100
1000
0001
1000
,
0100
0000
0010
0000
0001
0010
0100
0010
0001
0000
1000
0000
0010
0100
0010
0100
,
0001
0000
0000
1001
0000
0000
0000
0000
0000
0000
0000
0000
0000
0000
0000
0000
;
