#TITLE:PSYCHE PLANET-GT;
#SUBTITLE:;
#ARTIST:Remixed by L.E.D.;
#TITLETRANSLIT:;
#SUBTITLETRANSLIT:;
#ARTISTTRANSLIT:;
#GENRE:;
#CREDIT:;
#MENUCOLOR:;
#METERTYPE:DDR;
#BANNER:;
#BACKGROUND:;
#LYRICSPATH:;
#CDTITLE:;
#MUSIC:PSYCHE PLANET-GT.mp3;
#OFFSET:-1.610;
#SAMPLESTART:22.100;
#SAMPLELENGTH:12.630;
#SELECTABLE:YES;
#LISTSORT:;
#BPMS:0.000=152.000;
#STOPS:;
#BGCHANGES:;
#ATTACKS:;

//---------------dance-single - ----------------
#NOTES:
     dance-single:
     :
     Hard:
     9:
     0.602,0.698,0.368,0.137,0.419: // measure 1
2002
0000
0000
0000
,  // measure 2
0000
0000
3003
0110
,  // measure 3
1001
0000
0000
0110
0000
0000
2002
0000
0000
0000
0000
0000
0000
0000
0000
0000
,  // measure 4
0000
0000
0000
3003
,  // measure 5
0110
0000
0000
0010
1000
0000
0000
1000
0100
0000
0000
0100
0010
0000
0000
0010
,  // measure 6
0001
0000
0000
0001
0100
0000
0000
0100
0010
0000
0000
0010
1000
0000
0001
0000
,  // measure 7
1001
0000
1000
0100
0110
0000
1000
0010
,  // measure 8
0110
0000
0110
0000
0110
0000
0000
1010
0000
0000
0101
0000
0000
2002
0000
0000
,  // measure 9
0000
0000
0000
0000
0000
0000
0000
3003
,  // measure 10
1000
1000
1000
1000
,  // measure 11
0001
0001
0001
0001
,  // measure 12
0100
0100
0100
0100
,  // measure 13
0002
1000
0200
0303
,  // measure 14
0001
0000
1000
0000
0100
0000
0000
0000
0001
0000
0000
0010
0000
0000
0001
0000
,  // measure 15
0100
0000
0010
0000
0100
0000
0000
0000
0001
0000
0000
1000
0000
0000
0001
0000
,  // measure 16
1000
0000
0100
0000
1000
0000
0000
0000
0001
0000
0000
0010
0000
0000
0001
0000
,  // measure 17
0100
0000
0010
0000
0000
1000
0000
0000
0001
0000
0000
0010
0000
0000
0001
0000
,  // measure 18
1000
0000
0100
0000
0000
0010
0000
0000
0100
0000
0000
1000
0000
0000
0010
0000
,  // measure 19
0100
0000
0001
0000
0000
1000
0000
0000
0001
0000
0000
1000
0000
0000
0100
0000
,  // measure 20
1000
0000
0100
0000
0000
0010
0000
0000
0100
0000
0000
1000
0000
0000
0010
0000
,  // measure 21
0100
0000
0001
0000
0000
0100
0000
0000
0010
0000
1000
0000
0001
0000
1000
0000
,  // measure 22
1001
0000
0000
0000
1000
0000
0000
0000
0001
0100
0000
0100
0001
0000
1000
0000
,  // measure 23
0100
0000
0000
0000
0010
0000
0000
0000
0001
1000
0000
1000
0001
0000
0100
0000
,  // measure 24
0010
0000
0000
0000
1000
0000
0000
0000
0001
0100
0000
0100
0001
0000
1000
0000
,  // measure 25
0001
0000
0100
0001
0000
1000
0000
0100
0000
1000
0000
0100
1000
0000
0100
0000
,  // measure 26
0010
0000
0001
0010
0000
0001
0000
1000
0000
0001
0000
0001
1000
0000
0000
0000
,  // measure 27
0010
0000
0100
0010
0000
1000
0000
0001
0000
1000
0000
1000
0001
0000
0100
0000
,  // measure 28
0001
0000
0010
0001
0000
1000
0000
0100
0000
1000
0000
0100
1000
0000
0001
0000
,  // measure 29
0101
0000
0000
1010
0000
0000
0011
0000
1001
0000
0000
0000
1000
0100
1000
0100
,  // measure 30
1000
0000
0000
0001
0000
0000
0010
0000
0001
0000
0100
0000
0010
0000
1000
0000
,  // measure 31
0001
0000
0000
1000
0000
0000
0010
0000
0100
0000
0010
0000
1000
0000
0100
0000
,  // measure 32
0010
0000
0000
0100
0000
0000
0010
0000
0001
0000
0100
0000
0010
0000
1000
0000
,  // measure 33
0001
0000
0000
1000
0000
0000
0001
0000
0100
0000
0010
0000
1000
0010
1000
0000
,  // measure 34
0001
0010
0100
1000
0010
0100
0001
1000
,  // measure 35
0100
0001
0100
1000
0010
0100
0001
1000
,  // measure 36
0010
0100
0001
0100
1000
0100
0001
0010
,  // measure 37
0011
0000
0000
1100
0000
0000
0011
0000
0000
0101
0000
0000
1010
0000
1000
0000
,  // measure 38
2002
0000
0000
0000
,  // measure 39
0000
0000
0000
0000
,  // measure 40
0000
0000
0000
0000
,  // measure 41
0000
0000
0000
3003
,  // measure 42
1001
0000
1000
0000
0001
0000
0100
0010
,  // measure 43
0110
0000
0010
0000
1000
0000
0100
1000
,  // measure 44
0001
1000
0001
1000
0001
1000
0001
1000
0001
1000
0001
1000
0001
1000
0001
1000
,  // measure 45
0010
0100
0010
0100
0010
0100
0010
0100
0010
0000
0000
0000
1000
0001
1000
0001
,  // measure 46
1000
0000
0000
0000
,  // measure 47
0000
0000
0000
0000
0000
0000
0000
1010
,  // measure 48
1010
0000
0000
0101
0000
0000
2002
0000
3003
0000
0000
0000
0000
0000
0000
0000
,  // measure 49
0000
0000
0000
0000
,  // measure 50
1001
1000
0100
0010
0001
0100
0010
0100
,  // measure 51
0110
0100
0001
0010
0001
1000
0100
1000
,  // measure 52
1100
1000
0010
1000
1010
1000
0001
0010
,  // measure 53
0011
0001
0101
0100
0110
0010
1010
2000
,  // measure 54
0002
0000
0000
0000
0000
0000
0000
0000
3003
0000
0000
0000
0100
0010
0100
0010
,  // measure 55
0100
0000
0001
0000
1000
0000
0100
0000
0010
0000
0000
0001
0000
0000
0010
0000
,  // measure 56
0001
0000
0100
0000
0010
0000
1000
0000
0001
0000
0000
0100
0000
0000
0010
0000
,  // measure 57
0100
0000
0001
0000
1000
0000
0100
0000
1000
0000
0000
0010
0000
0000
0100
0000
,  // measure 58
0001
0000
0010
0000
0001
0010
0001
0000
0100
0000
0000
0010
0000
0000
0100
0000
,  // measure 59
0001
0000
1000
0000
0100
0000
1000
0000
0100
0000
0010
0001
0000
0010
0001
0000
,  // measure 60
0100
0000
0001
0000
1000
0000
0010
0000
0100
0000
0001
0100
0000
0001
0100
0000
,  // measure 61
0001
0000
1000
0000
0010
0000
1000
0000
0100
0000
0010
0100
0000
0100
0010
0000
,  // measure 62
0001
0000
0100
0000
0001
1000
0001
0000
1000
0000
0010
0100
0000
0100
0001
0000
,  // measure 63
1000
0000
0001
0000
0100
0001
0100
0000
0001
0000
1000
0000
0100
0000
0010
0000
,  // measure 64
0001
0000
0100
0000
0010
0100
0010
0000
1000
0000
0000
0100
0000
0000
1000
0000
,  // measure 65
0001
0000
0010
0000
0001
0010
0001
0000
0100
0000
0001
0000
1000
0000
0010
0000
,  // measure 66
0100
0000
0001
0000
1000
0001
1000
0000
0100
0000
0000
0010
0000
0000
0001
0000
,  // measure 67
1000
0100
0010
0001
1000
0010
0100
0001
,  // measure 68
1000
0001
0010
0001
0100
0010
0100
0001
,  // measure 69
1000
0000
0010
0000
0100
0000
0001
0000
0010
0000
0001
0000
1000
0000
0001
1000
,  // measure 70
0001
0000
1000
0000
0100
0000
0000
0011
0000
0000
1100
0000
0000
1001
0000
0000
,  // measure 71
0220
0000
0000
0000
,  // measure 72
0330
0000
0000
0000
;

//---------------dance-single - ----------------
#NOTES:
     dance-single:
     :
     Medium:
     7:
     0.481,0.577,0.214,0.205,0.107: // measure 1
2002
0000
0000
0000
,  // measure 2
0000
0000
3003
1001
,  // measure 3
0110
0000
0000
0110
0000
0000
0220
0000
0000
0000
0000
0000
0000
0000
0000
0000
,  // measure 4
0000
0000
0000
0330
,  // measure 5
1001
0001
0100
0010
,  // measure 6
0110
0000
0100
0000
0001
0000
1000
0001
,  // measure 7
1001
0001
0101
0100
,  // measure 8
1000
0000
0010
0000
1000
0000
0000
0001
0000
0000
0100
0000
0000
0220
0000
0000
,  // measure 9
0000
0000
0000
0330
,  // measure 10
1000
0001
1000
0001
,  // measure 11
1000
0001
1000
0001
,  // measure 12
1000
0010
1000
0010
,  // measure 13
0100
0010
0200
0300
,  // measure 14
1000
0100
1000
0000
0001
0100
0001
0000
,  // measure 15
1000
0000
0100
0000
0010
0100
0010
0000
,  // measure 16
0001
0010
0001
0000
1000
0010
0100
0010
,  // measure 17
1000
0000
0100
0000
0010
0001
0010
0000
,  // measure 18
0001
1000
0100
0000
0010
0001
1000
0000
,  // measure 19
0010
0000
0100
0000
0001
0100
0001
1000
,  // measure 20
0010
1000
0100
0000
0010
0001
0100
0000
,  // measure 21
0001
0000
1000
0000
0100
0010
0100
0010
,  // measure 22
0001
0000
0000
0000
1000
0000
0000
0000
0001
0000
0000
0100
0000
0000
0001
0000
,  // measure 23
1000
0000
0000
0000
0001
0000
0000
0000
1000
0000
0000
0010
0000
0000
1000
0000
,  // measure 24
0100
0000
0000
0000
0010
0000
0000
0000
0100
0000
0000
1000
0000
0000
0010
0000
,  // measure 25
0100
0000
0000
0000
0010
0000
0000
0000
0100
0000
0000
0001
0000
0000
1000
0000
,  // measure 26
0001
1000
0001
0000
0100
0010
0100
0001
,  // measure 27
0010
0001
1000
0000
0010
1000
0001
0010
,  // measure 28
0001
0100
0010
0000
0010
0100
0001
1000
,  // measure 29
0100
0000
0000
1000
0000
0000
0001
0000
2002
0000
0000
0000
3003
0000
0000
0000
,  // measure 30
1000
0100
1000
0000
0010
1000
0010
0000
,  // measure 31
0100
0001
0100
0001
0010
0001
0100
0000
,  // measure 32
0010
1000
0100
0000
0010
0001
0100
0000
,  // measure 33
0001
1000
0100
0010
1000
0010
0001
1000
,  // measure 34
0001
0000
0100
0000
0001
0100
0001
0000
,  // measure 35
1000
0000
0010
0000
1000
0001
0010
0100
,  // measure 36
1000
0100
0010
0001
1000
0010
0100
0001
,  // measure 37
0100
0000
0000
0110
0000
0000
1010
0000
0000
1100
0000
0000
0010
0000
0002
0000
,  // measure 38
2000
0000
0000
0000
,  // measure 39
0000
0000
0000
0000
,  // measure 40
0000
0000
0000
0000
,  // measure 41
0000
0000
0000
3003
,  // measure 42
1001
0000
0001
0000
0100
0000
0010
0100
,  // measure 43
0110
0000
0010
0000
1000
0000
0100
0010
,  // measure 44
0001
0010
0001
0010
0001
1000
0001
1000
,  // measure 45
0001
1000
0010
1000
0010
0000
0100
0010
,  // measure 46
0200
0000
0000
0000
,  // measure 47
0302
0000
0000
0000
0000
0000
0000
1000
,  // measure 48
2003
0000
0000
0010
0000
0000
0200
0000
0300
0000
0000
0000
0000
0000
0000
0000
,  // measure 49
3200
0000
0000
0300
,  // measure 50
0220
0000
0000
0000
0330
0000
1000
0001
,  // measure 51
2002
0000
0000
0000
3003
0000
1000
0010
,  // measure 52
0100
0001
0010
0001
1000
0100
0010
0001
,  // measure 53
0100
0110
1001
0220
,  // measure 54
0000
0000
0000
0330
,  // measure 55
1000
0000
0001
0000
1000
0000
0001
0000
0100
0000
0000
0100
0000
0000
0100
0000
,  // measure 56
0010
0000
1000
0000
0010
0000
1000
0000
0001
0000
0000
0001
0000
0000
0001
0000
,  // measure 57
1000
0000
0100
0000
0010
0000
0001
0000
0100
0000
0000
0100
0000
0000
0100
0000
,  // measure 58
0010
0000
1000
0000
0100
0000
1000
0000
0001
0000
0000
0001
0000
0000
0001
0000
,  // measure 59
1000
0000
0001
0000
1000
0000
0000
0000
0010
0000
0000
0100
0000
0000
0010
0000
,  // measure 60
1000
0000
0100
0000
1000
0000
0000
0000
0001
0000
0000
0010
0000
0000
0001
0000
,  // measure 61
0100
0000
0010
0000
0100
0000
0000
0000
0001
0000
0000
0010
0000
0000
0001
0000
,  // measure 62
1000
0000
0010
0000
1000
0000
0000
0000
0010
0000
0000
1000
0000
0000
0001
0000
,  // measure 63
0010
0000
0001
0000
1000
0000
0100
0000
1000
0000
0000
0001
0000
0000
0100
0000
,  // measure 64
0010
0000
0100
0000
0001
0000
1000
0000
0100
0000
0000
0010
0000
0000
0100
0000
,  // measure 65
0010
0000
0001
0000
1000
0000
0010
0000
0100
0000
0000
0001
0000
0000
1000
0000
,  // measure 66
0010
0000
1000
0000
0001
0000
0010
0000
0001
0000
0000
1000
0000
0000
0100
0000
,  // measure 67
0010
0001
0010
0001
0010
0001
0010
0001
,  // measure 68
1000
0010
1000
0010
1000
0010
1000
0010
,  // measure 69
1000
0100
0010
0001
0100
0010
1000
0100
,  // measure 70
0010
0000
0001
0000
0100
0000
0000
0101
0000
0000
0110
0000
0000
0101
0000
0000
,  // measure 71
2002
0000
0000
0000
,  // measure 72
3003
0000
0000
0000
;

//---------------dance-single - ----------------
#NOTES:
     dance-single:
     :
     Easy:
     5:
     0.356,0.456,0.282,0.291,0.000: // measure 1
2002
0000
0000
0000
,  // measure 2
0000
0000
3003
1001
,  // measure 3
0220
0000
0000
0000
,  // measure 4
0000
0000
0000
0330
,  // measure 5
1002
1000
1000
1003
,  // measure 6
2001
0001
0001
3001
,  // measure 7
0210
0310
0120
0130
,  // measure 8
2002
0000
0000
0000
,  // measure 9
0000
0000
0000
3003
,  // measure 10
1000
0001
1000
0001
,  // measure 11
1000
0001
1000
0001
,  // measure 12
0100
0010
0100
0010
,  // measure 13
0100
0020
0200
0330
,  // measure 14
1001
0001
0100
0010
,  // measure 15
0100
0001
1000
0100
,  // measure 16
0010
0001
1000
0100
,  // measure 17
1000
0010
0100
0001
,  // measure 18
0010
1000
0010
0001
,  // measure 19
0100
1000
0100
0001
,  // measure 20
1000
0010
0100
0001
,  // measure 21
1000
0001
1000
0001
,  // measure 22
0101
0100
0010
1000
,  // measure 23
0100
0100
0010
0001
,  // measure 24
0100
0100
0010
1000
,  // measure 25
0001
1000
0100
0010
,  // measure 26
0001
0001
1000
0010
,  // measure 27
0100
0100
0010
1000
,  // measure 28
0001
0001
0010
0001
,  // measure 29
1010
0101
2002
3003
,  // measure 30
0110
0100
0001
1000
,  // measure 31
0100
0010
0001
0010
,  // measure 32
0001
0100
0010
1000
,  // measure 33
0001
0100
0010
0000
,  // measure 34
1000
0100
0001
0100
,  // measure 35
1000
0010
0100
0001
,  // measure 36
0010
0001
0100
1000
,  // measure 37
0220
0000
0000
0330
,  // measure 38
2002
0000
0000
0000
,  // measure 39
0000
0000
0000
0000
,  // measure 40
0000
0000
0000
0000
,  // measure 41
0000
0000
0000
3003
,  // measure 42
1001
0001
0100
0010
,  // measure 43
0110
0100
0001
1000
,  // measure 44
1001
1000
1100
0100
,  // measure 45
0110
0011
0202
0303
,  // measure 46
1002
0000
0000
0000
,  // measure 47
0023
0000
0000
0000
,  // measure 48
0230
0000
0000
0000
,  // measure 49
2300
0000
0000
0000
,  // measure 50
3020
0100
1000
0100
,  // measure 51
2030
0010
0001
0100
,  // measure 52
3002
0010
0100
0010
,  // measure 53
2003
3200
0320
0032
,  // measure 54
2000
0000
0000
3003
,  // measure 55
1001
0001
0100
0010
,  // measure 56
0100
0001
1000
0100
,  // measure 57
0010
0100
1000
0010
,  // measure 58
0100
0001
1000
0001
,  // measure 59
1000
0100
0010
0001
,  // measure 60
1000
0010
0100
0001
,  // measure 61
1000
0010
1000
0010
,  // measure 62
0100
0001
0100
0001
,  // measure 63
1000
0010
0100
0001
,  // measure 64
0010
0001
0010
0001
,  // measure 65
1000
0010
0100
0001
,  // measure 66
1000
0100
1000
0100
,  // measure 67
0110
0010
0001
0010
,  // measure 68
0110
0100
1000
0100
,  // measure 69
1100
1000
0010
0100
,  // measure 70
0101
1001
1100
0011
,  // measure 71
0220
0000
0000
0000
,  // measure 72
0330
0000
0000
0000
;

//---------------dance-single - ----------------
#NOTES:
     dance-single:
     :
     Beginner:
     0:
     0.148,0.213,0.145,0.017,0.000: // measure 1
1001
0000
0000
0000
,  // measure 2
0000
0000
0000
0000
,  // measure 3
0110
0000
0000
0000
,  // measure 4
0000
0000
0000
0000
,  // measure 5
1001
0000
0001
0000
,  // measure 6
0110
0000
0100
0000
,  // measure 7
0001
0000
0010
0000
,  // measure 8
0110
0000
0000
0000
,  // measure 9
0000
0000
0000
0000
,  // measure 10
1000
0000
0001
0000
,  // measure 11
1000
0000
0001
0000
,  // measure 12
0100
0000
0010
0000
,  // measure 13
0100
0000
0010
0000
,  // measure 14
0110
0000
0000
0000
,  // measure 15
0100
0000
0001
0000
,  // measure 16
1000
0000
0100
0000
,  // measure 17
0010
0000
0001
0000
,  // measure 18
0100
0000
0000
0000
,  // measure 19
0001
0000
1000
0000
,  // measure 20
0100
0000
0010
0000
,  // measure 21
0001
0000
1000
0000
,  // measure 22
0001
0000
0001
0000
,  // measure 23
1000
0000
0010
0000
,  // measure 24
0100
0000
0100
0000
,  // measure 25
0001
0000
1000
0000
,  // measure 26
0001
0000
0001
0000
,  // measure 27
0010
0000
0001
0000
,  // measure 28
1000
0000
0001
0000
,  // measure 29
1001
0000
0000
0000
,  // measure 30
1000
0000
0100
0000
,  // measure 31
1000
0000
0100
0000
,  // measure 32
0010
0000
0001
0000
,  // measure 33
0010
0000
0001
0000
,  // measure 34
0100
0000
0010
0000
,  // measure 35
0100
0000
0010
0000
,  // measure 36
1000
0000
0001
0000
,  // measure 37
1001
0000
0000
0000
,  // measure 38
0110
0000
0000
0000
,  // measure 39
0000
0000
0000
0000
,  // measure 40
0000
0000
0000
0000
,  // measure 41
0000
0000
0000
0000
,  // measure 42
1001
0000
0000
0000
,  // measure 43
0110
0000
0000
0000
,  // measure 44
1000
0000
0100
0000
,  // measure 45
0010
0000
0100
0000
,  // measure 46
0110
0000
0000
0000
,  // measure 47
0000
0000
0000
0000
,  // measure 48
1001
0000
0000
0000
,  // measure 49
0000
0000
0000
0000
,  // measure 50
1001
0000
0000
0000
,  // measure 51
0100
0000
0000
0000
,  // measure 52
0010
0000
0001
0000
,  // measure 53
0010
0000
0100
0000
,  // measure 54
0000
0000
0000
0000
,  // measure 55
0001
0000
0100
0000
,  // measure 56
0001
0000
1000
0000
,  // measure 57
0100
0000
0000
0000
,  // measure 58
0100
0000
0000
0000
,  // measure 59
0010
0000
0001
0000
,  // measure 60
0100
0000
0010
0000
,  // measure 61
1000
0000
0000
0000
,  // measure 62
1000
0000
0000
0000
,  // measure 63
0001
0000
0010
0000
,  // measure 64
0001
0000
1000
0000
,  // measure 65
0100
0000
0000
0000
,  // measure 66
0010
0000
0000
0000
,  // measure 67
0100
0000
0010
0000
,  // measure 68
0001
0000
0100
0000
,  // measure 69
0010
0000
0000
0000
,  // measure 70
0110
0000
1001
0000
,  // measure 71
2002
0000
0000
0000
,  // measure 72
3003
0000
0000
0000
;
