#TITLE:Oui mais...non;
#SUBTITLE:;
#ARTIST:Mylène Farmer;
#TITLETRANSLIT:;
#SUBTITLETRANSLIT:;
#ARTISTTRANSLIT:;
#CREDIT:;
#BANNER:;
#BACKGROUND:;
#LYRICSPATH:;
#CDTITLE:;
#MUSIC:Oui mais non.mp3;
#OFFSET:-8.910;
#SAMPLESTART:55.120;
#SAMPLELENGTH:14.220;
#SELECTABLE:YES;
#DISPLAYBPM:135.000;
#BPMS:0.000=135.000;
#STOPS:;
#BGCHANGES:;

//---------------dance-single - ----------------
#NOTES:
     dance-single:
     :
     Hard:
     6:
     0.361,0.324,0.044,0.529,0.176: // measure 1
1000
0000
0000
0001
0000
0000
0100
0000
0001
0000
0000
2000
,  // measure 2
0002
0000
0000
3003
,  // measure 3
1000
0000
0000
0010
0000
0000
0100
0000
0000
0001
0000
0001
,  // measure 4
2000
0000
0010
0000
,  // measure 5
3001
0000
0000
0010
0000
0000
0100
0000
0000
0010
0000
0010
,  // measure 6
0002
0000
1000
0000
,  // measure 7
0103
0000
0000
1000
0000
0000
0100
0000
0000
0001
0000
0001
,  // measure 8
1000
0000
1000
0200
0000
0000
0000
0000
0000
1300
0000
0000
,  // measure 9
0100
0000
0000
0010
0000
0000
0100
0000
0010
0001
0000
0000
,  // measure 10
2002
0000
0000
0000
0000
0000
3003
0000
0000
0001
0100
0001
,  // measure 11
0100
0000
0000
0010
0000
0000
0100
0000
0000
0001
0000
0001
,  // measure 12
1000
0000
0000
0100
0000
0000
0010
0000
0000
0100
0000
0100
,  // measure 13
1000
0000
0000
0010
0000
0000
0100
0000
0000
0001
0000
0001
,  // measure 14
1000
0000
0000
0001
0000
0100
0002
0000
0000
0003
0000
0000
,  // measure 15
0011
0000
0000
0100
0000
1000
0100
0000
0000
0010
0000
0000
,  // measure 16
0001
0000
0000
0100
0000
0010
1000
0000
0000
0010
0000
0000
,  // measure 17
0100
0000
0000
0001
0000
1000
0001
0000
0000
1000
0000
0000
,  // measure 18
0100
0010
0100
1000
,  // measure 19
2002
3000
0203
0000
,  // measure 20
2300
0000
3002
0023
,  // measure 21
2030
0000
3200
0000
,  // measure 22
0320
0032
2003
3002
,  // measure 23
0203
0000
2300
0000
,  // measure 24
3200
0000
0302
2003
,  // measure 25
3200
0000
0320
0000
,  // measure 26
0230
2300
3002
0103
,  // measure 27
0110
0000
0000
0100
0000
0100
0010
0000
0000
1000
0000
0000
,  // measure 28
0100
0000
0000
0010
0000
0000
0100
0000
0100
0010
0000
0010
,  // measure 29
0001
0000
0000
1000
0000
1000
0001
0000
0000
0100
0000
0000
,  // measure 30
0020
2030
3200
0320
,  // measure 31
0130
0000
0000
0010
0000
0001
0100
0000
0000
0010
0000
0000
,  // measure 32
1000
0000
0000
0010
0000
0010
0100
0000
0100
0001
0000
0001
,  // measure 33
1000
0000
0000
0100
0000
0100
1000
0000
0000
0100
0000
0000
,  // measure 34
0002
0203
2300
3002
,  // measure 35
1003
0001
0100
0010
,  // measure 36
0100
0000
0000
0001
0000
1000
0002
0000
0000
0003
0000
0000
,  // measure 37
0100
0000
0000
0010
0000
0100
0020
0000
0000
0030
0000
0000
,  // measure 38
2000
3200
0320
0032
,  // measure 39
1003
0000
0000
0010
0000
0010
1000
0000
0000
0001
0000
0000
,  // measure 40
0010
0000
0000
0001
0000
0001
1000
0000
1000
0100
0000
0100
,  // measure 41
0010
0000
0000
0100
0000
0100
0010
0000
0000
0001
0000
0000
,  // measure 42
2000
3020
0230
0302
,  // measure 43
1003
0000
0000
0000
;

//---------------dance-single - ----------------
#NOTES:
     dance-single:
     :
     Medium:
     4:
     0.271,0.301,0.088,0.364,0.000: // measure 1
1000
0001
0100
0000
,  // measure 2
0220
0000
0000
0330
,  // measure 3
0100
0010
0100
0001
,  // measure 4
2000
0000
3002
0000
,  // measure 5
0013
0100
0010
0001
,  // measure 6
2000
0000
3002
0000
,  // measure 7
0103
1000
0100
0001
,  // measure 8
2000
0000
3200
0000
,  // measure 9
0310
0100
1000
0100
,  // measure 10
2000
0000
3002
0000
,  // measure 11
0103
0000
0010
0100
,  // measure 12
0001
0000
0100
0001
,  // measure 13
1000
0000
0001
1000
,  // measure 14
0100
0010
0100
0000
,  // measure 15
0110
0000
0010
0001
,  // measure 16
1000
0000
0001
1000
,  // measure 17
0010
0000
0100
0001
,  // measure 18
1000
0100
0010
0000
,  // measure 19
0210
0000
2300
0000
,  // measure 20
3002
0000
0203
0320
,  // measure 21
0230
0000
0320
0000
,  // measure 22
2030
3200
2300
3002
,  // measure 23
0203
0000
0320
0000
,  // measure 24
2030
0000
3200
0320
,  // measure 25
0230
0000
0320
0000
,  // measure 26
0032
2003
3002
0103
,  // measure 27
1001
0000
1000
0100
,  // measure 28
1000
0001
0100
0010
,  // measure 29
0100
0000
0010
0100
,  // measure 30
0001
0010
0100
0010
,  // measure 31
0001
0000
1000
0001
,  // measure 32
1000
0010
0100
0001
,  // measure 33
0010
0000
0010
0001
,  // measure 34
0100
0010
0100
0001
,  // measure 35
1000
0100
0020
0000
,  // measure 36
0130
1000
0002
0000
,  // measure 37
0103
0001
1000
0100
,  // measure 38
0010
0110
0100
1100
,  // measure 39
1001
0001
0100
0000
,  // measure 40
0010
0100
0001
1000
,  // measure 41
0100
0010
0100
0000
,  // measure 42
0010
0001
1000
0001
,  // measure 43
1001
0000
0000
0000
;

//---------------dance-single - ----------------
#NOTES:
     dance-single:
     :
     Easy:
     2:
     0.164,0.185,0.044,0.110,0.000: // measure 1
1000
0000
0001
0000
,  // measure 2
2002
0000
3003
0000
,  // measure 3
1000
0000
0100
0000
,  // measure 4
0010
0000
0000
0000
,  // measure 5
0100
0000
0010
0000
,  // measure 6
0001
0000
0000
0000
,  // measure 7
1000
0000
0001
0000
,  // measure 8
0100
0000
0000
0000
,  // measure 9
0010
0000
0100
0000
,  // measure 10
0001
0000
0000
1000
,  // measure 11
1000
0000
0100
0010
,  // measure 12
0100
0000
0010
0001
,  // measure 13
0010
0000
0001
1000
,  // measure 14
0001
0000
1000
0000
,  // measure 15
1001
0000
0001
0100
,  // measure 16
0001
0000
1000
0010
,  // measure 17
1000
0000
0010
0100
,  // measure 18
0010
0000
0100
0000
,  // measure 19
0120
0000
0000
0000
,  // measure 20
2030
0000
0000
0000
,  // measure 21
3200
0000
0000
0000
,  // measure 22
0320
0000
0000
0000
,  // measure 23
0230
0000
0000
0000
,  // measure 24
0320
0000
0000
0000
,  // measure 25
0032
0000
0000
0000
,  // measure 26
2003
0000
0000
3000
,  // measure 27
1001
0000
0001
0000
,  // measure 28
0100
0000
0010
0100
,  // measure 29
0010
0000
0100
0000
,  // measure 30
0001
0000
1000
0100
,  // measure 31
1000
0000
0001
0000
,  // measure 32
0010
0000
0100
0010
,  // measure 33
0100
0000
0010
0000
,  // measure 34
0001
1000
0001
1000
,  // measure 35
0001
0000
0000
0000
,  // measure 36
0100
0010
0100
0000
,  // measure 37
0010
1000
0010
0000
,  // measure 38
1000
0100
1000
0100
,  // measure 39
0010
0000
0001
0000
,  // measure 40
1000
0000
0010
1000
,  // measure 41
0010
0000
0100
0000
,  // measure 42
0001
1000
0001
1000
,  // measure 43
0001
0000
0000
0000
;

//---------------dance-single - ----------------
#NOTES:
     dance-single:
     :
     Beginner:
     1:
     0.110,0.162,0.044,0.000,0.000: // measure 1
1000
0000
0000
0000
,  // measure 2
0001
0000
0000
0000
,  // measure 3
1001
0000
0001
0000
,  // measure 4
0100
0000
0000
0000
,  // measure 5
0010
0000
0100
0000
,  // measure 6
0001
0000
0000
0000
,  // measure 7
1000
0000
0001
0000
,  // measure 8
1000
0000
0000
0000
,  // measure 9
0001
0000
0010
0000
,  // measure 10
0001
0000
0000
0000
,  // measure 11
1001
0000
0000
0000
,  // measure 12
1000
0000
0000
0000
,  // measure 13
0100
0000
0000
0000
,  // measure 14
0010
0000
0001
0000
,  // measure 15
1000
0000
0000
0000
,  // measure 16
0010
0000
0000
0000
,  // measure 17
0100
0000
0000
0000
,  // measure 18
0010
0000
0100
0000
,  // measure 19
0110
0000
0000
0000
,  // measure 20
0010
0000
0000
0000
,  // measure 21
1000
0000
0000
0000
,  // measure 22
0001
0000
0000
0000
,  // measure 23
1000
0000
0000
0000
,  // measure 24
0100
0000
0000
0000
,  // measure 25
0010
0000
0000
0000
,  // measure 26
0001
0000
0000
0000
,  // measure 27
1001
0000
0001
0000
,  // measure 28
0100
0000
0010
0000
,  // measure 29
0100
0000
0001
0000
,  // measure 30
1000
0000
0100
0000
,  // measure 31
0010
0000
0100
0000
,  // measure 32
0010
0000
0001
0000
,  // measure 33
1000
0000
0001
0000
,  // measure 34
0100
0000
0010
0000
,  // measure 35
1000
0000
0000
0000
,  // measure 36
0001
0000
0000
0000
,  // measure 37
0100
0000
0000
0000
,  // measure 38
0010
0010
0100
0100
,  // measure 39
0010
0000
1000
0000
,  // measure 40
0001
0000
1000
0000
,  // measure 41
0100
0000
0010
0000
,  // measure 42
0001
0001
1000
1000
,  // measure 43
0001
0000
0000
0000
;
