#TITLE:No Regrets;
#SUBTITLE:;
#ARTIST:Robbie Williams;
#TITLETRANSLIT:;
#SUBTITLETRANSLIT:;
#ARTISTTRANSLIT:;
#CREDIT:;
#BANNER:;
#BACKGROUND:;
#LYRICSPATH:;
#CDTITLE:;
#MUSIC:No Regrets.mp3;
#OFFSET:-9.430;
#SAMPLESTART:40.100;
#SAMPLELENGTH:18.840;
#SELECTABLE:YES;
#BPMS:0.000=101.812;
#STOPS:48.000=1.179
;
#DISPLAYBPM:102;
#BGCHANGES:;

//---------------dance-single - ----------------
#NOTES:
     dance-single:
     :
     Hard:
     5:
     0.286,0.261,0.083,0.018,0.000: // measure 1
1000
0000
0000
1000
0001
0000
0000
0000
,  // measure 2
0001
0000
0000
0001
0100
0000
0010
0000
,  // measure 3
0100
0000
0000
0100
0001
0000
0000
0000
,  // measure 4
1000
0000
0000
1000
0100
0000
0010
0000
,  // measure 5
0110
0000
0000
0000
0100
0001
0000
1000
,  // measure 6
0000
0100
0000
0010
0000
0001
1000
0000
,  // measure 7
0001
0000
0100
0000
0010
1000
0010
0000
,  // measure 8
1000
0001
1001
0000
,  // measure 9
1000
0000
0100
0010
0100
0000
0010
0001
,  // measure 10
0000
1000
0000
0001
0000
0100
0001
1000
,  // measure 11
0001
0000
1000
0010
0000
0010
1000
0000
,  // measure 12
0001
0000
0100
0000
0010
0100
0002
0000
,  // measure 13
0000
0000
0003
0000
1001
0000
1000
0001
,  // measure 14
1000
0001
0000
0001
0100
0000
0010
0000
,  // measure 15
0100
0001
0100
0000
0001
0000
1000
0100
,  // measure 16
0010
0100
0000
0010
0001
0000
1000
0000
,  // measure 17
0001
1000
0001
0000
1000
0000
0010
0100
,  // measure 18
0001
0100
0000
0001
0000
1000
0100
0000
,  // measure 19
0010
0100
1000
0001
1000
0000
0001
0100
,  // measure 20
0001
0100
0000
0010
0100
0000
0001
1000
,  // measure 21
0100
0010
0001
0000
1001
0000
1000
0000
,  // measure 22
0100
0010
0100
0010
0000
0100
0010
0000
,  // measure 23
0001
0010
0001
0000
1000
0000
0001
0000
,  // measure 24
0100
0001
0100
0001
0000
0100
0001
0010
,  // measure 25
0100
1000
0001
0000
1001
0000
1000
0100
,  // measure 26
1000
0100
0000
0010
0000
0001
0000
1000
,  // measure 27
0000
0001
1000
0100
0010
0000
0100
0000
,  // measure 28
1000
0001
0000
0100
0000
0010
0100
0000
,  // measure 29
0001
1000
0001
0000
0110
0000
0010
1000
,  // measure 30
0100
1000
0100
0000
0010
0000
0001
0100
,  // measure 31
0001
0100
0010
0000
0100
0000
0001
1000
,  // measure 32
0001
1000
0100
0000
0010
0000
0100
0010
,  // measure 33
0001
0010
0001
0000
1001
0000
1000
0001
,  // measure 34
0100
0010
1000
0100
,  // measure 35
0110
0000
0010
0000
0001
0000
0010
0001
,  // measure 36
1000
0000
0001
0100
0001
0000
1000
0000
,  // measure 37
1001
0000
0001
0000
0010
0000
0100
0010
,  // measure 38
0001
0000
1000
0000
0001
0000
1000
0010
,  // measure 39
0100
0000
0010
0000
0100
0000
0001
0100
,  // measure 40
0001
0000
1000
0100
1000
0000
0100
0010
,  // measure 41
0001
2000
3001
0000
;

//---------------dance-single - ----------------
#NOTES:
     dance-single:
     :
     Medium:
     3:
     0.153,0.168,0.037,0.009,0.000: // measure 1
1000
0001
1000
0000
,  // measure 2
0001
0010
0001
0000
,  // measure 3
1000
0100
1000
0000
,  // measure 4
0001
0100
0001
0000
,  // measure 5
1000
0000
0001
0000
,  // measure 6
0100
0000
0010
0100
,  // measure 7
0010
0000
1000
0000
,  // measure 8
0001
1000
0001
0000
,  // measure 9
1000
0000
0100
0010
,  // measure 10
0100
0010
0001
0000
,  // measure 11
1000
0001
1000
0000
,  // measure 12
0001
0001
0100
0100
,  // measure 13
0110
0000
1001
0000
,  // measure 14
0001
1000
0001
0000
,  // measure 15
1000
0000
0100
0000
,  // measure 16
0010
0100
0010
0000
,  // measure 17
0001
0000
1000
0000
,  // measure 18
0001
0100
0001
0000
,  // measure 19
1000
0000
0010
0000
,  // measure 20
0100
0010
0100
0000
,  // measure 21
0001
1000
1001
0000
,  // measure 22
0001
0010
0001
0000
,  // measure 23
1000
0000
0001
0000
,  // measure 24
1000
0010
1000
0000
,  // measure 25
0010
0000
0100
0000
,  // measure 26
0001
0100
0001
0001
,  // measure 27
1000
1000
0001
0000
,  // measure 28
1000
0100
1000
0000
,  // measure 29
0001
0010
0001
0000
,  // measure 30
1000
0000
0010
0000
,  // measure 31
0100
0010
0100
0000
,  // measure 32
0010
0000
1000
0000
,  // measure 33
0001
1000
1001
0000
,  // measure 34
0001
0000
0010
0000
,  // measure 35
0100
0010
0100
0000
,  // measure 36
0010
0000
0001
0000
,  // measure 37
1000
0001
1000
0000
,  // measure 38
0001
0000
0100
0000
,  // measure 39
0010
1000
0010
0000
,  // measure 40
1000
0000
0100
0000
,  // measure 41
0010
0200
0310
0000
;

//---------------dance-single - ----------------
#NOTES:
     dance-single:
     :
     Easy:
     1:
     0.113,0.112,0.037,0.000,0.000: // measure 1
1000
0000
0001
0000
,  // measure 2
0100
0000
0010
0000
,  // measure 3
0100
0000
0001
0000
,  // measure 4
1000
0000
0000
0000
,  // measure 5
0001
0000
1000
0000
,  // measure 6
0100
0000
0010
0000
,  // measure 7
0100
0000
0010
0000
,  // measure 8
0001
0000
0000
0000
,  // measure 9
1000
0000
0001
0000
,  // measure 10
0100
0000
0010
0000
,  // measure 11
0100
0000
0001
0000
,  // measure 12
1000
0000
0001
0001
,  // measure 13
0001
0000
1001
0000
,  // measure 14
1000
0000
0100
0000
,  // measure 15
0010
0000
0100
0000
,  // measure 16
0010
0000
0001
0000
,  // measure 17
1000
0000
0001
0000
,  // measure 18
0100
0000
0010
0000
,  // measure 19
0100
0000
0001
0000
,  // measure 20
1000
0000
0001
0000
,  // measure 21
0100
0000
0110
0000
,  // measure 22
0000
0000
0010
0000
,  // measure 23
1000
0000
0001
0000
,  // measure 24
1000
0000
0100
0000
,  // measure 25
0000
0000
0110
0000
,  // measure 26
0010
0000
0001
0000
,  // measure 27
1000
0000
0001
0000
,  // measure 28
1000
0000
0010
0000
,  // measure 29
0100
0000
0110
0000
,  // measure 30
0000
0000
0010
0000
,  // measure 31
1000
1000
1000
0000
,  // measure 32
0001
0000
0010
0000
,  // measure 33
0100
0100
0100
0000
,  // measure 34
0010
0000
0001
0000
,  // measure 35
1000
0000
0001
0000
,  // measure 36
0100
0000
0010
0000
,  // measure 37
0100
0100
0100
0000
,  // measure 38
0001
0000
1000
0000
,  // measure 39
0100
0000
0010
0000
,  // measure 40
0100
0000
0010
0000
,  // measure 41
0001
0001
0001
0000
;

//---------------dance-single - ----------------
#NOTES:
     dance-single:
     :
     Beginner:
     1:
     0.086,0.093,0.018,0.000,0.000: // measure 1
1000
0000
0000
0000
,  // measure 2
0001
0000
0000
0000
,  // measure 3
0100
0000
0010
0000
,  // measure 4
0100
0000
0000
0000
,  // measure 5
0001
0000
1000
0000
,  // measure 6
0001
0000
1000
0000
,  // measure 7
0100
0000
0000
0000
,  // measure 8
0010
0000
0000
0000
,  // measure 9
0100
0000
0010
0000
,  // measure 10
0100
0000
0010
0000
,  // measure 11
0001
0000
0000
0000
,  // measure 12
1000
0000
0000
0000
,  // measure 13
0000
0000
1001
0000
,  // measure 14
0001
0000
0100
0000
,  // measure 15
0000
0000
0010
0000
,  // measure 16
0100
0000
0010
0000
,  // measure 17
0000
0000
0100
0000
,  // measure 18
0001
0000
1000
0000
,  // measure 19
0000
0000
0001
0000
,  // measure 20
1000
0000
0100
0000
,  // measure 21
0010
0000
0100
0000
,  // measure 22
0000
0000
0010
0000
,  // measure 23
0010
0000
0001
0000
,  // measure 24
0000
0000
0001
0000
,  // measure 25
0001
0000
1000
0000
,  // measure 26
0010
0000
1000
0000
,  // measure 27
0010
0000
0100
0000
,  // measure 28
0010
0000
0100
0000
,  // measure 29
0001
0000
1000
0000
,  // measure 30
0000
0000
0001
0000
,  // measure 31
1000
0000
0001
0000
,  // measure 32
0000
0000
1000
0000
,  // measure 33
0001
0000
1001
0000
,  // measure 34
0000
0000
1000
0000
,  // measure 35
1000
0000
1000
0000
,  // measure 36
0000
0000
0001
0000
,  // measure 37
0001
0000
0001
0000
,  // measure 38
0000
0000
0100
0000
,  // measure 39
0100
0000
0100
0000
,  // measure 40
0000
0000
0010
0000
,  // measure 41
0010
0000
0010
0000
;
