#TITLE:Mr Brightside;
#SUBTITLE:;
#ARTIST:LeKid;
#TITLETRANSLIT:;
#SUBTITLETRANSLIT:;
#ARTISTTRANSLIT:;
#CREDIT:;
#BANNER:;
#BACKGROUND:;
#LYRICSPATH:;
#CDTITLE:;
#MUSIC:Mr Brightside.mp3;
#OFFSET:-6.440;
#SAMPLESTART:44.780;
#SAMPLELENGTH:12.800;
#SELECTABLE:YES;
#BPMS:0.000=150.000;
#STOPS:;
#BGCHANGES:;

//---------------dance-single - ----------------
#NOTES:
     dance-single:
     :
     Hard:
     7:
     0.490,0.479,0.150,0.370,0.000:
1000
0000
0001
0000
0100
0000
0010
1000
,
0000
1000
0001
0000
0010
0001
1000
0000
,
0010
0000
0100
0000
0010
0000
1000
0100
,
0000
1000
0100
0000
0010
0001
0100
0000
,
0001
0000
1000
0100
0001
0000
0100
1000
,
0000
1000
0001
0000
0100
0001
0100
0000
,
0010
0000
1000
0000
0001
1000
0001
2000
,
0000
0000
3100
0000
0010
0001
1000
0000
,
2020
0000
0000
3000
,
0200
0000
0300
0000
0100
0100
0130
0000
,
0010
1000
0001
0000
1000
0001
1000
0001
,
0000
1000
0010
0000
0100
0001
0010
0001
,
1000
0000
0100
0000
0010
0100
0001
0100
,
0000
0100
1000
0000
0001
1000
0001
1000
,
0010
0000
0100
0000
0001
0010
0001
1000
,
0000
1000
0010
0100
0001
0010
0100
0000
,
0110
0010
0001
0100
,
2000
3200
0302
2003
,
3100
0000
0010
0000
0001
1000
0010
0000
,
0200
0010
0302
0010
,
1003
0000
0100
0000
0010
0001
0100
0000
,
0010
1000
0010
0000
1000
0001
1000
0001
,
0020
0000
0000
0000
,
0000
0000
0000
0030
,
0001
0100
1000
0100
0001
0000
1000
0000
,
0020
2030
3200
0320
,
0130
1000
0100
0010
0100
0000
0010
0000
,
0002
0203
0320
2030
,
3001
0010
0001
1000
0100
0000
0010
0000
,
0200
2300
3020
0230
,
0301
0100
0001
1000
0100
0000
0010
0000
,
0110
0011
1001
0101
,
0001
0100
1000
0100
0010
1000
0100
0000
,
0010
0001
0010
0000
0001
1000
0001
0000
,
1000
0010
0100
0001
0010
0100
0010
0000
,
0001
0010
0001
0000
0011
0000
1001
0000
,
1000
0010
0100
0001
0000
0100
0010
0000
,
1000
0100
0001
0000
0001
0100
1000
0001
,
1000
0010
0100
0000
0010
0000
1000
0000
,
2200
0300
0002
3003
,
0001
0010
0001
0000
0100
0000
0010
0000
,
1000
0000
0100
0000
0010
0100
1000
0000
,
0001
1000
0010
0100
,
0001
0010
0001
0000
1000
0010
0100
0001
,
0010
0000
0010
0100
0000
0100
1000
0000
,
0001
0000
0100
0000
0010
1000
0100
0000
,
0010
0001
0100
1000
,
0010
0000
0001
0000
1000
0001
1000
0000
,
0010
1000
0010
1000
0001
0100
0001
0100
,
0020
2030
3200
0320
,
0130
0010
0001
0010
0100
1000
0100
0010
,
0002
0203
0320
2030
,
3001
0100
1000
0100
0001
1000
0100
0001
,
0200
0320
0032
0203
,
0310
1000
0100
0001
0010
0001
0100
1000
,
0002
2003
3020
0230
,
0301
0100
0001
1000
0100
0000
0010
0000
,
0110
0100
1100
1000
,
0001
1000
0001
1000
0010
0000
0100
0000
,
0110
0101
1001
1100
,
1000
0100
0010
0001
0000
0010
0001
0000
,
0001
0100
0001
0000
1000
0010
0100
0001
,
0010
0010
0001
0000
0100
0000
1000
0000
,
1100
0000
0100
0001
1000
1000
0100
0000
,
0110
0000
0000
0000
;

//---------------dance-single - ----------------
#NOTES:
     dance-single:
     :
     Medium:
     6:
     0.385,0.394,0.194,0.088,0.000:
1000
0000
0001
0000
0100
0000
0000
0010
,
0000
0100
0001
1000
,
0100
0000
0010
0000
0100
0000
0000
0010
,
0000
0000
0001
0000
1000
0001
1000
0000
,
0001
0000
0100
0000
0010
0000
0000
0100
,
0000
0000
0001
0000
1000
0100
1000
0000
,
0001
0000
0010
0000
0100
0000
0010
0001
,
0000
0001
1000
0000
0001
0100
0001
0000
,
2002
0000
0000
0000
,
0000
0000
3003
0000
1000
0001
1000
0000
,
0101
0000
0001
0000
1000
0000
0010
0100
,
0000
0100
0001
0000
1000
0100
1000
0000
,
0001
0000
0010
0000
0100
0000
0010
0100
,
0000
0100
1000
0000
0001
1000
0001
0000
,
1000
0000
0010
0000
0100
0000
0001
0100
,
0000
0100
0001
1000
0001
0000
1000
0000
,
1100
0010
1100
0010
,
0001
0100
0010
1000
,
0101
0010
0101
0010
,
0001
1000
0010
0100
,
0011
0000
0001
0000
1000
0001
1000
0000
,
0001
0100
0001
0000
1000
0010
1000
0000
,
0220
0000
0000
0000
,
0000
0000
0000
0330
,
1001
0000
0000
1000
0100
0000
0010
0000
,
0001
0100
1000
0100
,
0001
0000
0000
0001
0010
0000
0100
0000
,
0010
0001
1000
0010
,
0100
0000
0000
0100
0001
0000
1000
0000
,
0100
0010
0100
1000
,
0001
0000
0000
1000
0001
0000
1000
0000
,
0010
0100
0110
1010
,
1001
0000
0000
0001
0010
0000
0001
0000
,
1000
0001
1000
0000
0001
0100
0001
0000
,
1000
0000
0000
1000
0100
0000
0001
0000
,
0100
0010
0100
0000
0010
0001
0010
0000
,
0001
0000
0001
1000
0000
1000
0010
0000
,
0100
0001
1000
0100
,
0010
0001
0010
0000
0001
0000
0100
0000
,
0120
0000
2000
3030
,
1000
0100
1000
0000
0001
0000
0010
0000
,
0100
0010
0001
0100
,
0001
0000
0100
0000
0001
0100
0001
0000
,
1000
0000
0100
0000
0010
0100
1000
0000
,
0001
0000
1000
0001
0000
0001
1000
0000
,
0001
0000
0100
0000
0010
0100
0010
0000
,
0100
0001
1000
0100
,
0010
0100
1000
0001
,
2001
0000
0000
0010
3010
0000
1000
0000
,
0100
0010
0100
0010
,
0002
0000
0000
0100
0103
0000
0001
0000
,
1000
0100
0010
0100
,
2000
0000
0000
0010
3010
0000
1000
0000
,
0010
0100
0001
0010
,
0200
0000
0000
0010
0310
0000
0010
0000
,
0001
1000
1010
0101
,
1001
0000
0001
1000
0100
0000
0010
0000
,
0100
0010
0100
0000
0010
0001
0010
0000
,
0001
0000
1000
0010
1000
0000
0001
0000
,
0100
0001
1000
0000
0001
1000
0100
0000
,
1100
0000
0000
0110
0000
0000
0011
0000
,
0001
1000
0001
0000
1000
0010
0100
0001
,
0100
1000
0100
0001
,
1001
0000
1000
0100
1000
0000
0001
0000
,
0110
0000
0000
0000
;

//---------------dance-single - ----------------
#NOTES:
     dance-single:
     :
     Easy:
     4:
     0.268,0.282,0.132,0.035,0.000: // measure 1
1000
0000
0001
0100
,  // measure 2
0001
0000
1000
0000
,  // measure 3
0001
0000
1000
0100
,  // measure 4
0010
0000
0100
0010
,  // measure 5
0100
0000
0010
0000
,  // measure 6
0001
1000
0001
0100
,  // measure 7
0010
0000
0100
0010
,  // measure 8
1000
0001
1000
0001
,  // measure 9
2001
0000
0000
0000
,  // measure 10
3200
0000
0000
0310
,  // measure 11
0100
1000
0100
1000
,  // measure 12
0001
0100
0001
1000
,  // measure 13
0100
0000
0001
0000
,  // measure 14
0100
0000
1000
0001
,  // measure 15
0100
0000
0010
0100
,  // measure 16
0001
1000
0001
0100
,  // measure 17
0110
0000
0110
0000
,  // measure 18
0100
0010
1000
0001
,  // measure 19
1001
0000
1001
0000
,  // measure 20
1000
0100
0010
0001
,  // measure 21
0100
0100
0010
0010
,  // measure 22
1000
0001
1000
0100
,  // measure 23
0220
0000
0000
0000
,  // measure 24
0000
0000
0000
0330
,  // measure 25
1001
0000
1000
0000
,  // measure 26
0001
0100
0001
0100
,  // measure 27
0010
0000
0100
0000
,  // measure 28
0010
0100
0010
1000
,  // measure 29
0001
0000
1000
0000
,  // measure 30
0100
1000
0100
0010
,  // measure 31
0001
0000
0010
0000
,  // measure 32
0001
0010
0001
0100
,  // measure 33
0110
0000
0100
0000
,  // measure 34
0010
0100
0001
1000
,  // measure 35
0001
0000
1000
0000
,  // measure 36
0001
0010
0100
0010
,  // measure 37
0001
0000
1000
0000
,  // measure 38
0001
0000
0100
0010
,  // measure 39
1000
0100
0010
0100
,  // measure 40
0110
0000
1001
0000
,  // measure 41
1000
0100
0010
0001
,  // measure 42
0100
0000
0010
0100
,  // measure 43
0001
1000
0100
0000
,  // measure 44
0010
0100
0010
0001
,  // measure 45
1001
0000
1000
0000
,  // measure 46
0010
0000
0100
0000
,  // measure 47
0010
0000
0100
0000
,  // measure 48
0001
0000
1000
0000
,  // measure 49
0100
0000
0010
0001
,  // measure 50
0010
0001
1000
0001
,  // measure 51
0100
0000
0010
0100
,  // measure 52
0001
0100
0010
1000
,  // measure 53
0100
0000
0010
0100
,  // measure 54
0010
0001
1000
0001
,  // measure 55
1000
0000
0001
0100
,  // measure 56
0010
1000
0010
0100
,  // measure 57
0101
0000
1001
0000
,  // measure 58
1000
0100
0010
0001
,  // measure 59
0010
0000
0110
0000
,  // measure 60
0100
0010
0001
1000
,  // measure 61
0001
1000
0010
0100
,  // measure 62
0010
1000
0100
0010
,  // measure 63
0100
0100
1000
1000
,  // measure 64
0100
0010
0001
1000
,  // measure 65
1001
0000
0000
0000
;

//---------------dance-single - ----------------
#NOTES:
     dance-single:
     :
     Beginner:
     1:
     0.143,0.169,0.053,0.000,0.000: // measure 1
1000
0000
0000
0000
,  // measure 2
0001
0000
0100
0000
,  // measure 3
0001
0000
0000
0000
,  // measure 4
1000
0000
0001
0000
,  // measure 5
1000
0000
0000
0000
,  // measure 6
0001
0000
0010
0000
,  // measure 7
0100
0000
0010
0000
,  // measure 8
0001
0000
1000
0000
,  // measure 9
0010
0000
0000
0000
,  // measure 10
0100
0000
0000
0001
,  // measure 11
1001
0000
0000
0000
,  // measure 12
1000
0000
0100
0000
,  // measure 13
1000
0000
0000
0000
,  // measure 14
0001
0000
0010
0000
,  // measure 15
0100
0000
0010
0000
,  // measure 16
0001
0000
1000
0000
,  // measure 17
1000
0000
1000
0000
,  // measure 18
0001
0000
0000
0000
,  // measure 19
0100
0000
0100
0000
,  // measure 20
0010
0000
0000
0000
,  // measure 21
0100
0000
0001
0000
,  // measure 22
1000
0000
0100
0000
,  // measure 23
0010
0000
0000
0000
,  // measure 24
0000
0000
0000
0000
,  // measure 25
1001
0000
0000
0000
,  // measure 26
1000
0000
0001
0000
,  // measure 27
0100
0000
0000
0000
,  // measure 28
0010
0000
0100
0000
,  // measure 29
0001
0000
0000
0000
,  // measure 30
0010
0000
0001
0000
,  // measure 31
1000
0000
0000
0000
,  // measure 32
0001
0000
1000
0000
,  // measure 33
0010
0000
0010
0000
,  // measure 34
0100
0000
0001
0000
,  // measure 35
1000
0000
1000
0000
,  // measure 36
0100
0000
0010
0000
,  // measure 37
0100
0000
0000
0000
,  // measure 38
0010
0000
0000
0000
,  // measure 39
0001
0000
0010
0000
,  // measure 40
0001
0000
1000
0000
,  // measure 41
1001
0000
0000
0000
,  // measure 42
0001
0000
0100
0000
,  // measure 43
0001
0000
0000
0000
,  // measure 44
1000
0000
0100
0000
,  // measure 45
0010
0000
0100
0000
,  // measure 46
0010
0000
0001
0000
,  // measure 47
1000
0000
0001
0000
,  // measure 48
1000
0000
0001
0000
,  // measure 49
1001
0000
0000
0000
,  // measure 50
1000
0000
0100
0000
,  // measure 51
0010
0000
0001
0000
,  // measure 52
0100
0000
0010
0000
,  // measure 53
0100
0000
0100
0000
,  // measure 54
0001
0000
1000
0000
,  // measure 55
0100
0000
0100
0000
,  // measure 56
0010
0000
0001
0000
,  // measure 57
1001
0000
0000
0000
,  // measure 58
1000
0000
0001
0000
,  // measure 59
0100
0000
0100
0000
,  // measure 60
0010
0000
1000
0000
,  // measure 61
0001
0000
1000
0000
,  // measure 62
0100
0000
0010
0000
,  // measure 63
0001
0000
0100
0000
,  // measure 64
0010
0000
1000
0000
,  // measure 65
1001
0000
0000
0000
;
