#TITLE:Mojito;
#SUBTITLE:;
#ARTIST:House Rulez;
#TITLETRANSLIT:;
#SUBTITLETRANSLIT:;
#ARTISTTRANSLIT:;
#CREDIT:;
#BANNER:;
#BACKGROUND:;
#LYRICSPATH:;
#CDTITLE:;
#MUSIC:Mojito.mp3;
#OFFSET:-8.410;
#SAMPLESTART:81.860;
#SAMPLELENGTH:14.880;
#SELECTABLE:YES;
#BPMS:0.000=129.000;
#STOPS:;
#BGCHANGES:;

//---------------dance-single - ----------------
#NOTES:
     dance-single:
     :
     Hard:
     7:
     0.493,0.485,0.252,0.157,0.096:
2001
0000
0000
0010
0000
0010
0000
0000
0100
0000
0000
0000
3001
0000
0000
0000
,
0201
0000
0000
0010
0000
0010
0000
0000
0001
0000
0000
0000
0310
0000
0000
0000
,
1002
0000
0000
0010
0000
0013
0000
0000
2100
0000
0000
0010
0000
3010
0000
0000
,
0001
1000
0100
0010
0001
0001
1001
0000
,
1000
0100
0001
0100
0010
0001
0100
0010
,
0000
0100
0010
1000
0100
0010
0001
0100
,
0000
0001
0100
0010
0100
1000
0100
0001
,
0000
1000
0100
0000
0010
0001
0100
0000
,
0010
1000
0100
0010
0001
0100
1000
0100
,
0000
0010
0100
0001
0010
0100
0010
0001
,
0000
1000
0010
0100
0001
0010
0100
0010
,
0100
0000
1000
0000
0001
1000
1010
0000
,
1000
0100
0001
0100
0010
0010
0100
1000
,
0010
0010
0100
0001
0010
0010
0001
1000
,
0000
0001
0100
0010
1000
1000
0100
0010
,
0012
0000
0100
1003
,
1000
0010
0100
0001
1000
1000
0100
0010
,
1000
1000
0010
0001
1000
1000
0010
0100
,
0000
0010
0001
0010
0100
0100
0001
1000
,
0200
0001
0010
1000
,
0310
0000
0000
0000
0001
0000
0010
0000
0001
0000
0000
1000
0000
0010
0000
1000
,
0002
0010
1000
0100
,
1003
0000
0000
0000
0010
0000
1000
0000
0010
0000
0000
0100
0000
0001
0000
0200
,
0002
0000
0000
0303
,
1001
0000
0000
0000
1000
0000
0010
0000
1000
0000
0000
0000
0001
0010
0001
0000
,
1000
0100
0010
0100
1000
0000
0001
0100
,
0010
0010
0100
0001
0020
0000
0130
0000
,
0010
0010
0001
0100
0020
0000
1030
0000
,
1000
0010
0100
0001
0010
1000
0010
0001
,
0100
1000
0100
0010
1000
0100
0010
0001
,
1000
1000
2000
0000
3001
0001
0001
0000
,
2020
0030
0100
3001
,
1010
0000
0101
0000
0011
0010
0110
0000
,
0010
0000
0001
0100
0000
0100
0001
0000
1000
0000
0010
0000
0100
0000
0001
0000
,
0101
0000
0110
0000
1010
1000
1001
0000
,
1000
0000
0100
0010
0000
0100
0010
0000
0001
0000
1000
0000
1001
0000
0000
0000
,
0001
0100
0010
0100
0001
0001
0001
1000
,
0100
0010
0100
1000
0010
0010
0010
0100
,
0001
0100
0010
1000
0001
0100
0010
0100
,
0110
1001
0220
0330
,
1001
0000
1000
0100
1000
0100
0010
0001
,
0010
0001
0100
0010
,
0110
0000
0010
1000
0010
1000
0001
0100
,
0001
1000
0100
0010
,
0110
0000
0010
0001
0100
0010
1000
0001
,
0100
0010
0100
0001
,
1001
0000
0000
0000
1000
0000
0100
0000
0010
0000
0001
0010
0000
0001
0000
2002
,
0000
0003
0010
3001
,
1000
0010
0100
0001
0000
0010
0001
0100
,
0000
0010
0100
0001
0010
0100
0010
1000
,
0010
0000
0100
0010
0001
1000
0010
0100
,
0000
0010
0100
0000
0101
0000
1001
0000
,
1000
0100
0001
0010
0001
0100
0010
0100
,
0000
0010
0001
0100
1000
0100
0001
0010
,
0000
0001
0100
0010
1000
0100
0010
0100
,
0010
0001
1000
0001
1000
0000
0110
0000
;

//---------------dance-single - ----------------
#NOTES:
     dance-single:
     :
     Medium:
     5:
     0.370,0.340,0.139,0.104,0.000:
1000
0100
0001
0010
,
0100
0001
1000
0100
,
0001
0010
0100
1000
,
0001
0000
1000
0000
0001
1000
0001
0000
,
1001
0000
1000
0000
0010
0000
0100
0001
,
0000
0001
0100
0000
0010
0000
1000
0001
,
0000
0001
1000
0000
0100
0000
0010
0001
,
0000
1000
0100
0000
0010
0001
0010
0000
,
0001
0000
0100
0000
0010
0000
1000
0001
,
0000
0001
0100
0000
0010
0100
0010
0100
,
0000
0001
0100
0000
0001
1000
0100
1000
,
0000
0001
0010
0000
0011
0000
1100
0000
,
1001
0000
1000
0010
0100
0000
0001
0010
,
0100
0000
0010
0001
1000
0000
0001
0000
,
0100
0000
0010
1000
0100
0000
0010
0001
,
0100
0001
1000
1100
,
0011
0000
0001
0100
0010
0000
1000
0001
,
1000
0000
0001
0100
0010
0000
1000
0000
,
0100
0000
0010
0001
0100
0000
0010
1000
,
0200
0000
0001
1300
,
2002
0000
3003
0000
1000
0000
0010
0100
,
0010
0100
0001
0010
,
0220
0000
0330
0000
0010
0000
0001
1000
,
0002
0000
0010
1003
,
0110
0000
0010
1000
0010
0000
0100
0001
,
0100
0000
0001
0000
1000
0100
1000
0000
,
0001
0010
0001
0010
0001
0000
1000
0000
,
0100
0010
0100
0010
0100
0000
0010
0000
,
0011
0000
0001
1000
,
0010
0000
0100
0001
,
0100
0010
0100
0000
0010
1000
0010
0000
,
2002
0000
3003
0010
,
0120
0000
1000
0000
0100
0100
0130
0000
,
0010
0000
1000
0000
0001
1000
0001
0000
,
2001
0000
0010
0000
0001
0001
3001
0000
,
0001
0000
0100
0000
0010
1000
0010
0000
,
1000
0100
0001
0010
,
1000
0100
0010
0001
,
1000
0010
1000
0000
0001
0100
0001
1000
,
0200
0000
0010
1300
,
1001
0000
0001
0000
0100
0010
0100
0000
,
0010
1000
0100
0010
,
0001
0000
1000
0000
0010
1000
0010
0000
,
0100
0001
0010
0100
,
0010
0000
0001
0000
1000
0001
1000
0000
,
0001
0100
1000
0100
,
0010
0000
0100
0000
0001
0100
0001
0100
,
0002
0000
0100
1003
,
1001
0000
1000
0100
0000
0010
0001
0100
,
0000
0010
1000
0000
0001
1000
0001
1000
,
0000
0001
0010
0000
0100
1000
0100
0010
,
0000
0100
0010
0000
0001
0000
0100
0000
,
0010
0000
1000
0010
0000
0100
0001
0100
,
0000
0001
1000
0100
0000
0010
0001
0100
,
0000
0010
0100
0001
0000
1000
0100
0010
,
0001
0000
0100
0010
0100
0000
1001
0000
;

//---------------dance-single - ----------------
#NOTES:
     dance-single:
     :
     Easy:
     3:
     0.240,0.291,0.087,0.035,0.000: // measure 1
1000
0000
0001
0010
,  // measure 2
0001
0000
1000
0100
,  // measure 3
1000
0000
0010
0000
,  // measure 4
0100
0010
1000
0001
,  // measure 5
1001
0000
1000
0010
,  // measure 6
1000
0000
0001
0000
,  // measure 7
0100
0000
0001
0010
,  // measure 8
0001
0000
1000
0000
,  // measure 9
0100
0000
0010
0100
,  // measure 10
0010
0000
0001
0000
,  // measure 11
1000
0000
0001
1000
,  // measure 12
0001
0100
0010
0100
,  // measure 13
0110
0000
0010
1000
,  // measure 14
0001
1000
0100
0010
,  // measure 15
0001
0000
1000
0001
,  // measure 16
0100
0010
0100
0001
,  // measure 17
1000
0000
0001
0010
,  // measure 18
0100
0010
0001
0100
,  // measure 19
0010
0000
0100
0010
,  // measure 20
1000
0001
1000
0001
,  // measure 21
1001
0000
1000
0010
,  // measure 22
1000
0000
0001
0100
,  // measure 23
0001
0000
0010
0001
,  // measure 24
0200
0000
0010
0310
,  // measure 25
0110
0000
0010
0000
,  // measure 26
1000
0000
0001
0000
,  // measure 27
1000
0100
0010
0001
,  // measure 28
0100
0010
1000
0001
,  // measure 29
1001
0000
1000
0100
,  // measure 30
1000
0000
0001
0010
,  // measure 31
0001
0100
0010
0100
,  // measure 32
0002
0000
1000
1003
,  // measure 33
0120
0100
1000
1000
,  // measure 34
0130
0001
1000
0100
,  // measure 35
0120
0100
0001
0001
,  // measure 36
0130
0010
0001
1000
,  // measure 37
1001
0000
0001
0100
,  // measure 38
0010
0000
0100
0010
,  // measure 39
1000
0100
0010
0001
,  // measure 40
0100
0000
0010
1000
,  // measure 41
1001
0000
1000
0100
,  // measure 42
1000
0000
0001
0010
,  // measure 43
0100
0000
0010
0001
,  // measure 44
0010
0000
0001
0100
,  // measure 45
0010
0000
0100
0010
,  // measure 46
0100
0000
0010
1000
,  // measure 47
0001
0000
1000
0100
,  // measure 48
0010
0001
0100
0010
,  // measure 49
0100
0000
0010
1000
,  // measure 50
0010
0000
0100
0001
,  // measure 51
0100
0000
0001
1000
,  // measure 52
0001
1000
0100
0010
,  // measure 53
0100
0000
0010
0001
,  // measure 54
0100
0000
0010
1000
,  // measure 55
0100
0000
1000
0001
,  // measure 56
1000
0001
0100
0110
;

//---------------dance-single - ----------------
#NOTES:
     dance-single:
     :
     Beginner:
     1:
     0.129,0.146,0.052,0.000,0.000: // measure 1
1000
0000
0000
0000
,  // measure 2
0100
0000
0000
0000
,  // measure 3
0010
0000
0001
0000
,  // measure 4
1000
0000
0001
0000
,  // measure 5
1001
0000
0001
0000
,  // measure 6
0100
0000
0010
0000
,  // measure 7
0100
0000
0001
0000
,  // measure 8
1000
0000
0000
0000
,  // measure 9
0001
0000
0010
0000
,  // measure 10
0100
0000
1000
0000
,  // measure 11
0010
0000
0100
0000
,  // measure 12
0001
0000
0000
0000
,  // measure 13
1000
0000
0010
0000
,  // measure 14
1000
0000
0010
0000
,  // measure 15
0100
0000
0001
0000
,  // measure 16
0100
0000
0000
0000
,  // measure 17
0001
0000
1000
0000
,  // measure 18
0001
0000
1000
0000
,  // measure 19
0100
0000
0010
0000
,  // measure 20
0100
0000
0010
0000
,  // measure 21
1001
0000
1000
0000
,  // measure 22
0010
0000
0100
0000
,  // measure 23
0001
0000
1000
0000
,  // measure 24
1001
0000
0000
0000
,  // measure 25
0110
0000
0010
0000
,  // measure 26
0100
0000
0001
0000
,  // measure 27
1000
0000
0000
0000
,  // measure 28
0100
0000
0000
0000
,  // measure 29
0010
0000
0001
0000
,  // measure 30
1000
0000
0100
0000
,  // measure 31
0010
0000
0001
0000
,  // measure 32
0100
0000
0000
0000
,  // measure 33
0110
0000
0100
0000
,  // measure 34
0010
0000
1000
0000
,  // measure 35
0001
0000
0001
0000
,  // measure 36
1000
0000
0100
0000
,  // measure 37
0010
0000
0001
0000
,  // measure 38
0100
0000
1000
0000
,  // measure 39
0010
0000
0001
0000
,  // measure 40
1001
0000
0000
0000
,  // measure 41
1000
0000
0010
0000
,  // measure 42
1000
0000
0000
0000
,  // measure 43
0001
0000
0010
0000
,  // measure 44
0001
0000
0000
0000
,  // measure 45
0100
0000
0010
0000
,  // measure 46
0100
0000
0000
0000
,  // measure 47
0010
0000
1000
0000
,  // measure 48
0001
0000
0000
0000
,  // measure 49
1000
0000
0100
0000
,  // measure 50
0010
0000
0001
0000
,  // measure 51
1000
0000
0010
0000
,  // measure 52
0100
0000
0000
0000
,  // measure 53
0001
0000
0010
0000
,  // measure 54
0001
0000
1000
0000
,  // measure 55
0100
0000
0010
0000
,  // measure 56
0001
0000
1000
1000
;
