#TITLE:Missing;
#SUBTITLE:(Todd Terry Club Mix);
#ARTIST:Everything But The Girl;
#TITLETRANSLIT:;
#SUBTITLETRANSLIT:;
#ARTISTTRANSLIT:;
#GENRE:;
#CREDIT:;
#MENUCOLOR:;
#METERTYPE:DDR;
#BANNER:;
#BACKGROUND:;
#LYRICSPATH:;
#CDTITLE:;
#MUSIC:Missing (Todd Terry Club Mix).mp3;
#OFFSET:-7.810;
#SAMPLESTART:30.130;
#SAMPLELENGTH:15.550;
#SELECTABLE:YES;
#LISTSORT:;
#BPMS:0.000=123.450;
#STOPS:;
#BGCHANGES:;
#ATTACKS:;

//---------------dance-single - ----------------
#NOTES:
     dance-single:
     :
     Hard:
     6:
     0.343,0.334,0.180,0.248,0.064: // measure 1
0002
0000
0000
0010
0000
1000
0000
0200
,  // measure 2
0000
0000
0000
0303
,  // measure 3
2000
0100
0000
0010
0000
0001
0000
0200
,  // measure 4
0000
0000
0000
3300
,  // measure 5
1000
0000
0001
0100
0000
0001
0000
0100
,  // measure 6
0001
0000
1000
0000
0100
0010
0100
0000
,  // measure 7
0010
0000
0001
0100
0000
0001
1000
0000
,  // measure 8
0010
0000
1000
0000
0100
1000
0100
0000
,  // measure 9
0010
0000
0001
0100
0000
0001
0100
0001
,  // measure 10
1000
0100
1000
0010
,  // measure 11
0100
0000
0010
1000
0010
0000
0100
0000
,  // measure 12
0001
1000
0001
0000
1000
0100
0010
0002
,  // measure 13
1000
0000
0000
1000
0000
0000
2000
0000
0000
0000
0000
0000
0003
0000
0000
0000
,  // measure 14
0010
0000
0000
0010
0000
0000
0020
0000
0000
0000
3030
0000
0010
0000
1000
0000
,  // measure 15
0010
1000
0000
0001
0000
0010
0000
0220
,  // measure 16
0000
0000
0330
0000
1000
0001
1000
0002
,  // measure 17
0100
0000
0000
0100
0000
0000
0200
0000
0000
0000
0000
0000
0003
0000
0000
0000
,  // measure 18
0010
0000
0000
0010
0000
0000
0020
0000
0000
0000
0330
0000
0010
0000
0100
0000
,  // measure 19
0010
1000
0000
1001
0000
0001
0000
0022
,  // measure 20
0000
0000
0000
0033
,  // measure 21
1000
0000
0000
0001
0000
0000
1000
0000
0000
0000
0001
0000
0100
0000
0000
0000
,  // measure 22
0001
0000
0000
0010
0000
0000
0001
0000
0000
0000
1000
0000
0100
0000
0000
0000
,  // measure 23
1000
0001
0000
0010
0000
0100
0000
1000
,  // measure 24
0000
0010
0100
0000
0001
1000
0001
0000
,  // measure 25
1000
0000
0010
0100
0000
0010
1000
0010
,  // measure 26
0000
1000
0001
0000
0010
0001
0010
0000
,  // measure 27
0001
0000
0100
0010
0000
0110
0000
0100
,  // measure 28
0001
1000
0100
0000
0010
0000
0100
0010
,  // measure 29
0100
1000
0000
0001
0000
0101
0000
2002
,  // measure 30
0000
0000
3003
0000
0010
1000
0010
0000
,  // measure 31
1000
0000
0100
0000
0010
0000
0001
0100
,  // measure 32
0001
1000
0000
0100
0000
1100
0000
2002
,  // measure 33
0000
0000
0000
0000
3003
0001
0000
1000
,  // measure 34
0100
0000
0010
0000
0001
0100
0001
0000
,  // measure 35
1000
0100
0000
1000
0000
0020
0200
0000
,  // measure 36
0000
0000
0330
0000
0001
1000
0001
2000
,  // measure 37
0001
0000
0000
0001
0000
0000
0002
0000
0000
0000
3003
0000
0000
0000
0000
0000
,  // measure 38
0210
0000
0000
0010
0000
0000
0020
0000
0000
0000
0330
0000
0100
0000
0010
0000
,  // measure 39
1000
0001
0000
1000
0000
0100
0000
0022
,  // measure 40
0000
0000
0000
0033
,  // measure 41
1000
0000
0000
0100
0000
0000
0010
0000
0000
0000
0001
0000
0000
0000
0000
0000
,  // measure 42
1000
0000
0000
0010
0000
0000
1000
0000
0000
0000
0001
0000
0000
0000
0010
0000
,  // measure 43
0001
0100
0000
0110
0000
1001
0000
0110
,  // measure 44
0000
1001
0000
0001
0010
0001
0000
1000
,  // measure 45
0100
0000
0000
1000
0000
0000
0100
0000
0000
0000
0010
0000
0000
0001
0000
0000
,  // measure 46
0010
0000
0000
0001
0000
0000
0100
0000
0000
0000
0010
0000
0000
0000
1000
0000
,  // measure 47
0100
0010
0000
0110
0000
1001
0000
0110
,  // measure 48
0000
1000
0001
0000
0100
0000
0001
1000
,  // measure 49
0002
0000
0000
0010
0000
0000
1000
0000
0000
0000
0200
0000
0000
0303
0000
0000
,  // measure 50
2000
0000
0000
0010
0000
0000
0001
0000
0000
0000
0100
0000
3100
0000
1000
0000
,  // measure 51
0001
0010
0000
0011
0000
1100
0000
1001
,  // measure 52
0000
0001
0100
0000
0010
1000
0001
0000
,  // measure 53
1001
0000
0000
0000
;

//---------------dance-single - ----------------
#NOTES:
     dance-single:
     :
     Beginner:
     1:
     0.091,0.111,0.043,0.000,0.000: // measure 1
0000
0000
0000
0000
,  // measure 2
0000
0000
0000
0000
,  // measure 3
0000
0000
0000
0000
,  // measure 4
0000
0000
0000
0000
,  // measure 5
1001
0000
0000
0000
,  // measure 6
0001
0000
1000
0000
,  // measure 7
0001
0000
0000
0000
,  // measure 8
1000
0000
0001
0000
,  // measure 9
0100
0000
0000
0000
,  // measure 10
0010
0000
0100
0000
,  // measure 11
0001
0000
0000
0000
,  // measure 12
1000
0000
0000
0000
,  // measure 13
0001
0000
0001
0000
,  // measure 14
1000
0000
1000
0000
,  // measure 15
0100
0000
0100
0000
,  // measure 16
0010
0000
0000
0000
,  // measure 17
0100
0000
0100
0000
,  // measure 18
1000
0000
1000
0000
,  // measure 19
0001
0000
0001
0000
,  // measure 20
0100
0000
0000
0000
,  // measure 21
0110
0000
0000
0000
,  // measure 22
0100
0000
0001
0000
,  // measure 23
1000
0000
0000
0000
,  // measure 24
0100
0000
0010
0000
,  // measure 25
0100
0000
0000
0000
,  // measure 26
0010
0000
0001
0000
,  // measure 27
0100
0000
0001
0000
,  // measure 28
0100
0000
0000
0000
,  // measure 29
0010
0000
0100
0000
,  // measure 30
0010
0000
0000
0000
,  // measure 31
1000
0000
0001
0000
,  // measure 32
1000
0000
0001
0000
,  // measure 33
0100
0000
0000
0000
,  // measure 34
0010
0000
1000
0000
,  // measure 35
0100
0000
0000
0000
,  // measure 36
0010
0000
0000
0000
,  // measure 37
1001
0000
0000
0000
,  // measure 38
0000
0000
0000
0000
,  // measure 39
0010
0000
0000
0000
,  // measure 40
0100
0000
0000
0000
,  // measure 41
0110
0000
0000
0000
,  // measure 42
0010
0000
1000
0000
,  // measure 43
0001
0000
0000
0000
,  // measure 44
1000
0000
0000
0000
,  // measure 45
0001
0000
0000
0000
,  // measure 46
0010
0000
0001
0000
,  // measure 47
0100
0000
0000
0000
,  // measure 48
0010
0000
0000
0000
,  // measure 49
1000
0000
0100
0000
,  // measure 50
1000
0000
0001
0000
,  // measure 51
0100
0000
0000
0000
,  // measure 52
0001
0000
0000
0000
,  // measure 53
1001
0000
0000
0000
;

//---------------dance-single - ----------------
#NOTES:
     dance-single:
     :
     Easy:
     1:
     0.114,0.134,0.060,0.034,0.000: // measure 1
1001
0000
0001
0000
,  // measure 2
0100
0000
0010
0000
,  // measure 3
1000
0000
0000
0000
,  // measure 4
0001
0000
0100
0000
,  // measure 5
0001
0000
0000
0000
,  // measure 6
1000
0000
0100
0000
,  // measure 7
1000
0000
0000
0000
,  // measure 8
0100
0000
0010
0000
,  // measure 9
0100
0000
0010
0000
,  // measure 10
0001
0000
1000
0000
,  // measure 11
0010
0000
0100
0000
,  // measure 12
0001
0000
0000
0000
,  // measure 13
1001
0000
1000
0000
,  // measure 14
0001
0000
0100
0000
,  // measure 15
0010
0000
0000
0000
,  // measure 16
0100
0000
0000
0000
,  // measure 17
0001
0000
1000
0000
,  // measure 18
0100
0000
0010
0000
,  // measure 19
0100
0000
0000
0000
,  // measure 20
0010
0000
0000
0000
,  // measure 21
0001
0000
0010
0000
,  // measure 22
0100
0000
1000
0000
,  // measure 23
0010
0000
1000
0000
,  // measure 24
0001
0000
0000
0000
,  // measure 25
1000
0000
0100
0000
,  // measure 26
1000
0000
0001
0000
,  // measure 27
0100
0000
0010
0000
,  // measure 28
0100
0000
0000
0000
,  // measure 29
1001
0000
0000
0000
,  // measure 30
0001
0000
0100
0000
,  // measure 31
0010
0000
0000
0000
,  // measure 32
0100
0000
0001
0000
,  // measure 33
1000
0000
0100
0000
,  // measure 34
0010
0000
0000
0000
,  // measure 35
0100
0000
0010
0000
,  // measure 36
0110
0000
0000
0000
,  // measure 37
2002
0000
0000
0000
,  // measure 38
0000
0000
3003
0000
,  // measure 39
0220
0000
0000
0000
,  // measure 40
0000
0000
0330
0000
,  // measure 41
1000
0000
0001
0000
,  // measure 42
0100
0000
0010
0000
,  // measure 43
0100
0000
0001
0000
,  // measure 44
1000
0000
0000
0000
,  // measure 45
0001
0000
0010
0000
,  // measure 46
0001
0000
1000
0000
,  // measure 47
0010
0000
1000
0000
,  // measure 48
0100
0000
0000
0000
,  // measure 49
0010
0000
0001
0000
,  // measure 50
0100
0000
0010
0000
,  // measure 51
0100
0000
0001
0000
,  // measure 52
1000
0000
0000
0000
,  // measure 53
1001
0000
0000
0000
;

//---------------dance-single - ----------------
#NOTES:
     dance-single:
     :
     Medium:
     4:
     0.226,0.245,0.060,0.188,0.000: // measure 1
0000
0000
0000
1000
0000
0001
0000
2000
,  // measure 2
0000
0000
3000
0000
,  // measure 3
0001
1000
0000
0001
0000
0100
0000
0020
,  // measure 4
0000
0000
0030
0000
,  // measure 5
1000
0100
0010
0001
,  // measure 6
0100
0000
0010
0000
,  // measure 7
1000
0010
0100
0001
,  // measure 8
0010
0001
1000
0100
,  // measure 9
0010
0000
0100
1000
,  // measure 10
0010
0000
0100
0000
,  // measure 11
0001
0000
1000
0001
,  // measure 12
0100
0000
0000
0000
0010
0100
0010
0000
,  // measure 13
0100
0001
1000
0000
,  // measure 14
0001
1000
0100
0010
,  // measure 15
0100
0010
0000
0002
0000
0100
0000
2000
,  // measure 16
0000
0000
3003
0000
0001
1000
0001
0000
,  // measure 17
2000
0010
0002
3003
,  // measure 18
0002
0010
2000
3003
,  // measure 19
0001
0100
0000
0002
0000
0100
0000
2000
,  // measure 20
0000
0000
3003
0000
,  // measure 21
1000
0001
0100
0010
,  // measure 22
0100
0000
0001
0000
,  // measure 23
1000
0100
1000
0001
,  // measure 24
0010
0001
0100
0001
,  // measure 25
0100
0000
0010
1000
,  // measure 26
0100
0000
0010
0000
,  // measure 27
0001
0100
0001
1000
,  // measure 28
0100
0000
0010
0000
,  // measure 29
1000
0001
0000
1000
0000
0100
0000
0020
,  // measure 30
0000
0000
0030
0000
,  // measure 31
0010
0001
0100
0010
,  // measure 32
1000
0000
0000
0001
0000
0000
0100
0000
,  // measure 33
0001
1000
0100
0010
,  // measure 34
0001
0000
1000
0010
,  // measure 35
0100
0000
0001
0000
,  // measure 36
2002
0000
0000
3003
,  // measure 37
0110
0000
0000
0100
0000
0000
0001
0000
,  // measure 38
1000
0000
0000
0100
0000
0000
0010
0000
,  // measure 39
0001
0010
0000
0001
0000
0010
0000
0002
,  // measure 40
0000
0000
1003
0010
,  // measure 41
0110
0000
0000
0100
0000
0000
0001
0000
,  // measure 42
1000
0000
0000
0001
0000
0000
1000
0000
,  // measure 43
0100
1000
0000
0100
0000
0010
0000
0002
,  // measure 44
0000
0010
0000
1000
0000
0100
0000
1003
,  // measure 45
0001
0000
0000
0202
0000
0000
0303
0000
,  // measure 46
1000
0000
0000
2200
0000
0000
3300
0000
,  // measure 47
0010
0001
0000
1000
0000
0001
0000
0200
,  // measure 48
0000
0000
0310
1000
,  // measure 49
0100
0000
0010
0000
,  // measure 50
0001
0000
0100
0000
,  // measure 51
0001
1000
0000
0100
0000
0010
0000
0022
,  // measure 52
0000
0000
0000
0033
,  // measure 53
1001
0000
0000
0000
;
