#TITLE:Missä Miehet Ratsastaa;
#SUBTITLE:;
#ARTIST:Teräsbetoni;
#TITLETRANSLIT:;
#SUBTITLETRANSLIT:;
#ARTISTTRANSLIT:;
#CREDIT:;
#BANNER:;
#BACKGROUND:;
#LYRICSPATH:;
#CDTITLE:;
#MUSIC:Missa Miehet Ratsastaa.mp3;
#OFFSET:-6.880;
#SAMPLESTART:37.690;
#SAMPLELENGTH:13.710;
#SELECTABLE:YES;
#BPMS:0.000=140.000;
#STOPS:;
#BGCHANGES:;

//---------------dance-single - ----------------
#NOTES:
     dance-single:
     :
     Hard:
     8:
     0.580,0.539,0.282,0.100,0.241:
1000
0001
1000
0001
0100
0010
0100
0010
,
1000
0100
0010
0001
0100
0010
0110
0000
,
0100
0001
1000
0000
0001
0010
0100
0000
,
0010
0001
0100
0000
0010
0100
0001
0100
,
0010
1000
0100
0000
0010
0001
1000
0000
,
0010
1000
0001
0010
0100
0000
0011
0000
,
0001
0100
1000
0000
0100
0001
1000
0100
,
0010
0000
0100
0000
1000
0010
1000
0001
,
0100
0010
1000
0000
0100
0010
0001
0000
,
0101
0000
1010
0000
0001
1000
1100
0000
,
0011
0000
0001
0100
0010
0100
0001
1000
,
0200
0001
0010
1300
,
0001
0010
1000
0100
1000
0010
0001
1001
,
0000
1000
0010
0100
0001
0000
0011
0000
,
1000
0010
0001
0010
0100
0010
1000
0100
,
0010
0000
0100
0010
0100
1000
0001
0000
,
1001
0000
1000
0010
0110
0000
0010
1000
,
0001
0010
0001
0000
1000
0100
1000
0000
0220
0000
0000
0000
0330
0000
0000
0000
,
0010
0001
0100
0010
0000
0110
0000
0100
,
0001
1000
0100
0010
0100
1000
0001
1000
,
0020
0001
0100
1030
,
1000
0100
0010
0100
0001
1000
0010
0001
,
1001
0000
1000
0010
0000
0101
0000
0001
,
1000
0100
0010
0100
1000
0001
0100
0010
,
2000
0000
0010
0000
0001
0100
3001
0000
,
1000
0010
0001
1000
0100
0010
1000
0100
,
0010
0000
0000
0010
0001
0000
0000
0001
1000
0000
0000
1000
0010
0000
0100
0000
,
0101
0000
0000
0001
1000
0000
0000
1000
0100
0000
0000
0100
0010
0000
0000
0010
,
0001
0000
0000
0001
1000
0000
0000
1000
0010
0000
0000
0010
0100
0000
0001
0100
,
0002
0000
2000
3003
,
1000
0010
0100
0001
1000
0100
0010
0100
,
0000
0010
0001
1000
0001
0000
0110
0000
,
0010
1000
0100
0001
0000
0101
0000
0100
,
1000
0001
0100
0010
0000
0100
0001
0000
,
1001
1000
0010
0100
0001
0010
0100
0010
,
0001
0100
1000
0100
0001
0010
0100
0010
,
0001
0001
1000
1000
0100
0100
0010
0010
,
0100
0010
0001
1000
0001
1000
0020
0000
0000
0030
0000
0000
,
1001
0000
0000
0001
1000
0000
0000
1000
0100
0000
0000
0100
0001
0000
0000
0001
,
0010
0000
0000
0010
1000
0000
0000
1000
0001
0000
0000
0001
1000
0000
0001
0000
,
0100
0000
0000
0100
0001
0000
0000
0001
1000
0000
0000
1000
0100
0000
0000
0100
,
0001
0000
0000
0001
0010
0000
0000
0010
1000
0000
0000
1000
0001
0000
1000
0000
,
0100
0000
0000
0010
0001
0000
0000
1000
0010
0000
0000
0100
0001
0000
0000
1000
,
0001
0000
0000
1000
0100
0000
0000
0010
0100
0000
0000
0010
0001
0000
1000
0000
,
0001
0000
0000
0100
0001
0000
0000
1000
0010
0000
0000
0100
0001
0000
0000
1000
,
0200
0001
0010
1300
,
1000
0100
0010
0001
0100
1000
0100
0001
,
0010
0100
0010
0001
0100
0010
0110
0000
,
0001
1000
0010
0001
0010
1000
0000
1010
,
0000
1100
0000
0011
0000
0010
0001
0000
,
1000
0010
0001
0010
1000
0100
0010
0100
,
1000
0010
0100
0001
0010
0100
0010
0001
,
1001
0000
1010
0000
0001
0100
0000
0100
,
0001
1000
0000
2200
0000
0000
3300
0000
,
1000
0000
0000
1000
0001
0000
0000
0001
0100
0000
0010
0100
0010
0000
0110
0000
,
0000
0000
0100
0010
0100
0000
0000
0100
0001
0000
1000
0001
1000
0000
0001
0000
,
0100
0000
0000
0010
1000
0000
0000
1000
0001
0000
0010
0001
0010
0000
0011
0000
,
0000
0000
0001
1000
0001
0000
1000
0010
1000
0000
0000
0000
0101
0000
0000
0000
,
0001
0100
0010
1000
0001
0010
0100
0010
,
0110
1001
0000
0000
0000
0000
0000
0000
;

//---------------dance-single - ----------------
#NOTES:
     dance-single:
     :
     Medium:
     7:
     0.483,0.431,0.255,0.182,0.077:
1000
0001
1000
0001
0100
0001
0100
0001
,
1000
0001
0100
0010
0100
0000
0010
0000
,
0220
0000
0330
0000
0010
0000
1000
0001
,
1000
0000
0001
0000
0010
0100
0010
0001
,
1000
0000
0001
0000
0100
0010
0100
0000
,
0010
0000
1000
0000
0001
1000
0010
0100
,
0001
0010
0001
0000
1000
0000
0100
0000
,
0001
0100
1000
0010
,
0100
0010
0100
0000
0001
0000
1000
0000
,
0100
0010
0001
0010
0001
0100
0010
0000
,
1001
0000
1000
0010
1000
0000
0001
0010
,
0100
0010
0001
0100
0010
0000
0100
0000
,
0010
0000
1000
0001
0100
0000
0010
1000
,
0100
0010
0100
0010
0001
0000
1000
0000
,
1010
0000
0001
0100
0001
0001
1000
0000
,
0100
0001
0010
1000
,
1001
0000
0001
0100
0000
0100
0001
0000
,
1000
0001
1000
0001
0202
0000
0303
0000
,
1001
0000
1000
0010
0000
0010
1000
0001
,
0000
0101
0000
1010
0000
1000
0100
0000
,
0010
0001
0100
0000
0010
1000
0100
0010
,
0000
0100
0010
0001
1000
0001
0100
0000
,
0001
0010
0001
1000
0000
0001
0100
0010
,
0000
0101
0000
1010
0000
0001
1000
0100
,
0020
0100
0001
0100
,
0031
0010
0000
0011
0000
0001
1000
0000
,
1001
0000
0000
0000
0001
0000
0000
0000
0001
0000
0000
0000
0001
0000
1000
0001
,
1000
1000
1000
1000
,
1010
0010
0010
0010
,
0220
0330
2002
3003
,
1000
0001
1000
0000
0001
0100
0010
0200
,
0000
0000
0010
0010
0310
0000
0100
0000
,
0001
1000
0001
1000
0000
0011
0000
0001
,
0200
0000
0010
0010
0000
0001
0301
0000
,
0001
0000
1000
0001
0000
1000
0001
0000
,
0100
0000
0010
0100
0000
0100
0010
1000
,
0100
0000
0010
0001
0000
0001
1000
0000
,
0001
1000
0001
1000
0001
2000
0002
0000
0000
3003
0000
0000
,
1000
0000
0000
0001
1000
0000
0000
0000
0001
0000
0000
1000
0001
0000
0000
0000
,
1000
0000
0000
0100
1000
0000
0000
0000
0001
0000
0000
0010
0001
0000
1000
0000
,
0001
0100
1000
0010
,
0001
1000
2002
3003
,
1000
0000
0000
1000
0001
0000
0000
0000
0001
0000
0000
0001
0010
0000
0000
0000
,
0010
0000
0000
0010
0100
0000
0000
0000
0100
0000
0000
0100
0010
0000
0001
0000
,
1000
0010
0001
0100
,
0220
0330
2002
3003
,
1000
0100
0010
0001
0000
0100
0010
1000
,
0000
1100
0000
0011
0000
0001
1000
0000
,
0001
0100
0010
0000
0010
0100
0001
1000
,
0000
0100
0010
0000
0001
1000
0001
0000
,
1010
0000
0001
0010
0000
0010
0001
1000
,
0000
1100
0000
0011
0000
0001
0100
0010
,
0100
0000
0001
0000
1000
0100
1000
0000
,
0001
0100
0000
0110
0000
0010
1000
0001
,
1000
0000
0000
1000
0001
0000
0000
0000
0001
0000
0000
0001
0100
0000
0010
0000
,
0100
0000
0001
0000
1000
0000
0001
0010
,
0011
0000
0000
0001
1000
0000
0000
0000
1000
0000
0000
1000
0010
0000
0100
0000
,
0010
0000
1000
0100
1100
0000
1001
0000
,
0001
1000
0001
1000
0010
0100
0010
0200
,
0010
0310
0000
0000
0000
0000
0000
0000
;

//---------------dance-single - ----------------
#NOTES:
     dance-single:
     :
     Easy:
     4:
     0.269,0.269,0.146,0.046,0.000:
1000
0001
1000
0001
,
0100
0010
0100
0010
,
1001
0000
1000
0100
,
0010
0001
0100
0010
,
0100
0000
0010
1000
,
0100
0010
0100
1000
,
0001
0000
1000
0001
,
1000
0010
0100
0001
,
1000
0000
0001
0010
,
0001
1000
0100
0010
,
0110
0000
0100
0010
,
0001
0000
0001
1000
,
0010
0000
0100
0010
,
0100
0001
1000
0001
,
1001
0000
1000
0010
,
0100
0001
0010
0100
,
0110
0000
1001
0000
,
0220
0000
0330
0000
,
0010
1000
0001
0100
,
0010
0010
0010
0000
,
0100
0001
1000
0000
,
0001
1000
0100
0000
,
0010
0001
0100
0010
,
0100
0100
0100
0000
,
0010
1000
0001
0000
,
0110
0000
1001
0000
,
1001
0000
1000
0000
,
0001
0000
0100
0010
,
0100
0000
0001
0000
,
1010
0000
0101
0000
,
1001
0000
1000
0100
,
0010
0001
1000
0000
,
0001
1000
0001
0000
,
0100
0010
0100
0000
,
0010
1000
0100
0001
,
0100
1000
0010
0100
,
0001
0010
0100
0010
,
0001
1000
1001
0000
,
0110
0000
0100
0000
,
0010
0000
0010
0000
,
1000
0000
0001
0000
,
1000
0000
0010
0000
,
0110
0000
0100
0000
,
0001
0000
1000
0000
,
0100
0000
0010
0000
,
0002
0000
2000
3003
,
1000
0001
1000
0001
,
0100
0001
0100
0001
,
1000
0010
0100
0010
,
1000
0100
0010
0001
,
0010
0001
0010
0001
,
1000
0100
1000
0100
,
0001
0010
1000
0100
,
0010
0100
0010
0001
,
1001
0000
0000
0000
1000
0000
0001
1000
,
0000
0000
0001
0100
,
0010
0000
0000
0000
0100
0000
0010
0100
,
0000
0000
0010
1000
,
0001
0010
0100
2000
,
0001
3001
0000
0000
0000
0000
0000
0000
;

//---------------dance-single - ----------------
#NOTES:
     dance-single:
     :
     Beginner:
     1:
     0.131,0.161,0.091,0.000,0.000: // measure 1
1000
0000
0001
0000
,  // measure 2
1000
0000
0010
0000
,  // measure 3
0110
0000
0000
0000
,  // measure 4
0100
0000
0001
0000
,  // measure 5
1000
0000
0000
0000
,  // measure 6
0001
0000
0010
0000
,  // measure 7
0001
0000
0000
0000
,  // measure 8
1000
0000
0100
0000
,  // measure 9
0010
0000
0000
0000
,  // measure 10
0100
0000
0010
0000
,  // measure 11
0110
0000
0000
0000
,  // measure 12
0010
0000
0001
0000
,  // measure 13
1000
0000
0001
0000
,  // measure 14
0100
0000
0100
0000
,  // measure 15
0010
0000
0100
0000
,  // measure 16
0001
0000
1000
0000
,  // measure 17
0001
0000
0100
0000
,  // measure 18
0010
0000
0000
0000
,  // measure 19
1001
0000
0000
0000
,  // measure 20
1000
0000
0001
0000
,  // measure 21
1000
0000
0000
0000
,  // measure 22
0001
0000
0100
0000
,  // measure 23
0001
0000
0000
0000
,  // measure 24
1000
0000
0100
0000
,  // measure 25
1000
0000
0000
0000
,  // measure 26
0100
0000
0010
0000
,  // measure 27
0001
0000
1000
0000
,  // measure 28
0001
0000
0000
0000
,  // measure 29
0100
0000
0010
0000
,  // measure 30
0100
0000
0001
0000
,  // measure 31
1001
0000
0000
0000
,  // measure 32
1000
0000
0000
0000
,  // measure 33
0001
0000
0000
0000
,  // measure 34
0100
0000
0000
0000
,  // measure 35
0010
0000
0100
0000
,  // measure 36
0001
0000
1000
0000
,  // measure 37
0100
0000
0010
0000
,  // measure 38
0001
0000
0000
0000
,  // measure 39
1001
0000
0000
0000
,  // measure 40
1000
0000
0000
0000
,  // measure 41
0001
0000
0000
0000
,  // measure 42
0100
0000
0000
0000
,  // measure 43
0110
0000
0000
0000
,  // measure 44
0010
0000
0000
0000
,  // measure 45
1000
0000
0000
0000
,  // measure 46
1001
0000
0000
0000
,  // measure 47
0001
0000
0100
0000
,  // measure 48
0010
0000
1000
0000
,  // measure 49
0100
0000
0010
0000
,  // measure 50
0001
0000
1000
0000
,  // measure 51
0001
0000
0100
0000
,  // measure 52
0010
0000
1000
0000
,  // measure 53
0100
0000
1000
0000
,  // measure 54
0001
0000
0100
0000
,  // measure 55
0110
0000
0000
0000
,  // measure 56
0000
0000
0000
0000
,  // measure 57
1001
0000
0000
0000
,  // measure 58
0000
0000
1000
1000
,  // measure 59
1000
0000
0001
0000
,  // measure 60
1001
0000
0000
0000
;
