#TITLE:Miss Kiss Kiss Bang;
#SUBTITLE:;
#ARTIST:Alex Swings Oscar Sings!;
#TITLETRANSLIT:;
#SUBTITLETRANSLIT:;
#ARTISTTRANSLIT:;
#GENRE:;
#CREDIT:;
#MENUCOLOR:;
#METERTYPE:DDR;
#BANNER:Miss Kiss Kiss Bang.PNG;
#BACKGROUND:Miss Kiss Kiss Bang-bg.PNG;
#LYRICSPATH:;
#CDTITLE:CDTitle.PNG;
#MUSIC:Miss Kiss Kiss Bang.mp3;
#OFFSET:-3.560;
#SAMPLESTART:34.890;
#SAMPLELENGTH:14.120;
#SELECTABLE:YES;
#LISTSORT:;
#BPMS:0.000=136.000;
#STOPS:;
#BGCHANGES:;
#ATTACKS:;

//---------------dance-single - ----------------
#NOTES:
     dance-single:
     :
     Hard:
     7:
     0.469,0.436,0.693,0.322,0.395:
1000
0100
0010
0001
,
0100
0000
0000
0010
0000
0220
0000
0000
0000
0330
0000
0000
,
0010
0000
0000
1000
0000
0000
0100
0000
0000
0010
0000
0001
,
0010
0000
0000
0001
0000
0000
0100
0000
0000
0010
0000
1000
,
0100
0000
0010
0001
0000
0000
0001
0000
0001
0100
0000
0000
,
0010
0000
1000
0000
0000
1010
0000
0000
1000
0001
0000
0000
,
1000
0100
0010
0001
,
0100
0000
0000
0010
0000
2002
0000
0000
0000
3003
0000
0000
,
1000
0101
0001
1100
,
0010
0000
0100
0000
0000
0220
0000
0000
0000
0330
0000
0000
,
1000
0000
0000
0001
0000
0000
0100
0000
0010
0100
0000
0000
,
0010
0000
0000
0100
0000
0000
0001
0000
1000
0001
0000
0000
,
1000
0000
0100
0010
0000
0000
0001
0000
0100
0010
0000
0000
,
1000
0000
0001
0000
0000
0220
0000
0000
0000
0330
0000
0000
,
1000
0000
1000
0100
0000
0100
0010
0000
0010
0001
0000
0001
,
0100
0000
0010
0000
0000
2002
0000
0000
0000
3003
0000
0000
,
1000
0000
0000
0010
0000
0000
0100
0000
0001
0100
0000
0000
,
0001
0000
0000
1000
0000
2002
0000
0000
0000
3003
0000
0000
,
0011
1100
1001
0010
,
0100
0000
0001
0000
0000
0202
0000
0000
0000
0303
0000
0000
,
1010
0000
0000
1100
0000
0000
0110
0000
0010
0001
0000
0001
,
0000
0000
1000
0000
0000
2002
0000
0000
0000
3003
0000
0000
,
0101
1010
0110
0001
,
1000
0000
0100
0000
0000
0220
0000
0000
0000
0330
0000
0000
,
0002
0010
1000
0103
,
1000
0000
0010
0000
0000
0110
0000
0000
0000
1001
0000
2002
,
0000
0000
0000
0000
,
0000
0000
0000
0000
0000
0000
3003
0000
0000
1010
0000
2002
,
0000
0000
0000
0000
0000
0000
3003
0000
0001
0000
0100
0000
,
0220
0000
0000
0000
,
0000
0000
0330
1010
,
0101
0000
0000
0011
0000
0000
1100
0000
0000
0010
0000
0001
,
0010
0000
0001
0000
0000
0101
0000
0000
0010
1000
0000
0000
,
1010
0000
0000
1100
0000
0000
1010
0000
0000
0001
0000
0010
,
0001
0000
0101
0000
0000
1001
0000
0000
0000
0110
0000
0000
,
1010
0101
0011
1100
,
0001
0000
0100
0010
0000
1010
0000
0000
0000
1100
0000
0000
,
0110
0000
0000
0011
0000
0000
1001
0000
0000
0001
0000
0100
,
0010
0000
0110
0000
0000
1001
0000
0000
0010
1000
0000
0000
,
0101
0011
1100
1010
,
0001
0000
0100
0010
0000
1000
0000
0000
0100
0010
0000
0000
,
0011
0000
0000
1100
0000
0000
1010
0000
0000
0001
0000
0100
,
0001
0000
0101
0000
0000
2002
0000
0000
0000
3003
0000
0001
,
0100
0000
0000
0110
0000
0000
1001
0000
0000
1000
0000
1000
,
0100
0000
0100
0010
0000
0000
0011
0000
0001
1000
0000
0002
,
0000
0010
0100
1003
,
0100
0000
0010
0000
0000
1001
0000
0000
0000
0101
0000
0000
,
1000
0000
0001
0100
0000
0000
0101
0000
0000
0001
0000
1000
,
0001
0000
1000
0100
0000
0000
1100
0000
0000
0010
0000
0100
,
1000
0000
0010
0100
0000
0000
0110
0000
0000
0100
0000
0001
,
0010
0000
0100
0010
0000
0000
0110
0000
0010
0001
0000
1001
,
0000
0101
2002
0000
,
3003
0000
1000
0010
0000
1000
0001
1000
0001
0100
0000
0100
,
0020
0000
0000
0000
0000
0000
0000
0000
0000
0000
0000
0030
,
0000
0000
0000
0000
0000
0000
1000
0000
0001
0000
0000
2002
,
0000
0000
0000
0000
0000
0000
0000
0000
0000
0000
3003
0000
;

//---------------dance-single - ----------------
#NOTES:
     dance-single:
     :
     Medium:
     5:
     0.374,0.436,0.517,0.195,0.103:
1000
0100
0010
0001
,
1000
0000
0000
0002
0000
2000
0000
0000
0000
3003
0000
0000
,
1000
0010
1000
0001
,
0010
0100
0010
0000
,
0100
0010
0001
1000
,
0001
0100
0001
0000
,
1000
0010
0100
0001
,
0010
0100
1000
0000
,
0001
0010
0100
0010
,
1000
0000
0001
0000
0000
2002
0000
0000
0000
3003
0000
0001
,
0100
0010
1000
0000
,
0001
0010
0001
0000
,
1000
0100
0010
0001
,
0100
0000
0010
0000
0000
0220
0000
0000
0000
0330
0000
0000
,
1000
0100
0010
0001
,
1000
0001
1000
0000
,
0010
1000
0001
0100
,
0001
0000
0000
2000
0000
0002
0000
0000
0000
3003
0000
0000
,
1001
0110
1001
0010
,
1000
0100
1000
0001
,
1001
0110
1001
1000
,
0100
0010
0001
0100
,
0101
1010
0101
0001
,
0010
0001
1000
0100
,
1100
0011
1100
0001
,
0010
0000
0000
0001
0000
0000
1000
0000
0000
0002
0000
2000
,
0000
0000
0000
0000
,
0000
0000
0000
0000
0000
0000
3003
0000
0000
0011
0000
2200
,
0000
0000
0000
0000
0000
0000
3300
0000
1000
0000
0100
0000
,
0220
0000
0000
0000
,
0000
0000
0000
0330
,
0011
0101
1010
0010
,
0100
0001
1000
0011
,
1100
1010
0101
0100
,
0110
1010
1001
0001
,
0101
0110
1010
1000
,
0010
0100
0001
1001
,
1100
0011
0101
1010
,
0110
0100
0101
0001
,
1001
0110
1001
0011
,
1100
1010
0101
0001
,
1000
0100
0010
0100
,
1000
0010
0100
0001
,
0101
0101
0101
0100
,
0110
0110
0110
0010
,
1000
0100
0010
0001
,
1000
0010
1000
0000
,
0001
0000
0100
0001
0000
0000
0100
0000
0000
0000
0000
0000
,
1000
0000
0100
1000
0000
0000
0100
0000
0000
0000
0000
0000
,
0001
0000
0010
0001
0000
0000
0010
0000
0000
0000
0000
0000
,
1000
0000
0010
1000
0000
0000
0010
0000
0000
0100
0000
0000
,
0001
1001
0220
0000
,
0330
0000
0010
0100
0000
0010
0100
0000
0001
1000
0000
0002
,
2000
0000
0000
0000
0000
0000
0000
0000
0000
0000
0000
3003
,
0000
0000
0000
0000
0000
0000
1000
0000
0001
0000
0000
2002
,
0000
0000
0000
0000
0000
0000
0000
0000
0000
0000
3003
0000
;

//---------------dance-single - ----------------
#NOTES:
     dance-single:
     :
     Easy:
     4:
     0.285,0.327,0.244,0.088,0.005: // measure 1
1000
0010
0100
0001
,  // measure 2
1000
0001
1001
0000
,  // measure 3
0010
1000
0100
0010
,  // measure 4
0001
0100
0001
0000
,  // measure 5
1000
0001
1000
0000
,  // measure 6
0001
1000
0001
0000
,  // measure 7
0100
0001
0010
0100
,  // measure 8
1000
0010
0100
0000
,  // measure 9
0010
0100
0010
0000
,  // measure 10
0100
0010
0100
0000
,  // measure 11
0001
0100
0010
1000
,  // measure 12
0010
0100
0001
0000
,  // measure 13
1000
0100
1000
0000
,  // measure 14
0001
0100
0001
0000
,  // measure 15
1000
0100
0010
0001
,  // measure 16
1000
0001
1000
0000
,  // measure 17
0010
0010
0100
0100
,  // measure 18
0220
0000
0000
0330
,  // measure 19
1001
1001
1001
0001
,  // measure 20
1000
0100
1000
0000
,  // measure 21
0110
0110
0110
0010
,  // measure 22
0100
0001
1000
0000
,  // measure 23
1001
1001
1001
1000
,  // measure 24
0100
0010
0001
0000
,  // measure 25
0110
0100
0010
1000
,  // measure 26
0001
0100
0001
0010
,  // measure 27
0220
0000
0000
0000
,  // measure 28
0000
0000
0000
0000
0000
0000
0000
0000
0000
0030
0000
0300
,  // measure 29
0000
0000
0000
0000
,  // measure 30
2002
0000
0000
0000
,  // measure 31
0000
0000
3003
0000
,  // measure 32
0110
1001
0110
0000
,  // measure 33
0001
0010
0100
1000
,  // measure 34
0001
0001
0001
1000
,  // measure 35
0010
0010
0010
0000
,  // measure 36
0110
1001
0110
0000
,  // measure 37
0100
0010
1000
0100
,  // measure 38
0010
0010
0010
0001
,  // measure 39
0100
0100
0100
0000
,  // measure 40
0110
1001
0110
0000
,  // measure 41
0001
1000
0100
0000
,  // measure 42
0010
0010
0010
0100
,  // measure 43
1000
1000
1000
0010
,  // measure 44
0100
0001
0100
0001
,  // measure 45
1000
0010
1000
0010
,  // measure 46
1000
0100
0010
0001
,  // measure 47
0100
0100
0100
0010
,  // measure 48
1000
0100
1000
0001
,  // measure 49
0100
0001
0100
0001
,  // measure 50
1000
0010
1000
0001
,  // measure 51
0010
0001
0010
0001
,  // measure 52
0100
0010
1000
0001
,  // measure 53
2000
0000
0000
0000
,  // measure 54
3000
0000
0000
0000
,  // measure 55
0000
0000
0000
0000
0000
0000
1001
0000
0000
0000
0000
2002
,  // measure 56
0000
0000
0000
0000
0000
0000
0000
0000
0000
0000
3003
0000
;

//---------------dance-single - ----------------
#NOTES:
     dance-single:
     :
     Beginner:
     1:
     0.148,0.242,0.137,0.000,0.000:
1000
0000
0001
0000
,
0100
0000
0010
0000
,
0110
0000
0000
0000
,
1001
0000
0000
0000
,
1000
0000
0100
0000
,
1000
0000
0001
0000
,
0100
0000
0000
0000
,
0010
0000
0000
0000
,
1000
0000
0001
0000
,
1000
0000
0100
0000
,
0110
0000
0000
0000
,
1001
0000
0000
0000
,
0001
0000
0100
0000
,
0001
0000
1000
0000
,
0100
0000
0000
0000
,
0010
0000
0000
0000
,
0010
0000
0001
0000
,
1000
0000
0000
0000
,
1001
0000
0001
0000
,
1000
0000
0010
0000
,
0100
0000
0010
0000
,
1000
0000
0100
0000
,
0010
0000
0001
0000
,
1000
0000
0001
0000
,
0100
0000
0010
0000
,
1000
0000
0100
0000
,
0110
0000
0000
0000
,
0000
0000
0000
0000
,
0000
0000
0000
0000
,
1001
0000
0000
0000
,
0000
0000
0000
0000
,
0110
0000
0100
0000
,
0001
0000
1000
0000
,
0100
0000
0010
0000
,
0100
0000
1000
0000
,
0010
0000
0100
0000
,
0001
0000
0010
0000
,
0100
0000
0010
0000
,
0001
0000
0010
0000
,
0110
0000
0100
0000
,
0010
0000
0001
0000
,
1000
0000
0010
0000
,
1000
0000
0001
0000
,
0100
0000
0001
0000
,
0010
0000
0100
0000
,
0010
0000
0001
0000
,
1000
0000
0001
0000
,
1000
0000
1000
0000
,
0001
0001
0001
0000
,
0100
0000
0100
0000
,
0010
0010
0010
0000
,
0110
0000
0110
0000
,
1001
0000
0000
0000
,
0000
0000
0000
0000
,
0000
0000
0110
0000
,
0110
0000
0000
0000
;
