#TITLE:Lighter Than Air;
#SUBTITLE:(DDR Anthem);
#ARTIST:Darwin & Ant Johnston;
#TITLETRANSLIT:;
#SUBTITLETRANSLIT:;
#ARTISTTRANSLIT:;
#GENRE:;
#CREDIT:;
#MENUCOLOR:;
#METERTYPE:DDR;
#BANNER:Lighter Than Air (DDR Anthem).png;
#BACKGROUND:Lighter Than Air (DDR Anthem)-bg.png;
#LYRICSPATH:;
#CDTITLE:CDTitle.PNG;
#MUSIC:Lighter Than Air (DDR Anthem).mp3;
#OFFSET:-11.350;
#SAMPLESTART:54.850;
#SAMPLELENGTH:10.970;
#SELECTABLE:YES;
#LISTSORT:;
#BPMS:0.000=87.500,32.000=175.000;
#STOPS:;
#BGCHANGES:;
#ATTACKS:;

//---------------dance-single - ----------------
#NOTES:
     dance-single:
     :
     Hard:
     8:
     0.429,0.519,0.180,0.129,0.064: // measure 1
1000
0000
0100
0000
0010
0001
0000
0001
0000
0000
0100
0000
0010
0000
1000
0000
,  // measure 2
0100
0000
0000
0000
0010
0001
0000
1000
0000
0000
0010
0000
1000
0000
0001
0000
,  // measure 3
0010
0000
0000
0000
0100
0010
0000
0010
0000
0000
0100
0000
0010
0000
0001
1000
,  // measure 4
0000
1000
0001
1000
0010
0100
0001
1000
,  // measure 5
1001
0000
0000
0000
0001
0100
0000
0001
0000
0000
1000
0000
0100
0000
0010
0000
,  // measure 6
0100
0000
0000
0000
0010
0001
0000
1000
0000
0000
0010
0000
0100
0000
0001
0000
,  // measure 7
1000
0000
0000
0000
0001
0100
0000
0100
0001
0000
1000
0000
0100
0010
0100
0010
,  // measure 8
0100
0010
0001
0100
0110
0000
1001
0000
,  // measure 9
1000
0100
1000
0100
1000
0000
0010
0002
,  // measure 10
0000
0000
0000
0003
,  // measure 11
1000
0000
0000
0001
0000
0110
0000
2002
,  // measure 12
0000
0000
0000
3003
,  // measure 13
1000
0001
1000
0001
0100
0000
0010
0200
,  // measure 14
0000
0000
0000
0300
,  // measure 15
0001
0000
1000
0000
0100
0000
0010
0200
,  // measure 16
0000
0000
0000
0300
,  // measure 17
0010
0000
0001
1000
0000
0001
1000
0001
,  // measure 18
0100
0000
0010
1000
0000
0100
1000
0100
,  // measure 19
0010
0000
0100
0010
0000
0011
0000
0101
,  // measure 20
0000
1010
0000
1001
0000
1000
0100
0000
,  // measure 21
0010
0001
0010
0001
1000
0010
1000
0010
,  // measure 22
1000
0100
0010
0001
1000
0010
0100
0001
,  // measure 23
1000
0001
0100
0010
1000
0100
1000
0002
,  // measure 24
2000
0000
0000
3003
,  // measure 25
0110
0000
1001
0000
0001
0100
0010
0000
,  // measure 26
1000
0100
0010
0001
,  // measure 27
1000
0000
0010
0000
1000
0001
1000
0000
,  // measure 28
0001
0000
0100
0000
0010
1000
0010
0000
,  // measure 29
1000
0000
0100
0000
0010
0001
0010
0001
,  // measure 30
0100
0000
0010
1000
0000
1000
0001
0100
,  // measure 31
0001
0000
1000
0000
0100
0010
0100
0000
,  // measure 32
0010
0001
0100
0000
0010
1000
0100
0000
,  // measure 33
0110
0000
1001
0000
0010
0001
0100
0000
,  // measure 34
0010
0000
1000
0000
0001
0100
0001
1000
,  // measure 35
0001
0000
1000
0000
0100
0010
0100
0010
,  // measure 36
0000
0010
0001
0000
0001
0100
0001
1000
,  // measure 37
0001
0000
1000
0000
0010
0100
0001
0000
,  // measure 38
1000
0000
0100
0000
0010
0100
1000
0100
,  // measure 39
0010
0000
0100
0000
1000
0001
0100
0000
,  // measure 40
0110
0000
0000
0000
,  // measure 41
0010
1000
0100
0000
0010
0000
0001
0000
,  // measure 42
1000
0010
0100
0101
,  // measure 43
0001
0000
1000
0100
0000
0011
0000
0101
,  // measure 44
0000
0010
1000
0000
0001
0100
0001
0000
,  // measure 45
1000
0010
0100
0001
0010
0001
0100
0010
,  // measure 46
0000
0010
1000
0000
0001
0010
0001
0100
,  // measure 47
0001
0000
1000
0001
1000
0000
0110
0000
,  // measure 48
1001
0000
0001
0100
0001
0010
0100
0000
,  // measure 49
0100
0010
0100
1000
0001
0000
1000
0010
,  // measure 50
1000
0000
0001
0000
1000
0001
1000
0000
,  // measure 51
0100
0000
0010
0100
0010
0001
1000
0001
,  // measure 52
0000
0100
0001
0000
1000
0010
1000
0000
,  // measure 53
0001
0100
0010
1000
0100
0000
0010
0001
,  // measure 54
0000
0001
0100
0000
0010
1000
0010
0000
,  // measure 55
1000
0000
0100
0000
0010
0000
0100
0010
,  // measure 56
0000
0010
0100
1000
0010
0000
0110
0000
,  // measure 57
2000
0000
0000
0010
0000
0000
0001
0000
,  // measure 58
0200
0000
0000
0300
,  // measure 59
0002
0000
0000
3000
,  // measure 60
0203
0000
0000
0301
,  // measure 61
1002
0000
0000
0010
0000
0000
1000
2000
,  // measure 62
0000
0000
0000
3000
,  // measure 63
0200
0000
0000
0003
,  // measure 64
0020
0000
0000
0330
;

//---------------dance-single - ----------------
#NOTES:
     dance-single:
     :
     Medium:
     6:
     0.383,0.410,0.137,0.120,0.000:
1001
0000
0010
1000
0100
0000
0010
0000
,
0001
0000
1000
0100
1000
0001
0100
0000
,
0001
0000
0100
0010
0100
0000
0010
1000
,
0002
0010
1000
0103
,
0110
0000
0010
1000
0100
0000
0010
0000
,
0001
0000
1000
0001
0100
0000
0001
0000
,
1000
0000
0100
0010
0001
0010
0001
1000
,
0010
0000
1000
0000
0001
0100
0001
0000
,
1001
0000
1000
0001
1000
0000
0010
0000
,
0100
0001
1000
0100
,
0010
0000
0001
0000
1000
0000
0100
2000
,
0000
0000
0000
3000
,
0001
0100
0001
0000
1000
0000
0010
1000
,
0010
0100
0001
0010
,
0001
0000
1000
0000
0100
0000
0010
0002
,
0000
0000
0000
0003
,
1000
0000
0010
0000
0100
0000
0001
1000
,
0000
0001
0000
1000
0000
0100
0010
0000
,
0001
0000
1000
0000
0100
0000
0010
0100
,
0000
0010
0000
0001
0000
1000
0001
0000
,
1000
0010
1000
0000
0001
0100
0001
0000
,
1000
0100
1000
0000
0001
0010
0001
0000
,
1000
0001
1000
0001
0100
0010
0100
0010
,
2000
0000
0000
3000
,
1001
0000
0001
0000
0100
0000
0010
1000
,
0001
0000
1000
0000
0100
0010
0001
0000
,
0001
0000
1000
0000
0001
0000
0010
0001
,
0000
0001
0100
0000
0010
1000
0010
0000
,
1000
0000
0100
0000
0010
0001
0010
0000
,
0001
0000
0100
0000
0010
1000
0010
0000
,
1000
0001
1000
0000
0001
0100
0001
0000
,
1010
0000
0101
0000
1000
0100
1000
0100
,
0010
0000
0100
0000
1000
0000
0010
1000
,
0010
1000
0001
0010
,
0100
0000
0010
0000
0001
0000
1000
0001
,
0000
0001
0100
0000
0010
1000
0010
0000
,
1000
0000
0100
0000
0010
0100
1000
0000
,
0010
0000
0100
0000
0001
0100
0010
0000
,
1000
0010
1000
0000
0001
0100
0001
0000
,
2002
0000
0000
3003
,
1000
0001
1000
0000
0010
0000
0100
0010
,
0100
0010
1000
0100
,
0010
0000
0001
0000
1000
0000
0001
0100
,
0000
0100
0001
0000
1000
0010
1000
0000
,
0001
0100
0001
0100
0001
0000
1000
0000
,
0100
0010
0100
0010
,
0001
0000
1000
0000
0100
0000
0010
0001
,
0000
0001
1000
0000
0001
0100
0001
0000
,
1000
0100
0010
0100
1000
0000
0010
0000
,
0100
0001
1001
1000
,
1100
0011
0101
1010
,
0010
1000
0010
0000
1000
0001
1000
0000
,
0001
0010
0100
0010
0001
0000
0100
0000
,
0001
0000
1000
0000
0010
0100
0001
0000
,
1001
0000
0011
0000
1100
0000
0001
0010
,
0000
0001
0100
0000
0010
1000
0010
0000
,
2000
0000
0000
0010
0000
0000
0001
0000
,
0200
0000
0000
3000
,
0020
0000
0000
0300
,
0032
0000
0000
1003
,
2001
0000
0000
0010
0000
0000
0001
0002
,
0000
0000
0000
0003
,
3020
0000
0000
0000
,
2000
0000
0000
3030
;

//---------------dance-single - ----------------
#NOTES:
     dance-single:
     :
     Easy:
     4:
     0.266,0.301,0.120,0.129,0.000:
1001
0001
1000
0000
,
0110
0010
0100
0001
,
0100
0001
1000
0001
,
2002
0000
0000
3003
,
0110
0010
1000
1000
,
0100
0010
0010
0100
,
0010
0001
1000
0001
,
0001
0100
2002
3003
,
1000
0100
0010
0001
,
0100
0000
0010
1000
,
0001
0100
0001
1000
,
0100
0000
0010
0001
,
0100
0010
1000
0001
,
1000
0000
0001
0100
,
0010
1000
0100
1000
,
0100
0000
0110
0000
,
1001
0001
0100
0010
,
1000
0100
1000
0000
,
0001
0010
0100
1000
,
0010
1000
0001
0100
,
0010
1000
0001
1000
,
0100
0010
0100
0010
,
0100
1000
0001
0100
,
0220
0000
0000
0330
,
1001
0001
0100
0001
,
0010
0000
0100
1000
,
0001
0010
0001
1000
,
0001
0000
0100
0001
,
1000
0100
1000
0000
,
0001
0010
0001
0000
,
0100
0010
0100
0000
,
0010
0001
1000
0001
,
1001
0000
0010
1000
,
0100
0000
0010
0001
,
0100
0010
1000
0010
,
1000
0000
0001
0100
,
0001
0000
1000
0100
,
1000
0100
0010
0100
,
1000
0000
0010
0001
,
0010
0000
0000
0000
,
0010
0100
1000
0100
,
0010
0000
0001
0000
,
0100
0010
0001
0010
,
0100
0000
0001
0000
,
1000
0001
0100
0001
,
1000
0000
0010
0000
,
0001
1000
0010
1000
,
0001
0000
0100
0001
,
1000
0100
0010
0001
,
0010
0000
0001
0100
,
0010
1000
0010
0100
,
0001
0000
1000
0001
,
1000
0001
0100
0010
,
0100
0000
0010
1000
,
0001
0010
0100
0010
,
0002
0000
0003
0000
,
2002
0000
0000
0000
,
0000
0000
0000
3003
,
0220
0000
0000
0000
,
0000
0000
0000
0330
,
2002
0000
0000
0000
,
0000
0000
0000
3003
,
0220
0000
0000
0000
,
0000
0000
0000
0330
;

//---------------dance-single - ----------------
#NOTES:
     dance-single:
     :
     Beginner:
     1:
     0.134,0.162,0.077,0.000,0.000:
1001
0000
0001
0000
,
0100
0000
0010
0000
,
1000
0000
0100
0100
,
0100
0000
0000
0000
,
0110
0000
0010
0000
,
0001
0000
1000
0000
,
0001
0000
0100
0100
,
0100
0000
0000
0000
,
1001
0000
0000
0000
,
0001
0000
0000
0000
,
0100
0000
0010
0000
,
1000
0000
0000
0000
,
0110
0000
0000
0000
,
0100
0000
0000
0000
,
0010
0000
1000
0000
,
0001
0000
0000
0000
,
1000
0000
0100
0000
,
0010
0000
0001
0000
,
0100
0000
0010
0000
,
1000
0000
0000
0000
,
0001
0000
0010
0000
,
0100
0000
1000
0000
,
0001
0000
1000
0000
,
0001
0000
0000
0000
,
0110
0000
0010
0000
,
1000
0000
0000
0000
,
0001
0000
0100
0000
,
0001
0000
0000
0000
,
1000
0000
0100
0000
,
0010
0000
0100
0000
,
0010
0000
0000
0000
,
0001
0000
0000
0000
,
1001
0000
0001
0000
,
0100
0000
0000
0000
,
0010
0000
1000
0000
,
0001
0000
0000
0000
,
1000
0000
0100
0000
,
0010
0000
0001
0000
,
0100
0000
0000
0000
,
0110
0000
0000
0000
,
0001
0000
0001
0000
,
0001
0000
0000
0000
,
1000
0000
0100
0000
,
1000
0000
0000
0000
,
0100
0000
0100
0000
,
0100
0000
0000
0000
,
0010
0000
0100
0000
,
0010
0000
0000
0000
,
0001
0000
0001
0000
,
1000
0000
1000
0000
,
0010
0000
0010
0000
,
0100
0000
0100
0000
,
0001
0000
0001
0000
,
0001
0000
1000
0000
,
0100
0000
0100
0000
,
0100
0000
0010
0000
,
0110
0000
0000
0000
,
0010
0000
0000
0000
,
0100
0000
0000
0000
,
0010
0000
0000
0000
,
1001
0000
0000
0000
,
0001
0000
0000
0000
,
1000
0000
0000
0000
,
0001
0000
0000
0000
;
