#TITLE:Last Burning;
#SUBTITLE:;
#ARTIST:Dirty Androids;
#TITLETRANSLIT:;
#SUBTITLETRANSLIT:;
#ARTISTTRANSLIT:;
#GENRE:;
#CREDIT:;
#MENUCOLOR:;
#METERTYPE:DDR;
#BANNER:;
#BACKGROUND:;
#LYRICSPATH:;
#CDTITLE:;
#MUSIC:Last Burning.mp3;
#OFFSET:-7.420;
#SAMPLESTART:22.150;
#SAMPLELENGTH:14.770;
#SELECTABLE:YES;
#LISTSORT:;
#BPMS:0.000=130.000;
#STOPS:;
#BGCHANGES:;
#ATTACKS:;

//---------------dance-single - ----------------
#NOTES:
     dance-single:
     :
     Hard:
     8:
     0.534,0.521,0.114,0.218,0.337:
1000
0000
0010
0000
1000
0000
0100
0020
0000
0000
0000
0000
0030
0000
0000
0000
,
0100
0000
0010
0000
0100
0000
0010
0002
0000
0000
0000
0000
0003
0000
0000
0000
,
1000
0000
0001
0000
0100
0000
0010
2000
0000
0000
0000
0000
3000
0000
0000
0000
,
0001
0000
0100
0000
0001
0000
1000
0100
0000
0000
1000
0000
0001
0100
0000
0000
,
0010
0000
0100
0000
0001
0000
1000
0200
0000
0000
1000
0000
1300
0000
0000
0000
,
1000
0000
0100
0000
0010
0000
0001
0020
0000
0000
0100
0000
0130
0000
0000
0000
,
0010
0000
0100
0000
1000
0000
0100
0020
0000
0000
0001
0000
0031
0000
0000
0000
,
1000
0000
0010
0000
1000
0000
0001
0100
0000
0202
0000
0000
0303
0000
0000
0000
,
1000
0001
0100
0001
1000
0010
0100
0000
,
0100
0001
0010
0100
1000
0010
0100
0000
,
0010
0000
0000
1000
0000
0000
0001
0000
0010
0000
0001
0000
1000
0000
0000
0000
,
0100
0000
0000
0010
0000
0000
0100
0000
1000
0000
0010
0000
0200
0000
0300
0000
,
0110
0100
0001
0010
0100
1000
0001
0000
,
0011
0001
0100
0010
0001
0010
1000
0000
,
1010
1000
0100
0000
0011
0001
0100
0000
,
1000
0100
1000
0001
0010
0001
0100
0010
0100
0010
0000
0000
,
2010
0000
3002
0000
,
0023
0000
0230
0000
,
2300
0010
0001
0100
,
3020
0100
1000
0130
,
2001
0000
0000
0000
0100
0000
0000
0100
0000
0000
0200
0000
3300
0000
0000
0000
,
0002
0000
0000
0000
1000
0000
0000
1000
0000
0000
2000
0000
3003
0000
0000
0000
,
1000
0000
0010
0000
0000
0100
0000
0000
0001
0000
1000
0000
0000
0100
1000
0100
,
1000
0100
0010
0001
1000
0001
1001
0000
,
0010
0000
0100
0000
0001
0000
1000
0010
0000
0000
0100
0001
0000
0000
1000
0000
,
0001
0000
0010
0000
0100
0000
1000
0100
0000
0000
0010
0001
0000
0000
1000
0000
,
0010
0000
0100
0000
0001
0000
1000
0001
0000
0000
0001
1000
0000
0000
0010
0000
,
0100
0000
0001
0000
0010
0000
0100
1000
0000
0000
0010
0100
0000
0100
0010
0000
,
1000
0000
0100
0000
0010
0000
0000
0100
0010
0000
0001
0000
0100
0000
0000
0000
,
0010
0000
1000
0000
0001
0000
0000
1000
0001
0000
0010
0000
0100
0000
0000
0000
,
0010
0000
0001
0000
1000
0000
0000
1000
0001
0000
0010
0000
0001
0000
0100
0000
,
0010
0000
1000
0000
0100
0000
0000
0010
0001
0000
0100
0000
0010
0000
0000
0000
,
1001
0000
1000
0000
0010
0000
0000
0100
0000
0000
0001
0000
0010
0000
0001
1000
,
0000
0000
0100
0000
0010
0000
0000
0100
0000
0000
0010
0000
0001
0000
0100
0000
,
0010
0000
1000
0000
0001
0000
0001
0100
0000
0000
0010
0000
1000
0000
0001
0010
,
0000
0000
0100
0000
1000
0000
1000
0001
0000
0000
1000
0000
0100
0000
0010
0000
,
0001
0000
1000
0000
0010
0000
0100
0001
0000
0000
0001
0000
1000
0000
0000
1001
,
0000
0000
1000
0000
0100
0000
0010
0001
0000
0000
0001
0000
1000
0000
0001
0000
,
1000
0001
1000
0000
0001
0000
1000
0001
0000
0001
1000
0000
0010
0100
0010
0100
,
0000
0001
0100
0001
0000
0100
0000
0001
0000
0000
1000
0000
0100
0000
0010
0000
,
0001
0000
1000
0000
0010
0000
1000
0010
0000
0000
1000
0000
0001
0000
0000
0000
,
0010
0000
0001
0000
1000
0000
0100
0010
0000
0000
0100
0000
0010
0000
0001
0000
,
1000
0000
0010
0000
1000
0000
0001
0100
0000
0000
0001
0000
1000
0000
0000
0000
,
0010
0000
0100
0000
0001
0000
1000
0100
0000
0000
0010
0000
0001
0000
0000
0000
,
1000
0000
0100
0000
0010
0000
0100
1000
0000
1000
0010
0000
0100
0000
0000
0000
,
0010
0000
0100
0000
0001
0000
0010
1000
0000
1000
0010
0000
0001
0000
0000
0000
,
0202
0000
0303
0000
0100
0000
0001
1000
0000
1000
0010
0000
0100
0000
0000
0000
,
0001
0000
0010
0000
1000
0000
0010
0001
0010
0000
0001
0000
1000
0000
1000
0000
;

//---------------dance-single - ----------------
#NOTES:
     dance-single:
     :
     Medium:
     6:
     0.394,0.397,0.155,0.218,0.052: // measure 1
1000
0100
0010
0100
2000
0000
3000
0000
,  // measure 2
0001
0100
0010
0100
0002
0000
0003
0000
,  // measure 3
1000
0100
0010
0001
0200
0000
0300
0000
,  // measure 4
0001
0100
0010
1000
0200
0000
0300
0000
,  // measure 5
1000
0000
0001
0000
1000
0000
0000
0001
0000
0000
1000
0000
0001
0000
0000
0000
,  // measure 6
0100
0000
0010
0000
0100
0000
0000
0010
0000
0000
0100
0000
0010
0000
0000
0000
,  // measure 7
1000
0000
0100
0000
1000
0000
0000
0100
0000
0000
1000
0000
0100
0000
0000
0000
,  // measure 8
0010
0001
0010
0002
2000
0000
3003
0000
,  // measure 9
1000
0010
1000
0000
0001
0100
0001
0000
,  // measure 10
1000
0100
0010
0001
0100
0000
0010
0000
,  // measure 11
0100
0010
0100
0000
0010
1000
0010
0000
,  // measure 12
1000
0010
1000
0001
0100
0000
0001
0000
,  // measure 13
1001
0000
1000
0000
0001
0010
0001
0000
,  // measure 14
1001
0000
0100
0000
0010
1000
0100
0000
,  // measure 15
1100
0010
0110
1000
,  // measure 16
1001
1010
0101
0110
,  // measure 17
2002
0000
3000
0000
,  // measure 18
0200
0000
0003
0000
,  // measure 19
0020
0000
0300
0000
,  // measure 20
2000
0000
0030
0000
,  // measure 21
0002
3000
0020
0003
,  // measure 22
0200
0030
2000
3300
,  // measure 23
1000
0010
0100
0001
,  // measure 24
1000
0200
0020
0330
,  // measure 25
0110
0000
0100
0000
1000
0100
1000
0000
,  // measure 26
0001
0100
0001
0000
1000
0010
0100
0000
,  // measure 27
0001
0000
0010
0000
0001
0010
0001
0000
,  // measure 28
1000
0100
1000
0000
0010
0010
0010
0000
,  // measure 29
1000
0010
0100
0000
0001
0010
0100
0000
,  // measure 30
0010
0000
0001
0000
1000
0010
0100
0000
,  // measure 31
0001
0100
0001
0000
1000
0100
1000
0000
,  // measure 32
0001
0010
0001
0100
0010
0000
0110
0000
,  // measure 33
0010
0000
0000
0000
1000
0000
0000
0001
0000
0000
1000
0000
0100
0000
0000
0000
,  // measure 34
0010
0000
0000
0000
0001
0000
0000
0010
0000
0000
0001
0000
0100
0000
0000
0000
,  // measure 35
0010
0000
0000
0000
1000
0000
0000
0010
0000
0000
0100
0000
0001
0000
0000
0000
,  // measure 36
1000
0000
0000
0000
0001
0000
0000
0010
0000
0000
0100
0000
1000
0000
0000
0000
,  // measure 37
0010
0000
0000
0000
0100
0000
0000
0010
0000
0000
0100
0000
0001
0000
0000
0000
,  // measure 38
1000
0000
0000
0000
0100
0000
0000
0010
0000
0000
0100
0000
1000
0000
0000
0000
,  // measure 39
0100
0000
0000
0000
0010
0000
0000
0001
0000
0000
0010
0000
0001
0000
0000
0000
,  // measure 40
1000
0001
0100
0010
0200
0000
0300
0000
,  // measure 41
0010
0100
0001
0100
0001
0000
1000
0000
,  // measure 42
0100
0010
0100
0010
0001
0000
0010
0000
,  // measure 43
0001
1000
0001
1000
0010
0000
0100
0000
,  // measure 44
0001
0100
0010
1000
0010
0000
0101
0000
,  // measure 45
1001
0000
1000
0100
1000
0000
0001
0000
,  // measure 46
0101
0000
0100
0010
0100
0000
0010
0000
,  // measure 47
2020
0000
3030
0000
0001
0100
0001
0000
,  // measure 48
1000
0100
0010
0001
0200
0000
0010
0310
;

//---------------dance-single - ----------------
#NOTES:
     dance-single:
     :
     Easy:
     4:
     0.262,0.346,0.135,0.135,0.000: // measure 1
1000
0001
1000
0000
,  // measure 2
0001
0100
0001
0000
,  // measure 3
1000
0010
1000
0000
,  // measure 4
0010
0100
0010
0000
,  // measure 5
1000
0001
0100
0000
,  // measure 6
0001
1000
0100
0000
,  // measure 7
0010
0100
1000
0000
,  // measure 8
0100
0010
0001
1000
,  // measure 9
1001
0001
0100
0000
,  // measure 10
0001
1000
0100
0010
,  // measure 11
0100
1000
0010
0000
,  // measure 12
1000
0010
1000
0010
,  // measure 13
0110
0100
0010
0000
,  // measure 14
1001
1000
0001
0000
,  // measure 15
0110
0000
1001
0000
,  // measure 16
1010
0101
2002
3003
,  // measure 17
0220
0000
0000
0030
,  // measure 18
0002
0000
0000
0300
,  // measure 19
2000
0000
0000
0003
,  // measure 20
0200
0000
0000
3300
,  // measure 21
0010
0000
0001
0000
,  // measure 22
0100
0000
0010
0000
,  // measure 23
1000
0010
1000
0010
,  // measure 24
0100
0002
2000
3003
,  // measure 25
1010
1000
0001
0100
,  // measure 26
0001
0010
0001
0000
,  // measure 27
1000
0100
0010
0100
,  // measure 28
1000
0010
1000
0000
,  // measure 29
0001
0100
0010
0100
,  // measure 30
0010
1000
0100
0000
,  // measure 31
0010
0001
0100
0001
,  // measure 32
1000
0010
0100
0001
,  // measure 33
1001
1000
0100
0000
,  // measure 34
0010
0001
0010
0001
,  // measure 35
0100
0010
0100
0000
,  // measure 36
0010
1000
0100
1000
,  // measure 37
0010
0100
0001
0000
,  // measure 38
0010
0001
0010
0001
,  // measure 39
1000
0010
0100
0000
,  // measure 40
0001
0100
0001
0000
,  // measure 41
1000
1000
0001
0001
,  // measure 42
0100
0010
0100
0010
,  // measure 43
0100
0100
0010
0010
,  // measure 44
1000
0001
1000
0001
,  // measure 45
1000
0100
0010
0001
,  // measure 46
1000
0010
0100
0001
,  // measure 47
0202
0303
0001
0100
,  // measure 48
0010
1000
2002
3003
;

//---------------dance-single - ----------------
#NOTES:
     dance-single:
     :
     Beginner:
     1:
     0.121,0.148,0.083,0.000,0.000: // measure 1
1000
0000
0001
0000
,  // measure 2
0100
0000
0010
0000
,  // measure 3
0100
0000
0100
0000
,  // measure 4
0010
0000
0010
0000
,  // measure 5
1000
0000
0010
0000
,  // measure 6
0100
0000
0001
0000
,  // measure 7
1000
0000
0100
0000
,  // measure 8
0010
0000
0000
0000
,  // measure 9
0010
0000
0100
0000
,  // measure 10
0010
0000
0001
0000
,  // measure 11
1000
0000
0001
0000
,  // measure 12
0100
0000
0000
0000
,  // measure 13
0110
0000
0000
0000
,  // measure 14
1001
0000
0000
0000
,  // measure 15
0110
0000
0000
0000
,  // measure 16
1001
0000
0000
0000
,  // measure 17
1001
0000
0000
0000
,  // measure 18
0000
0000
0000
0000
,  // measure 19
0010
0000
0000
0000
,  // measure 20
0000
0000
0000
0000
,  // measure 21
0100
0000
0000
0000
,  // measure 22
0001
0000
0000
0000
,  // measure 23
1000
0000
0000
0000
,  // measure 24
0100
0000
0010
0000
,  // measure 25
0110
0000
0010
0000
,  // measure 26
0001
0000
0000
0000
,  // measure 27
1000
0000
0010
0000
,  // measure 28
1000
0000
0000
0000
,  // measure 29
0001
0000
1000
0000
,  // measure 30
0001
0000
0000
0000
,  // measure 31
1000
0000
0100
0000
,  // measure 32
0010
0000
0001
0000
,  // measure 33
1001
0000
0000
0000
,  // measure 34
0001
0000
1000
0000
,  // measure 35
0001
0000
0000
0000
,  // measure 36
1000
0000
0010
0000
,  // measure 37
1000
0000
0000
0000
,  // measure 38
0001
0000
0100
0000
,  // measure 39
0001
0000
0000
0000
,  // measure 40
1000
0000
0001
0000
,  // measure 41
0100
0000
0010
0000
,  // measure 42
0100
0000
0001
0000
,  // measure 43
1000
0000
0100
0000
,  // measure 44
0010
0000
0001
0000
,  // measure 45
1000
0000
0010
0000
,  // measure 46
0100
0000
0010
0000
,  // measure 47
0100
0000
0100
0000
,  // measure 48
0010
0000
0110
0000
;
