#TITLE:LOSE CONTROL;
#SUBTITLE:;
#ARTIST:WALDO'S PEOPLE;
#TITLETRANSLIT:;
#SUBTITLETRANSLIT:;
#ARTISTTRANSLIT:;
#GENRE:;
#CREDIT:;
#MENUCOLOR:;
#METERTYPE:DDR;
#BANNER:LOSE CONTROL.png;
#BACKGROUND:LOSE CONTROL-bg.PNG;
#LYRICSPATH:;
#CDTITLE:CDTitle.PNG;
#MUSIC:Lose Control.mp3;
#OFFSET:-1.770;
#SAMPLESTART:34.800;
#SAMPLELENGTH:13.910;
#SELECTABLE:YES;
#LISTSORT:;
#BPMS:0.000=138.000;
#STOPS:192.000=2.609
;
#BGCHANGES:;
#ATTACKS:;

//---------------dance-single - ----------------
#NOTES:
     dance-single:
     :
     Hard:
     7:
     0.484,0.449,0.279,0.110,0.055: // measure 1
2000
0000
0000
0000
,  // measure 2
3020
0000
0000
0000
,  // measure 3
0230
0000
0000
0000
,  // measure 4
0302
0000
0000
0000
,  // measure 5
1003
1100
1000
1001
,  // measure 6
0001
0000
0101
0000
0001
0010
0100
0010
,  // measure 7
0010
0100
0110
0000
0010
0000
0011
0000
,  // measure 8
0010
0000
1010
0000
0010
0001
0100
0100
,  // measure 9
0010
1000
1010
0000
0001
0000
0101
0000
,  // measure 10
1000
0000
1001
0000
0010
0001
0100
0100
,  // measure 11
0010
1000
0100
0000
1000
0000
0011
0000
,  // measure 12
0001
0100
0010
0000
1000
0001
0101
0000
,  // measure 13
0001
0100
0010
1000
0010
0100
0001
0000
,  // measure 14
1000
0000
0100
0000
0010
0001
0010
0000
,  // measure 15
0001
0010
0100
1000
0100
0010
0001
0000
,  // measure 16
0100
0000
0010
0000
1000
0001
1000
0000
,  // measure 17
0010
1000
0100
0001
0100
1000
0010
0000
,  // measure 18
0100
0000
0001
0000
1000
0100
1000
1000
,  // measure 19
0001
0010
0001
0010
0100
1000
0100
1000
,  // measure 20
1100
2002
0000
3003
,  // measure 21
1000
0000
0000
1000
0100
0000
0010
0000
0000
0000
0001
0000
0100
0000
0010
0000
,  // measure 22
0000
0110
0000
0100
0001
1000
0100
0000
,  // measure 23
1000
0000
0001
0010
0000
0001
0100
0010
,  // measure 24
0000
1001
0000
0010
0001
0100
0010
1000
,  // measure 25
0100
0000
0000
0010
0100
0000
0010
0000
0000
0000
0001
0000
1000
0000
0001
0000
,  // measure 26
0100
0000
0001
1000
0000
0110
0000
1001
,  // measure 27
0000
0010
0001
0100
0000
0010
1000
0100
,  // measure 28
1000
0001
0010
0100
1000
0010
1000
0000
,  // measure 29
0100
0001
0100
0000
0000
0000
0001
0000
1000
0000
0000
0000
1001
0000
0000
0000
,  // measure 30
1000
0000
0000
0010
0000
0000
0100
0000
0000
0000
0001
0000
0100
0000
0000
0000
,  // measure 31
0010
0100
0010
0000
0000
0000
1000
0000
0100
0000
1000
0000
0001
0000
0010
0000
,  // measure 32
0002
0000
0000
0000
,  // measure 33
1003
0100
0010
0001
0000
1000
0001
1000
,  // measure 34
0000
0010
0100
0000
0010
0100
0001
0100
,  // measure 35
0010
1000
0100
1000
1000
0001
0010
0001
,  // measure 36
0000
0100
0010
0000
1010
0000
0101
0000
,  // measure 37
1001
0000
0010
0001
0100
0010
1000
1000
,  // measure 38
0100
1000
0000
1100
0000
0010
0001
0100
,  // measure 39
0010
0010
1000
0001
0010
0001
0100
0010
,  // measure 40
1000
0100
0010
0000
2002
0000
3003
0000
,  // measure 41
0010
0001
0100
0100
0010
1000
0100
0000
,  // measure 42
1000
0010
0100
0001
0010
0001
1000
0000
,  // measure 43
0010
1000
0010
0000
0100
0001
0100
0000
,  // measure 44
1000
0100
0010
0100
1000
0010
0100
0000
,  // measure 45
0010
0100
0001
0001
0010
0100
1000
0000
,  // measure 46
1000
0001
0010
0100
1000
0010
0100
0001
,  // measure 47
0010
0001
0100
0000
0010
1000
0100
0000
,  // measure 48
0110
2002
0000
3003
,  // measure 49
2002
0000
0000
0000
3003
0000
0000
0000
1001
0000
0000
0001
1000
0000
0100
0000
,  // measure 50
0000
1000
0100
0010
0000
0010
0100
1000
,  // measure 51
0010
0000
0100
0000
0001
0000
0010
0000
0001
0000
0000
0100
0000
0000
0010
0000
,  // measure 52
0000
0000
1000
0000
0100
0000
0010
0000
0100
0000
0000
0010
0000
0000
0001
0000
,  // measure 53
0000
1000
0001
0100
0000
0010
1000
0100
,  // measure 54
1000
0001
0010
0001
1000
0000
0101
0000
,  // measure 55
0110
0000
0000
0000
1001
0000
0000
0000
0101
0000
0000
0001
0100
0000
0010
0000
,  // measure 56
0100
0000
0001
0000
0100
0000
0000
0000
0010
0000
0000
1000
0010
0000
0100
0000
,  // measure 57
0001
0000
0010
0000
0001
0000
0000
0000
1000
0000
0000
0100
1000
0000
0001
0000
,  // measure 58
0000
0100
0001
0100
0000
0010
1000
0100
,  // measure 59
0001
0100
1000
0010
0100
0000
0010
1000
,  // measure 60
0000
0100
1000
0100
0000
0010
0001
0100
,  // measure 61
0000
0000
1010
0000
0000
0000
1000
0000
0100
0000
0000
0010
0000
0000
0001
0000
,  // measure 62
0100
0000
0010
0000
1000
0000
0010
0000
0100
0000
0000
0001
0000
0000
0100
0000
,  // measure 63
0010
1000
0100
0010
0110
0000
0000
0000
;

//---------------dance-single - ----------------
#NOTES:
     dance-single:
     :
     Medium:
     5:
     0.367,0.370,0.118,0.101,0.000:
2000
0000
0000
0000
,
3002
0000
0000
0000
,
0023
0000
0000
0000
,
0230
0000
0000
0000
,
0310
0001
0100
0001
,
0100
0000
0001
0000
1000
0001
1000
0000
,
0010
1000
0100
0010
,
0001
0000
0010
0000
0001
0010
0001
0100
,
0100
0010
1000
0001
,
0100
0000
0010
0000
1000
0100
1000
0000
,
0001
0000
0010
0000
0100
0010
0100
0000
,
0010
0001
0010
0000
0001
0000
0000
0000
,
1001
0000
0110
0000
0010
1000
0100
0000
,
0000
0010
0001
0100
,
0110
0000
1001
0000
0001
1000
0100
0000
,
0000
0000
1000
0000
0001
0010
0001
0000
,
1000
0100
1000
0000
0001
0100
0001
0000
,
1000
0010
0100
0001
,
0010
0100
0010
0000
1000
0001
1000
0000
,
2002
0000
0000
3003
,
0110
0000
0010
1000
0000
1000
0001
0000
,
0010
0001
0100
0010
,
1000
0000
0100
0010
0000
0010
0001
0000
,
0100
0010
1000
0010
,
1000
0000
0001
0100
0000
0100
0010
0000
,
1000
0000
0100
1000
0000
1000
0001
0000
,
0010
0000
0001
0100
0000
0100
0001
1000
,
0001
1000
0100
0010
,
0110
0000
0000
0000
0001
0010
0001
0000
,
1000
0010
1000
0000
0001
0100
0001
0000
,
1001
0000
0000
0000
1000
0100
1000
0000
,
0220
0000
0000
0330
,
0010
0000
0001
0000
0100
0001
0100
0000
,
0010
1000
0010
1000
0010
0000
0000
0000
,
0100
0000
0001
0000
1000
0001
1000
0000
,
0100
1000
0100
1000
0100
0000
0000
0000
,
0010
0000
0001
0000
0100
0010
0100
0000
,
0010
1000
0010
0000
1000
0000
0001
0000
,
0010
0000
0001
0000
0100
0001
0100
0000
,
0010
1000
0010
0000
1001
0000
0000
0000
,
0110
0000
0100
0000
0010
1000
0100
0000
,
0010
0001
0100
0010
,
1000
0000
0001
0000
0010
0001
0100
0000
,
0010
1000
0100
0010
,
0100
0000
1000
0000
0010
1000
0001
0000
,
0010
0001
1000
0100
,
0010
0000
0100
0000
0010
0100
0010
0000
,
0002
0010
2000
3003
,
2002
0000
3003
0000
1001
0000
0001
0100
,
0000
0100
0010
1000
0000
0010
1000
0000
,
0010
0000
0100
0000
0001
0000
0010
0001
,
0000
1000
0100
1000
0100
0000
0010
0001
,
0000
0001
0100
0000
0010
0000
1000
0000
,
0100
1000
0100
0000
1000
0010
1000
0000
,
0010
0100
0010
0000
0100
0000
0001
0000
,
0010
0001
0100
0000
0001
0000
1000
0010
,
0000
0010
1000
0000
0001
0000
0010
0001
,
0000
1000
0100
1000
0100
0000
0010
0000
,
0001
0000
0100
0001
0100
0000
0010
0000
,
1000
0010
0100
0000
0001
0010
0100
0000
,
0010
0001
0100
0000
0010
0000
1000
0000
,
0001
0100
0001
0000
1000
0100
1000
0000
,
0010
0100
0110
0000
;

//---------------dance-single - ----------------
#NOTES:
     dance-single:
     :
     Beginner:
     1:
     0.135,0.185,0.093,0.000,0.000:
1001
0000
0000
0000
,
0000
0000
0000
0000
,
0000
0000
0000
0000
,
0000
0000
0000
0000
,
1000
0000
1000
0000
,
0100
0000
0100
0000
,
1000
0000
1000
0000
,
0001
0000
0001
0000
,
0100
0000
0100
0000
,
0010
0000
0010
0000
,
0100
0000
0100
0000
,
0001
0000
0001
0000
,
1001
0000
0000
0000
,
1000
0000
0100
0000
,
1000
0000
0000
0000
,
0001
0000
0100
0000
,
0001
0000
0000
0000
,
0010
0000
0100
0000
,
0010
0000
0000
0000
,
1001
0000
0000
0000
,
0110
0000
0010
0000
,
0100
0000
0010
0000
,
1000
0000
0000
0000
,
0100
0000
0000
0000
,
0010
0000
0001
0000
,
0100
0000
0010
0000
,
1000
0000
0000
0000
,
0001
0000
0000
0000
,
1001
0000
0001
0000
,
1000
0000
0100
0000
,
0010
0000
0100
0000
,
0110
0000
0000
0000
,
1001
0000
0001
0000
,
1000
0000
0000
0000
,
0010
0000
0001
0000
,
0100
0000
0000
0000
,
0010
0000
1000
0000
,
0100
0000
0000
0000
,
0010
0000
0001
0000
,
0100
0000
0000
0000
,
1000
0000
0001
0000
,
0100
0000
0001
0000
,
0010
0000
0001
0000
,
0100
0000
0000
0000
,
0010
0000
1000
0000
,
0001
0000
1000
0000
,
0100
0000
1000
0000
,
0001
0000
0000
0000
,
1001
0000
1001
0000
,
1000
0000
0100
0000
,
0010
0000
0100
0000
,
0010
0000
0001
0000
,
0100
0000
0010
0000
,
1000
0000
0001
0000
,
0100
0000
0110
0000
,
0000
0000
0010
0000
,
1000
0000
0100
0000
,
0000
0000
0010
0000
,
0001
0000
0100
0000
,
0001
0000
1000
0000
,
0100
0000
0010
0000
,
0100
0000
1000
0000
,
0001
0000
1001
0000
;

//---------------dance-single - ----------------
#NOTES:
     dance-single:
     :
     Easy:
     3:
     0.247,0.317,0.118,0.025,0.000:
1000
0000
0000
0000
,
0100
0000
0000
0000
,
0010
0000
0000
0000
,
0001
0000
0000
0000
,
1001
0000
0001
0100
,
0010
0100
0001
0000
,
1001
0000
1000
0100
,
0010
0100
1000
0000
,
0110
0000
0010
1000
,
0100
1000
0001
0000
,
0110
0000
0010
0001
,
1000
0001
0100
0000
,
0010
1000
0100
1000
,
0001
0010
0001
0000
,
0010
0001
0100
0010
,
1000
0100
0010
0000
,
0100
0010
0100
1000
,
0010
0100
0001
0000
,
1000
0001
0100
0001
,
1001
0000
0000
0000
,
0110
0010
1000
0000
,
1000
0100
0010
0000
,
0010
0001
0100
0010
,
1000
0000
0001
0010
,
0001
0100
0010
0000
,
0100
0010
0100
0000
,
0010
1000
0100
1000
,
0001
0010
0100
0000
,
0110
0000
0001
1000
,
0001
0100
0010
1000
,
0100
0000
0010
0001
,
0200
0000
0000
0000
,
0310
0000
1000
0000
,
0100
0000
0010
0001
,
0100
0000
0010
0000
,
1000
0100
1000
0001
,
0010
0000
0001
0000
,
0100
0000
0010
1000
,
0100
0000
1000
0000
,
0010
0100
0010
1000
,
0100
0010
0100
0000
,
0010
0001
0100
0000
,
0010
1000
0100
0000
,
0010
0001
0100
0001
,
1000
0010
0100
0000
,
0010
0100
0010
0000
,
1000
0100
1000
0000
,
1001
0000
0110
0000
,
2002
3003
1001
0001
,
0010
0001
0100
0010
,
1000
0000
1000
0010
,
0100
0001
0010
0100
,
1000
0000
1000
0010
,
0100
0001
0010
0100
,
0010
0000
0110
0010
,
0001
0100
0010
0000
,
1000
0010
0100
0001
,
0010
0001
1000
0001
,
0100
0000
1001
0001
,
0100
0010
1000
0100
,
1000
0000
0010
0001
,
0100
0000
0010
1000
,
0100
0010
0110
0000
;
