#TITLE:Kailua;
#SUBTITLE:;
#ARTIST:kors k;
#TITLETRANSLIT:;
#SUBTITLETRANSLIT:;
#ARTISTTRANSLIT:;
#CREDIT:;
#BANNER:Kailua.png;
#BACKGROUND:Kailua-bg.png;
#LYRICSPATH:;
#CDTITLE:;
#MUSIC:Kailua.mp3;
#OFFSET:-8.280;
#SAMPLESTART:54.270;
#SAMPLELENGTH:13.150;
#SELECTABLE:YES;
#BPMS:0.000=146.000;
#STOPS:;
#BGCHANGES:;

//---------------dance-single - ----------------
#NOTES:
     dance-single:
     :
     Hard:
     7:
     0.428,0.479,0.162,0.284,0.020: // measure 1
2000
0000
0000
3002
0000
0000
0200
0000
,  // measure 2
0000
0000
0000
0003
,  // measure 3
0320
0000
0000
2030
0000
0000
0200
0000
,  // measure 4
0000
0000
0000
3300
,  // measure 5
0010
0001
0100
0000
0010
1000
0001
0000
,  // measure 6
1000
0100
0001
0100
,  // measure 7
1000
0000
0001
0000
0000
0100
0000
0000
0010
0000
0000
0000
1000
0000
0010
0000
,  // measure 8
0100
0000
0001
0010
0100
0000
0010
0000
,  // measure 9
0001
1000
0001
1000
0010
0100
0010
0000
,  // measure 10
0100
0001
0010
0100
0010
0001
1000
0000
,  // measure 11
1100
1000
0010
0000
0110
0100
0001
0000
,  // measure 12
1001
0000
0001
0000
0100
0000
0000
0202
0000
0000
0000
0000
0303
0000
0000
0000
,  // measure 13
2001
0000
0000
0001
0000
0000
0002
0000
,  // measure 14
0000
0000
0000
3000
,  // measure 15
0100
0000
0000
0100
0000
0000
0200
0000
,  // measure 16
0000
0000
0000
0003
,  // measure 17
0010
0000
0000
0001
0000
0000
0020
0000
,  // measure 18
0000
0000
0000
0300
,  // measure 19
1000
0000
0000
0100
0000
0000
2000
0000
,  // measure 20
0000
0000
3030
0000
1000
0100
0010
0001
,  // measure 21
1002
0000
0000
2003
0000
0000
3200
0000
,  // measure 22
0010
0010
0010
0000
1000
1000
1300
0000
,  // measure 23
0020
0000
0000
0100
0000
0000
0032
0000
,  // measure 24
1000
1000
1000
0000
0010
0010
0013
0001
,  // measure 25
0101
0000
0000
0101
0000
0000
1001
0000
,  // measure 26
1000
0100
0010
0000
0100
0010
0001
1000
,  // measure 27
0001
0100
0010
0100
0001
0010
0100
1000
,  // measure 28
0100
0001
0100
1000
0001
1000
1001
0000
,  // measure 29
0001
0010
0100
0020
0000
0001
0031
0000
,  // measure 30
0001
1000
0001
0000
1000
0010
1000
0000
,  // measure 31
0010
0100
0001
0020
0000
0100
0130
0000
,  // measure 32
0010
0001
0100
0000
0010
1000
0100
0000
,  // measure 33
1001
0000
1000
0200
0000
0010
0310
0000
,  // measure 34
0100
0010
0001
0000
0001
0010
0100
0000
,  // measure 35
0010
0000
0001
2000
0000
0010
3010
0000
,  // measure 36
0010
1000
0100
0000
0100
1000
0010
0100
,  // measure 37
0001
0010
0001
0100
0000
0000
0101
0000
,  // measure 38
0001
0000
1000
0000
0100
0010
0100
0000
,  // measure 39
0010
0001
1000
0010
0000
0000
0110
0000
,  // measure 40
0010
1000
0100
0000
1000
0100
0010
0100
,  // measure 41
0010
0000
0001
0100
0000
0100
0001
0000
,  // measure 42
1000
0100
0001
0000
0001
0100
1000
0001
,  // measure 43
0100
0010
0100
0010
1000
0010
1000
0010
,  // measure 44
2000
0010
0002
3003
,  // measure 45
1001
0000
0001
0100
0001
0100
0000
0010
,  // measure 46
0100
0010
0000
1000
0010
1000
0001
1000
,  // measure 47
0100
0000
0010
0000
0100
0000
1000
0000
0001
0000
0000
1000
0000
0000
0001
0000
,  // measure 48
0010
0000
0000
0100
0000
0000
0010
0000
0001
0000
1000
0000
0001
0000
0000
0000
,  // measure 49
1010
0000
0010
0100
0001
0020
0000
0100
,  // measure 50
0100
0230
0000
1000
1000
1000
1300
0000
,  // measure 51
1000
0010
0100
0001
,  // measure 52
0010
0000
0100
0000
0010
0001
1000
0001
,  // measure 53
2002
0000
3003
0000
;

//---------------dance-single - ----------------
#NOTES:
     dance-single:
     :
     Medium:
     5:
     0.336,0.399,0.111,0.355,0.000: // measure 1
2000
0000
0000
3002
0000
0000
2000
0000
,  // measure 2
0000
0000
0000
3003
,  // measure 3
0200
0000
0000
0320
0000
0000
0200
0000
,  // measure 4
0000
0000
0000
0330
,  // measure 5
0100
0000
0001
0000
1000
0100
1000
0000
,  // measure 6
0001
0010
0100
0000
0010
0001
1000
0000
,  // measure 7
0001
0000
0100
0000
0010
1000
0010
0000
,  // measure 8
1000
0100
0001
0000
0001
0100
1000
0000
,  // measure 9
0001
0000
0100
0000
0001
0100
0001
0000
,  // measure 10
1000
0000
0100
0000
1000
0100
1000
0000
,  // measure 11
0001
0010
0100
0000
1000
0010
0100
0000
,  // measure 12
0220
0000
0000
0330
,  // measure 13
1002
0000
0000
1000
0000
0000
2000
0000
,  // measure 14
0000
0000
0000
0003
,  // measure 15
0100
0000
0000
0100
0000
0000
0200
0000
,  // measure 16
0000
0000
0000
3000
,  // measure 17
0010
0000
0000
0010
0000
0000
0020
0000
,  // measure 18
0000
0000
0000
0300
,  // measure 19
0001
0000
0000
0001
0000
0000
0002
0000
,  // measure 20
0000
0000
0033
0000
0001
1000
0001
1000
,  // measure 21
0002
0000
0000
2003
0000
0000
0200
0000
,  // measure 22
0000
0000
0000
3300
,  // measure 23
0200
0000
0000
0320
0000
0000
0002
0000
,  // measure 24
0000
0000
0000
0033
,  // measure 25
0002
0000
0000
0203
0000
0000
0020
0000
,  // measure 26
0000
0000
0300
0000
0000
2030
0000
0002
,  // measure 27
0000
0000
0000
0000
,  // measure 28
0000
0000
0000
3003
,  // measure 29
1001
0000
0001
0100
0000
0100
0001
0000
,  // measure 30
1000
0100
0010
0001
,  // measure 31
1000
0000
0010
1000
0000
1000
0010
0000
,  // measure 32
0100
0001
0010
0100
,  // measure 33
0010
0000
0100
1000
0000
1000
0001
0000
,  // measure 34
0100
1000
0100
0001
,  // measure 35
1000
0000
0001
1000
0000
1000
0100
0000
,  // measure 36
0010
0000
0001
0000
0100
0001
0100
0010
,  // measure 37
2000
0000
0000
3200
0000
0000
0320
0000
,  // measure 38
0031
0100
0001
1000
,  // measure 39
0020
0000
0000
0230
0000
0000
0302
0000
,  // measure 40
1003
0000
0100
0000
0010
0100
0010
0000
,  // measure 41
1002
0000
0000
0203
0000
0000
0320
0000
,  // measure 42
0031
0000
0010
0000
1000
0001
0000
1000
,  // measure 43
0001
0000
1000
0000
0001
1000
0100
0000
,  // measure 44
0010
0100
1000
0000
1100
0000
1001
0000
,  // measure 45
0001
0100
0001
0000
0100
0001
0000
0001
,  // measure 46
1000
0001
1000
0100
,  // measure 47
0010
0100
0010
0000
0100
1000
0000
1000
,  // measure 48
0001
0000
0100
0000
0010
1000
0010
0000
,  // measure 49
0101
0000
0100
0000
0010
1000
0100
0000
,  // measure 50
0011
0000
0100
0000
0010
0001
1000
0000
,  // measure 51
1010
0000
0101
0000
0010
1000
0010
0000
,  // measure 52
1000
0100
0010
0000
0001
1000
0001
0000
,  // measure 53
2002
0000
3003
0000
;

//---------------dance-single - ----------------
#NOTES:
     dance-single:
     :
     Easy:
     4:
     0.203,0.239,0.041,0.203,0.000: // measure 1
1000
0000
0000
1000
0000
0000
2000
0000
,  // measure 2
0000
0000
0000
0000
,  // measure 3
3001
0000
0000
0001
0000
0000
0002
0000
,  // measure 4
0000
0000
0000
0003
,  // measure 5
1000
0001
0100
0000
,  // measure 6
0010
0100
0001
0000
,  // measure 7
0010
0001
1000
0000
,  // measure 8
0100
1000
0100
0010
,  // measure 9
0100
0010
0001
0000
,  // measure 10
1000
0001
1000
0000
,  // measure 11
0001
0100
0010
0000
,  // measure 12
2002
0000
3003
0000
,  // measure 13
2200
0000
0000
0000
,  // measure 14
3000
0000
0000
0000
,  // measure 15
0020
0000
0000
0000
,  // measure 16
0300
0000
0000
0000
,  // measure 17
0002
0000
0000
0000
,  // measure 18
0030
0000
0000
0000
,  // measure 19
2000
0000
0000
0000
,  // measure 20
0003
0000
0000
0000
,  // measure 21
0020
0000
0000
0000
,  // measure 22
3000
0000
0000
0000
,  // measure 23
0200
0000
0000
0000
,  // measure 24
0030
0000
0000
0000
,  // measure 25
0002
0000
0000
0000
,  // measure 26
0300
0000
0000
0000
,  // measure 27
2000
0000
0000
0000
,  // measure 28
0000
0000
0000
3003
,  // measure 29
1000
0100
1000
0100
,  // measure 30
0010
0001
0010
0001
,  // measure 31
1000
0001
0100
0010
,  // measure 32
1000
0001
1000
0100
,  // measure 33
0010
0000
0001
0010
,  // measure 34
0001
0000
1000
0010
,  // measure 35
1000
0000
0010
0100
,  // measure 36
0010
0000
0100
0001
,  // measure 37
0100
0001
1000
0100
,  // measure 38
0010
0001
1000
0001
,  // measure 39
0100
0010
0100
0001
,  // measure 40
1000
0100
0010
0100
,  // measure 41
1000
0000
0001
1000
,  // measure 42
0001
0000
1000
0100
,  // measure 43
1000
0000
0001
1000
,  // measure 44
2002
0000
0000
3003
,  // measure 45
1000
0001
0100
0010
,  // measure 46
0100
0000
0001
0000
,  // measure 47
1000
0100
0010
0100
,  // measure 48
1000
0000
0001
0000
,  // measure 49
1000
0100
1000
0001
,  // measure 50
0100
0001
1000
0010
,  // measure 51
0200
0000
0302
0000
,  // measure 52
2003
0000
3100
0000
,  // measure 53
0220
0000
0330
0000
;

//---------------dance-single - ----------------
#NOTES:
     dance-single:
     :
     Beginner:
     1:
     0.123,0.158,0.051,0.000,0.000: // measure 1
1000
0000
0000
0000
,  // measure 2
0001
0000
0000
0000
,  // measure 3
0010
0000
0000
0000
,  // measure 4
0001
0000
0000
0000
,  // measure 5
1001
0000
0000
0000
,  // measure 6
1000
0000
0100
0000
,  // measure 7
1000
0000
0000
0000
,  // measure 8
0001
0000
1000
0000
,  // measure 9
0001
0000
0100
0000
,  // measure 10
0010
0000
1000
0000
,  // measure 11
0001
0000
1000
0000
,  // measure 12
0001
0000
0000
0000
,  // measure 13
1001
0000
0000
0000
,  // measure 14
1000
0000
0000
0000
,  // measure 15
0100
0000
0000
0000
,  // measure 16
0010
0000
0000
0000
,  // measure 17
0001
0000
0000
0000
,  // measure 18
1000
0000
0000
0000
,  // measure 19
0001
0000
0000
0000
,  // measure 20
0100
0000
0001
0000
,  // measure 21
1001
0000
0000
0000
,  // measure 22
1000
0000
0001
0000
,  // measure 23
1000
0000
0000
0000
,  // measure 24
0001
0000
0100
0000
,  // measure 25
0001
0000
0000
0000
,  // measure 26
1000
0000
0100
0000
,  // measure 27
0010
0000
0000
0000
,  // measure 28
0000
0000
0000
0000
,  // measure 29
1001
0000
0000
0000
,  // measure 30
0001
0000
0100
0000
,  // measure 31
0001
0000
1000
0000
,  // measure 32
0100
0000
0010
0000
,  // measure 33
0100
0000
0000
0000
,  // measure 34
0010
0000
0001
0000
,  // measure 35
1000
0000
0001
0000
,  // measure 36
0100
0000
0010
0000
,  // measure 37
1000
0000
0000
0000
,  // measure 38
0001
0000
0100
0000
,  // measure 39
0001
0000
0000
0000
,  // measure 40
1000
0000
0010
0000
,  // measure 41
1000
0000
0000
0000
,  // measure 42
0001
0000
0010
0000
,  // measure 43
0001
0000
1000
0000
,  // measure 44
0001
0000
1000
0000
,  // measure 45
0100
0000
0100
0000
,  // measure 46
0010
0000
0010
0000
,  // measure 47
0001
0000
0001
0000
,  // measure 48
1000
0000
1000
0000
,  // measure 49
0001
0000
0100
0000
,  // measure 50
0010
0000
1000
0000
,  // measure 51
0001
0000
0010
0000
,  // measure 52
0100
0000
1000
0000
,  // measure 53
1001
0000
0000
0000
;
