#TITLE:It's all about you;
#SUBTITLE:;
#ARTIST:Juliana Pasha;
#TITLETRANSLIT:;
#SUBTITLETRANSLIT:;
#ARTISTTRANSLIT:;
#CREDIT:;
#BANNER:;
#BACKGROUND:;
#LYRICSPATH:;
#CDTITLE:;
#MUSIC:It's all about you.mp3;
#OFFSET:-9.240;
#SAMPLESTART:37.250;
#SAMPLELENGTH:14.010;
#SELECTABLE:YES;
#BPMS:0.000=137.000;
#STOPS:;
#BGCHANGES:;

//---------------dance-single - ----------------
#NOTES:
     dance-single:
     :
     Hard:
     7:
     0.467,0.464,0.455,0.289,0.490:
1000
0001
1000
0001
0000
0000
0100
0000
0000
1000
0000
0100
,
0001
0000
0000
1000
0000
0000
0100
0000
0000
0010
0000
0100
,
1000
0000
0000
0001
0000
0000
1000
0000
0000
0001
0000
0100
,
0001
0000
0000
1000
0000
0000
0010
0000
0000
0100
0000
0001
,
1000
0100
1000
0100
0000
0000
0010
0000
0000
0001
0000
0100
,
1000
0000
0000
0100
0000
0000
0001
0000
0000
1000
0000
0100
,
1000
0010
0001
0010
,
1000
0000
0000
0100
0000
0000
0010
0000
0100
0010
0000
0000
,
1001
0000
0000
0001
0000
0000
0100
0000
0001
0100
0000
0000
,
0001
0000
0000
1000
0000
0000
0100
0000
0010
0100
0000
0100
,
1000
0000
0000
0001
0000
0000
0100
0000
0000
0010
0000
0100
,
0010
0000
0000
1000
0000
0000
0100
0000
0000
0010
0000
0010
,
0001
0000
0000
0100
0000
0000
1000
0000
0000
0001
0000
0010
,
1000
0000
0000
0100
0000
0000
0010
0000
0010
0001
0000
0001
,
1000
0000
0000
0010
0000
0000
0100
0000
0001
0010
0000
0010
,
0001
0000
0000
1000
0000
0000
0100
0000
0010
0100
0000
0000
,
2002
0000
0000
3003
,
1001
0000
0000
1001
0000
0001
0010
0000
0100
1000
0000
1000
,
0100
0000
0000
0110
0000
0010
0001
0000
0001
0100
0000
0110
,
0000
0000
0010
1000
0000
1001
0000
0000
0011
0000
0000
1100
,
0000
0000
0110
0000
0000
0010
0001
0000
0001
0100
0000
0000
,
0110
0000
0000
1010
0000
1000
0100
0000
0010
0001
0000
0001
,
0100
0000
0000
0110
0000
0000
0010
0000
1000
0001
0000
1001
,
0000
0000
1000
0100
0000
1100
0000
0000
0011
0000
0000
0101
,
0000
0000
1001
0000
0000
1000
0100
0000
0100
1000
0000
0000
,
1002
0100
0023
0001
,
0230
0010
2300
0010
,
3001
0000
0000
1000
0000
0001
0010
0000
0010
0001
0000
0101
,
0000
0000
1001
0000
0000
1000
0100
0000
0010
0001
0000
0000
,
0110
0000
0000
0110
0000
0010
0100
0000
0100
0001
0000
0001
,
1000
0000
0000
1100
0000
0100
0010
0000
0010
0001
0000
1000
,
0000
0000
0001
0100
0000
0000
0010
0000
0100
0001
0000
1001
,
0000
0000
2002
0000
0000
0000
0000
0000
0000
3003
0000
0000
,
1000
0010
1000
0020
0000
0000
0001
0000
0000
0100
0000
0000
,
2030
0000
0100
0000
0000
0000
3200
0000
0000
0000
0000
0000
,
0310
0001
0010
0002
0000
0000
0010
0000
0000
1000
0000
0000
,
0203
0000
0010
0000
0000
0010
0000
0000
0301
0000
0000
0001
,
2000
0000
3200
0000
,
0320
0000
0032
0000
,
2003
0000
3001
0000
,
2002
0000
0000
0000
0000
0000
0003
0000
0000
0001
0000
0002
,
0000
0000
0000
3003
,
1001
0000
0000
1001
0000
0100
0010
0000
0010
0100
0000
0000
,
1010
0000
0000
1010
0000
1000
0001
0000
0001
0010
0000
0011
,
0000
0000
0000
0001
0000
0100
0000
0000
1000
0000
0000
0020
,
0000
0000
0001
0000
0000
0130
0000
0000
0001
1000
0000
1000
,
0001
0000
0000
1001
0000
0000
0001
0000
0100
0001
0000
1000
,
0100
0000
0000
0011
0000
0000
0001
0000
1000
0010
0000
1010
,
0000
0000
0000
1000
0000
1100
0000
0000
0011
0000
0000
0101
,
0000
0000
1010
0000
0000
1000
0010
0000
0100
0001
0000
0000
,
2002
3003
0220
0330
,
2020
3030
0202
0303
,
0001
0000
0000
0010
0000
0000
1000
0000
0010
0001
0000
0011
,
0000
0000
1001
0000
0000
1000
0010
0000
0010
0100
0000
0000
,
0110
0000
0000
1001
0000
1000
0100
0000
0010
0001
0000
0001
,
0100
0000
0000
0110
0000
0000
0010
0000
1000
0001
0000
1001
,
0000
0000
0000
1000
0000
0000
0100
0000
0000
0010
0000
0011
,
0000
0000
2002
0000
0000
0000
3000
0000
0000
0100
0000
0200
,
0303
0000
0001
1000
0000
1000
0100
0000
0100
0010
0000
1001
;

//---------------dance-single - ----------------
#NOTES:
     dance-single:
     :
     Medium:
     6:
     0.337,0.335,0.114,0.262,0.105:
1000
0000
1000
0001
0000
0000
0100
0000
0000
0010
0000
0000
,
1000
0000
0000
0100
0000
0000
0100
0000
0000
0100
0000
0100
,
2000
0000
3002
0000
,
0203
0000
0320
0000
,
1030
0000
1000
0001
0000
0000
0010
0000
0000
0100
0000
0000
,
0010
0001
0001
0001
,
2000
0000
3002
0000
,
0203
0000
0320
0000
,
1030
0100
0001
0100
,
1000
0000
0000
0001
0000
0000
1000
0000
0001
0100
0000
0000
,
0001
0010
0100
1000
,
0010
0000
0000
0100
0000
0000
0001
0000
1000
0100
0000
0000
,
0010
0100
1000
0100
,
0010
0000
0000
0001
0000
0000
0100
0000
0100
0001
0000
0000
,
1000
0100
0001
0100
,
1000
0010
0100
0010
,
2020
0000
0000
3030
,
1001
0000
0001
1000
0000
0000
0001
0000
0100
0001
0000
0000
,
1000
0000
0000
0100
0000
0000
0010
0000
0001
0010
0000
0000
,
0001
0100
1000
0100
,
0001
1000
0100
0010
,
0001
0000
0010
0001
0000
0000
1000
0000
0010
1000
0000
0000
,
0001
0000
0000
1000
0000
0000
0100
0000
0010
0100
0000
0000
,
0010
0001
0100
1000
,
0100
0001
1000
0010
,
0200
0001
0302
0010
,
0023
0100
0230
1000
,
1300
0000
0000
0100
0000
0000
0010
0000
0000
0001
0000
1000
,
0010
0100
1000
0100
,
0110
0000
0000
0010
0000
0000
1000
0000
1000
0001
0000
0000
,
0010
0000
0000
0100
0000
0000
0010
0000
0001
0010
0000
0000
,
0001
0100
1000
0100
,
0001
1000
0100
0010
,
1002
0000
0203
0000
,
0320
0000
0000
0000
,
2030
0000
3200
0000
,
0320
0000
0030
0000
,
1002
0000
0203
0000
,
0320
0000
2030
0000
,
3200
0000
0302
0000
,
0203
0000
0000
0000
,
0020
0000
0000
0330
,
1001
0000
0000
1001
0000
0000
0001
0000
0100
0001
0000
0000
,
1000
0000
0000
0100
0000
0000
0010
0000
0100
0010
0000
0000
,
0001
0100
1000
0100
,
0001
0010
0001
1000
,
1010
0000
0000
1010
0000
0000
0001
0000
0100
0001
0000
0000
,
0010
0000
0000
0001
0000
0000
1000
0000
0100
1000
0000
0000
,
0010
0001
0010
1000
,
0100
0010
0100
1000
,
0002
0010
1000
0100
,
2003
0010
0001
0100
,
3010
0000
0000
0100
0000
0000
0001
0000
0000
0010
0000
0001
,
0100
0000
0000
0010
0000
0000
1000
0000
0001
1000
0000
0000
,
1001
0000
0000
1001
0000
0000
0001
0000
0100
0001
0000
0000
,
1000
0000
0000
0100
0000
0000
0010
0000
0001
0010
0000
0000
,
0001
0100
0010
0100
,
0001
1000
0100
0010
,
0011
0000
0000
0001
0000
0000
1000
0000
0000
0010
0000
0110
;

//---------------dance-single - ----------------
#NOTES:
     dance-single:
     :
     Easy:
     4:
     0.291,0.283,0.044,0.481,0.004:
1000
0001
0100
1000
,
0100
0001
1000
0000
,
0002
0000
0023
0000
,
0230
0000
0320
0000
,
0031
1000
0010
0100
,
0001
0010
0100
0010
,
0002
0000
2003
0000
,
3002
0000
0203
0000
,
0310
0100
0010
1000
,
0200
0000
0010
0000
,
1300
0100
0010
0001
,
0200
0000
0001
0001
,
0301
0100
0010
1000
,
0002
0000
0010
0000
,
1003
0010
0100
0001
,
2000
0000
3020
0030
,
0220
0000
0000
0330
,
2002
3003
0001
1000
,
0200
0300
0010
0001
,
0100
1000
0100
0001
,
1000
0001
1000
0100
,
0020
0030
0100
0010
,
0002
0003
1000
0001
,
0100
0010
1000
0001
,
0100
0010
0100
0001
,
2000
0000
3200
0000
,
0320
0000
0230
0000
,
2300
0000
3001
1000
,
0001
0100
1000
0100
,
0002
0000
0013
0001
,
2000
0000
3010
1000
,
0001
0010
0100
0010
,
0001
0100
0010
1000
,
2001
0000
3002
0000
,
0200
0000
0303
0000
,
0210
0000
0320
0000
,
2000
0000
3030
0000
,
2000
0000
3200
0000
,
0320
0000
0032
0000
,
0203
0000
0320
0000
,
2030
0000
0010
0000
,
0002
0000
0000
3003
,
2002
3003
0001
1000
,
0200
0000
0310
0100
,
1000
0100
0010
0001
,
0100
0010
1000
0001
,
0200
0000
0310
1000
,
0200
0000
0310
0001
,
1000
0001
0100
1000
,
0100
0001
1000
0100
,
0020
0000
0032
0000
,
0203
0000
0320
0000
,
2030
0000
3010
1000
,
0100
0010
0001
0100
,
0020
0000
0130
0001
,
2000
0000
3001
1000
,
0100
0010
0100
1000
,
0002
0000
0010
1000
,
0203
0000
0000
0000
0000
0000
0010
0000
0000
0001
0000
0301
;

//---------------dance-single - ----------------
#NOTES:
     dance-single:
     :
     Beginner:
     1:
     0.126,0.153,0.070,0.000,0.000: // measure 1
1000
0000
0001
0000
,  // measure 2
1000
0000
0100
0000
,  // measure 3
0010
0000
0000
0000
,  // measure 4
0100
0000
0000
0000
,  // measure 5
0010
0000
0001
0000
,  // measure 6
1000
0000
0001
0000
,  // measure 7
0100
0000
0000
0000
,  // measure 8
0010
0000
0000
0000
,  // measure 9
0110
0000
0100
0000
,  // measure 10
0001
0000
1000
0000
,  // measure 11
0100
0000
0000
0000
,  // measure 12
0010
0000
0000
0000
,  // measure 13
0001
0000
0010
0000
,  // measure 14
0100
0000
1000
0000
,  // measure 15
0001
0000
0000
0000
,  // measure 16
1000
0000
0000
0000
,  // measure 17
1001
0000
0000
0000
,  // measure 18
0110
0000
0010
0000
,  // measure 19
0100
0000
0001
0000
,  // measure 20
1000
0000
0000
0000
,  // measure 21
0001
0000
0000
0000
,  // measure 22
1000
0000
0100
0000
,  // measure 23
0010
0000
0001
0000
,  // measure 24
0100
0000
0000
0000
,  // measure 25
0010
0000
0000
0000
,  // measure 26
0100
0000
0001
0000
,  // measure 27
1000
0000
0001
0000
,  // measure 28
0010
0000
0100
0000
,  // measure 29
0010
0000
0001
0000
,  // measure 30
1001
0000
0000
0000
,  // measure 31
1000
0000
0000
0000
,  // measure 32
0010
0000
0100
0000
,  // measure 33
0110
0000
0000
0000
,  // measure 34
1001
0000
0001
0000
,  // measure 35
0001
0000
0000
0000
,  // measure 36
1000
0000
1000
0000
,  // measure 37
1000
0000
0000
0000
,  // measure 38
0010
0000
0100
0000
,  // measure 39
0010
0000
0100
0000
,  // measure 40
0001
0000
1000
0000
,  // measure 41
0001
0000
0000
0000
,  // measure 42
1001
0000
0000
0000
,  // measure 43
1001
0000
1000
0000
,  // measure 44
0100
0000
1000
0000
,  // measure 45
0001
0000
0000
0000
,  // measure 46
0100
0000
0000
0000
,  // measure 47
0010
0000
0100
0000
,  // measure 48
0001
0000
0100
0000
,  // measure 49
0010
0000
0000
0000
,  // measure 50
1000
0000
0000
0000
,  // measure 51
0001
0000
1000
0000
,  // measure 52
0001
0000
1000
0000
,  // measure 53
0100
0000
0000
0000
,  // measure 54
0010
0000
0100
0000
,  // measure 55
0010
0000
0001
0000
,  // measure 56
1000
0000
0001
0000
,  // measure 57
0100
0000
0010
0000
,  // measure 58
1000
0000
0001
0000
,  // measure 59
1000
0000
0001
0000
;
