#TITLE:Ichigeki Hisshou;
#SUBTITLE:;
#ARTIST:Des-ROW;
#TITLETRANSLIT:;
#SUBTITLETRANSLIT:;
#ARTISTTRANSLIT:;
#CREDIT:;
#BANNER:;
#BACKGROUND:;
#LYRICSPATH:;
#CDTITLE:;
#MUSIC:Ichigeki Hisshou.mp3;
#OFFSET:-2.280;
#SAMPLESTART:22.560;
#SAMPLELENGTH:9.010;
#SELECTABLE:YES;
#BPMS:0.000=213.000,66.000=106.500,82.000=213.000,178.000=106.500,211.000=213.000,277.000=106.500,293.000=213.000;
#STOPS:64.000=1.690
,275.000=1.690
,325.000=0.845
;
#BGCHANGES:;

//---------------dance-single - ----------------
#NOTES:
     dance-single:
     :
     Medium:
     8:
     0.496,0.626,0.415,0.163,0.085:
1000
0100
0001
0100
,
0010
0001
0100
0010
,
1000
0000
0001
0000
,
1000
0000
0001
0000
,
0100
0010
1000
0100
,
0010
0100
1000
0001
,
0100
0000
0001
0000
,
1000
0000
0001
0000
,
1000
0010
0100
0001
,
1000
0100
0010
0001
,
0100
0000
1000
0000
,
0100
0000
0001
0000
,
1000
0001
0100
0001
,
0010
0100
0010
0001
,
1000
0000
0100
0000
0010
0000
0001
0000
1000
0000
0010
0000
,
0220
0330
0202
0303
,
2002
3003
1001
0000
,
1001
0000
0000
0000
0001
0100
0101
0000
,
1001
0000
0000
0000
1100
0000
0000
0000
0110
0000
0000
0000
0010
0000
0000
0001
,
0000
0000
0010
0000
0001
0000
1000
0000
0001
0000
0100
0000
0010
0000
0000
0100
,
0000
0010
0000
0100
0001
0000
1000
0000
0100
0000
1000
0000
0100
0000
0000
0000
,
0010
0001
0010
0000
0001
0000
0100
0000
,
0010
0000
0110
0000
0010
1000
0001
0000
,
1000
0001
0100
0000
0001
0000
0010
0000
,
0100
0000
0110
0000
0010
0001
0010
0000
,
0001
1000
0001
0000
1000
0010
0100
0000
,
0001
0010
0100
0000
0010
0000
0001
0000
,
1000
0010
0100
0001
,
1000
1001
0101
0100
,
0001
1000
0100
0010
,
0100
1000
0001
0000
,
0100
0000
0010
0000
,
0100
0000
0001
1000
,
0100
0001
0100
1000
,
0001
0100
0010
0000
,
0100
0000
0001
0000
,
1000
0000
1001
0001
,
0100
0010
0100
0001
,
1000
0100
0010
0000
,
0010
0000
0001
0000
,
0001
0000
1000
0001
,
1000
0010
0100
0001
,
0010
0100
0010
0000
,
0100
0000
1100
0000
,
1001
0000
0202
0303
,
2002
0000
0000
3003
1001
0000
0110
0000
,
0010
0000
1000
0000
0100
0000
0000
0000
0110
0000
0000
0000
0011
0000
0000
0001
,
1000
0001
0000
0000
1001
0000
0000
1000
0010
0000
0100
0000
0001
0000
1000
0000
,
0100
0010
0200
0000
0310
0000
0011
0001
,
0010
0000
0000
0001
0100
0000
0010
0000
1000
0000
0000
1000
0100
0000
0010
0000
,
0100
0001
0100
1000
0001
0100
0202
0000
,
0303
1002
1003
2000
,
3200
0320
0032
1003
,
0001
1000
0001
0100
,
0001
0000
0000
0100
0000
0001
0000
0100
0000
0001
0000
0000
,
0000
1000
0000
0100
,
0000
0010
0000
0100
,
1000
0100
0010
0100
,
0010
0000
0000
0001
0000
0010
0000
0001
0000
1000
0000
0000
,
0000
0001
0000
0100
,
0000
0010
0000
0110
,
0100
0001
1000
0100
,
0010
0001
1000
0001
,
0100
0010
0100
0001
,
0010
0100
0010
0011
,
0001
0100
1000
0001
,
0010
0100
0001
0010
,
0100
0010
0001
1000
,
0010
0100
0001
2002
,
3003
1001
0001
0011
,
0010
0000
0110
0100
1000
0100
0001
0100
,
0010
0000
0001
0000
0011
0000
0000
0000
1001
0000
0000
1000
0001
0000
0100
0000
,
0010
0000
1000
0000
0100
0000
0010
0000
0001
0000
1000
0100
0000
0100
1000
0001
,
1000
0001
0100
0001
0100
0000
1000
0000
,
0100
0000
0001
0000
1000
0000
0001
0010
,
0001
0000
1000
0001
1000
0000
0010
0000
,
0100
0000
0001
0000
0010
0000
0100
0010
,
0001
0000
1000
0010
0100
0000
0001
0000
,
1000
0010
0100
0001
,
1000
0000
0100
0010
0100
0000
0010
0001
,
0010
0000
0001
1000
0001
1000
0001
0100
,
0010
0100
0001
0000
1001
0000
1001
0000
,
0101
0101
1010
1010
,
1100
1100
0110
0110
,
0011
0011
0101
0110
,
1010
1001
0110
0000
;

//---------------dance-single - ----------------
#NOTES:
     dance-single:
     :
     Easy:
     6:
     0.346,0.487,0.203,0.106,0.000: // measure 1
1001
0000
0001
0000
,  // measure 2
0100
0001
0100
0000
,  // measure 3
0010
0000
0100
0000
,  // measure 4
0001
1000
0100
0000
,  // measure 5
0010
0000
0100
0000
,  // measure 6
0010
0001
1000
0000
,  // measure 7
0010
1000
0001
0000
,  // measure 8
0010
0001
0100
0000
,  // measure 9
0110
0000
0010
0000
,  // measure 10
1000
0001
1000
0100
,  // measure 11
0010
0000
0100
0000
,  // measure 12
0010
0000
0001
0000
,  // measure 13
1000
0000
0001
0000
,  // measure 14
0100
0001
0100
0010
,  // measure 15
1000
0000
0001
0000
,  // measure 16
1000
0000
0100
0000
,  // measure 17
0110
0000
1001
0000
,  // measure 18
1001
0000
1000
0100
,  // measure 19
0010
0001
0101
0100
,  // measure 20
0010
1000
0100
0000
0110
0000
0010
0000
,  // measure 21
0001
1000
0001
0000
1000
0000
1000
0000
,  // measure 22
0001
0001
0100
0010
,  // measure 23
0100
0000
0010
0010
,  // measure 24
0100
0100
0001
0100
,  // measure 25
0001
0000
1000
0100
,  // measure 26
1000
0000
0001
0010
,  // measure 27
0001
0000
1000
0100
,  // measure 28
0010
0001
1000
0010
,  // measure 29
0100
0010
0100
0000
,  // measure 30
0001
0000
1000
0100
,  // measure 31
1000
0000
0001
0000
,  // measure 32
0010
0000
0001
0100
,  // measure 33
0001
0000
1001
0000
,  // measure 34
0001
0000
1000
0010
,  // measure 35
0100
0000
0010
0100
,  // measure 36
0001
0000
0010
0001
,  // measure 37
1000
0001
0100
0000
,  // measure 38
1000
0000
0100
0001
,  // measure 39
0100
0001
1000
0000
,  // measure 40
0100
0000
0010
0000
,  // measure 41
0001
0000
1000
0000
,  // measure 42
0001
0100
0010
1000
,  // measure 43
0100
0010
0100
0000
,  // measure 44
0010
0000
0001
1000
,  // measure 45
0001
0100
0010
0000
,  // measure 46
0110
0000
0100
0001
,  // measure 47
1000
0000
0100
0000
1100
0000
0001
1000
,  // measure 48
0001
0000
0100
0000
0110
0000
0010
1000
,  // measure 49
0100
0000
0020
0000
0030
0000
0010
0001
,  // measure 50
0010
0000
0001
1000
0001
0000
1000
0010
,  // measure 51
0100
0001
0010
0220
,  // measure 52
0330
0022
0033
2002
,  // measure 53
0000
0000
3003
1000
,  // measure 54
0001
0100
0000
0010
,  // measure 55
0100
0001
0000
1000
,  // measure 56
0000
0100
0000
0010
,  // measure 57
0000
0001
0000
0010
,  // measure 58
0001
0100
0000
0010
,  // measure 59
1000
0100
0000
0010
,  // measure 60
0000
0100
0000
1000
,  // measure 61
0000
0100
0000
0010
,  // measure 62
0001
1000
0001
0100
,  // measure 63
0001
0100
0000
0010
,  // measure 64
0000
0100
0000
0001
,  // measure 65
0000
1000
0000
0100
,  // measure 66
0010
0001
0010
0001
,  // measure 67
1000
0001
0000
1000
,  // measure 68
0000
0010
0000
0100
,  // measure 69
0000
0001
0000
1001
,  // measure 70
0000
2002
3003
0202
,  // measure 71
0303
0110
0110
1001
,  // measure 72
0101
0220
0330
0010
,  // measure 73
1000
1100
0000
0010
,  // measure 74
0001
1000
0001
1000
,  // measure 75
0000
0001
0100
0001
,  // measure 76
0000
1000
0010
0100
,  // measure 77
0010
0100
0010
1000
,  // measure 78
0000
0001
0010
0001
,  // measure 79
0000
1000
0100
1000
,  // measure 80
0000
0001
0010
0100
,  // measure 81
0010
0100
0010
0001
,  // measure 82
0000
1001
1000
1000
,  // measure 83
0001
0001
0100
0100
,  // measure 84
0010
0010
0100
0001
,  // measure 85
0100
0001
1000
0100
,  // measure 86
0010
0001
1001
0000
;

//---------------dance-single - ----------------
#NOTES:
     dance-single:
     :
     Hard:
     10:
     0.733,0.765,0.618,0.366,0.496:
1000
0000
1000
0001
0000
0000
0001
0000
0001
0010
0000
0000
,
0001
0000
0000
1000
0000
0000
0010
0000
0100
0001
0000
0000
,
1001
1000
1100
0100
,
0110
0010
0011
0001
,
1000
0000
0010
1000
0000
0000
0001
0000
0010
0001
0000
0000
,
1000
0000
0100
1000
0000
0000
0001
0000
0100
0001
0000
0000
,
1010
0010
0110
0100
,
0101
0001
0011
0010
,
0100
0000
0100
1000
0000
1000
0001
0000
0001
0100
0000
0000
,
0100
0000
0100
0010
0000
0010
1000
0000
1000
0001
0000
0000
,
0001
0000
0001
0010
0000
0010
0001
0000
0001
1000
0000
1000
,
0010
0000
0010
1000
0000
1000
0100
0000
0100
1000
0000
0000
,
0001
0000
0010
0100
0000
0100
1000
0000
1000
0001
0000
0001
,
0100
0000
0100
0010
0000
0010
1000
0000
1000
0001
0000
0000
,
1000
0000
0100
0000
0010
0000
0001
0000
0100
0000
0010
0000
,
2002
3003
0220
0330
,
2002
3003
2200
3300
,
2002
0000
3003
0001
0100
0001
1001
0000
,
1100
0000
0000
0000
0011
0000
0000
0000
1001
0000
0001
0000
0100
0000
0001
1000
,
0000
1000
0100
0010
0001
0000
0000
0000
0011
0000
0001
0000
0100
0000
1000
0100
,
0000
0100
0001
1000
0001
0000
1000
0000
0001
0000
0100
0000
0001
0000
0100
0000
,
0010
1000
0010
0000
1000
0001
1000
0001
,
0010
0001
0010
0000
0001
0010
0100
1000
,
0010
0100
0010
0000
1000
0010
0100
0001
,
0010
0001
1000
0000
1100
0000
0110
0000
,
0011
1001
1010
0110
,
0101
1001
2000
3020
,
0230
0302
0023
0230
,
0320
0031
1001
1000
,
0001
0000
0100
0010
0000
0000
0100
0000
0000
1000
0000
0001
,
0000
0000
0001
0100
0000
0100
0010
0000
0000
1000
0000
0000
,
0100
0010
0100
1000
,
0001
0000
0000
1000
0000
0000
0100
0000
0010
0001
0000
0000
,
0100
0000
0010
1000
0000
0000
0001
0000
0010
0001
0000
0000
,
1000
0000
0010
1000
0000
0000
0101
0000
0000
0100
0000
0000
,
0110
0010
2002
3003
,
0220
0330
0010
1000
,
0100
0000
0000
1000
0000
1000
0001
0000
0000
0010
0000
0000
,
0100
0000
0000
1000
0000
0010
0001
0000
0000
0010
0000
0000
,
1000
0000
0000
0001
0000
1000
0001
0000
0000
0100
0000
0100
,
0001
0000
0001
1000
0000
1000
0100
0000
0000
0010
0000
0000
,
0001
0000
0010
0001
0000
0001
1000
0000
0000
0001
0000
0000
,
0100
0000
0001
0100
0000
0200
0020
0000
0000
0330
0000
0000
,
2020
3030
2002
3003
,
0022
0000
0033
0000
2002
0000
0000
3003
,
0220
0000
0000
0330
0010
0000
1010
1000
,
1100
0000
0100
0000
0110
0000
0000
0000
1001
0000
0000
0000
1000
0000
0000
1000
,
0001
1000
0100
0000
0010
0000
0000
0100
0001
0000
0100
0000
1000
0000
0000
1000
,
0001
1000
0000
0001
0000
0100
0010
0000
0110
0000
0000
0000
1001
0000
1000
0000
,
0100
0000
0000
0100
0010
0000
0001
0000
1000
0000
0001
0000
0100
0000
0010
0000
,
0100
0000
0000
0100
0001
1000
0000
0100
0000
0010
0000
0001
0202
0000
0000
0000
,
0303
2001
3010
2100
,
3200
0320
0032
1003
,
0001
0000
0000
0100
0001
0100
0001
0000
0000
1000
0000
0000
,
0100
0000
0000
1000
0100
1000
0100
0000
0000
0011
0000
0000
,
0001
0101
0100
0110
,
0010
0000
0000
1010
0000
0000
1000
0000
0000
0001
1000
0001
,
1000
0000
0100
0010
0000
0010
0001
0000
0000
1000
0001
1000
,
0001
0000
0000
0100
0000
0010
0100
0000
0000
0101
0000
0001
,
0100
0000
0000
0110
0000
0010
1000
0000
0000
1010
0000
1000
,
0001
0000
0000
0011
0000
0010
0001
0000
0000
1001
0000
0000
,
0001
0010
0001
0010
0000
0000
0100
0000
0000
1000
0000
0000
,
0001
1000
0001
1000
0000
0000
0001
0000
0000
0100
0000
0000
,
0010
0100
0010
0100
0000
0000
0001
0000
0000
1000
0000
0000
,
0001
0100
0001
0100
0000
0000
0010
0000
0000
1001
0000
1000
,
0100
0000
0100
0010
0000
0010
0001
0000
0001
0100
0001
0100
,
1000
0000
1000
0100
0000
0100
0001
0000
0001
1000
0000
0000
,
1100
0000
0000
0110
0000
0000
0011
0000
0000
0001
1000
0001
,
1000
0001
1000
0001
1000
0001
1000
0001
2000
0002
0000
0000
,
3003
1001
0001
0101
,
0100
0010
1010
1000
1100
0100
0110
0010
,
0011
0000
0001
0000
1001
0000
0000
0000
1000
0000
0001
0010
0000
0010
0001
0000
,
1000
0000
0010
0000
0110
0000
0000
0000
1010
0000
0000
1000
0000
0001
1000
0001
,
0000
1000
0100
0000
0010
0000
0001
0000
0010
0000
0001
0000
1000
0000
0001
0000
,
1000
0001
1000
0010
0100
0001
0010
0200
,
0000
0000
0310
0001
1000
0001
0100
0010
,
1000
0010
0100
0001
0010
0100
0010
0002
,
0000
0000
1003
0001
1000
0010
0100
0001
,
0100
0010
1000
0100
0010
0100
0010
0002
,
0000
0000
1003
0100
0010
0001
1000
0010
,
0100
0001
0100
1000
0100
0001
0010
0100
,
0010
0001
1001
0000
1001
0000
1100
0000
,
0110
0011
1001
0101
,
0110
0000
1010
0000
1000
0100
0010
0001
,
1000
0000
0000
0010
0000
0000
0100
0000
0000
0001
0000
0000
1000
0000
0001
0000
1000
0000
0001
0000
1000
0000
0001
0000
,
1000
0001
1000
0001
1000
0001
0100
0000
0000
0000
0000
0000
;

//---------------dance-single - ----------------
#NOTES:
     dance-single:
     :
     Beginner:
     3:
     0.196,0.278,0.163,0.000,0.000: // measure 1
1001
0000
0000
0000
,  // measure 2
0001
0000
0000
0000
,  // measure 3
0100
0000
0100
0000
,  // measure 4
0010
0000
0010
0000
,  // measure 5
0100
0000
0000
0000
,  // measure 6
0010
0000
0000
0000
,  // measure 7
1000
0000
1000
0000
,  // measure 8
0001
0000
0001
0000
,  // measure 9
1000
0000
0000
0000
,  // measure 10
0001
0000
0000
0000
,  // measure 11
0010
0000
0001
0000
,  // measure 12
0010
0000
0001
0000
,  // measure 13
1000
0000
0000
0000
,  // measure 14
0001
0000
0000
0000
,  // measure 15
0100
0000
0001
0000
,  // measure 16
0100
0000
0001
0000
,  // measure 17
1001
0000
1001
0000
,  // measure 18
1001
0000
1000
0000
,  // measure 19
0100
0000
0110
0000
,  // measure 20
0000
0000
1001
0000
,  // measure 21
0000
0000
1000
0000
,  // measure 22
0001
0000
1000
0000
,  // measure 23
0001
0000
0100
0000
,  // measure 24
0001
0000
0100
0000
,  // measure 25
0001
0000
1000
0000
,  // measure 26
0010
0000
1000
0000
,  // measure 27
0010
0000
0100
0000
,  // measure 28
0010
0000
0100
0000
,  // measure 29
0001
0000
1000
0000
,  // measure 30
0000
0000
0001
0000
,  // measure 31
0000
0000
1000
0000
,  // measure 32
1000
0000
0010
0000
,  // measure 33
0010
0000
0100
0000
,  // measure 34
0000
0000
0001
0000
,  // measure 35
0000
0000
0010
0000
,  // measure 36
0001
0000
1000
0000
,  // measure 37
0001
0000
0100
0000
,  // measure 38
0000
0000
0010
0000
,  // measure 39
0000
0000
1000
0000
,  // measure 40
0000
0000
0001
0000
,  // measure 41
0000
0000
1000
0000
,  // measure 42
0000
0000
0001
0000
,  // measure 43
0000
0000
0010
0000
,  // measure 44
0100
0000
0010
0000
,  // measure 45
0001
0000
1001
0000
,  // measure 46
1001
0000
0001
0000
,  // measure 47
0100
0000
0110
0000
,  // measure 48
0010
0000
1000
0000
,  // measure 49
0001
0000
0000
1001
,  // measure 50
0000
1001
0000
1000
,  // measure 51
0000
0100
0000
0010
,  // measure 52
0000
0001
0000
1001
,  // measure 53
0000
0000
0000
1000
,  // measure 54
0000
1000
0000
1000
,  // measure 55
0000
1000
0000
0001
,  // measure 56
0000
0001
0000
0001
,  // measure 57
0000
0001
0000
0100
,  // measure 58
0000
0100
0000
0100
,  // measure 59
0000
0100
0000
0010
,  // measure 60
0000
0010
0000
0010
,  // measure 61
0000
0010
0000
0100
,  // measure 62
0000
0010
0000
0100
,  // measure 63
0000
0010
0000
1000
,  // measure 64
0000
0010
0000
1000
,  // measure 65
0000
0010
0000
0100
,  // measure 66
0000
0001
0000
0100
,  // measure 67
0000
0001
0000
1000
,  // measure 68
0000
0001
0000
1000
,  // measure 69
0000
0001
0000
1001
,  // measure 70
0000
1001
0000
1001
,  // measure 71
0000
0110
0000
0110
,  // measure 72
0000
1001
0000
0000
,  // measure 73
0000
0110
0000
0000
,  // measure 74
0000
1000
0000
1000
,  // measure 75
0000
0001
0000
0001
,  // measure 76
0000
0100
0000
0010
,  // measure 77
0000
0100
0000
0010
,  // measure 78
0000
0100
0000
0100
,  // measure 79
0000
0010
0000
0010
,  // measure 80
0000
1000
0000
0001
,  // measure 81
0000
1000
0000
0100
,  // measure 82
0000
0010
0100
0000
,  // measure 83
0010
0000
0100
0000
,  // measure 84
0010
0000
0001
0000
,  // measure 85
1000
0000
0001
0000
,  // measure 86
1000
0000
1001
0000
;

//---------------dance-single - ----------------
#NOTES:
     dance-single:
     :
     Challenge:
     10:
     0.858,0.939,0.488,0.171,0.940:
1000
0000
0001
0100
0000
0000
0010
0000
0100
0001
0000
0000
,
1000
0000
0100
0010
0000
0100
0010
0000
0000
0001
0000
0000
,
1000
0100
0001
0100
,
1000
0100
0001
0100
,
1000
0000
0001
0100
0000
0000
0010
0000
0100
0001
0000
0000
,
1000
0000
0001
0010
0000
0010
0001
0000
0001
1000
0000
0000
,
0001
0100
0001
1000
,
0100
0001
0100
0010
,
0001
0000
0001
1000
0000
1000
0010
0000
0010
0100
0000
0100
,
0001
0000
0001
1000
0000
1000
0100
0000
0100
0010
0000
0000
,
0001
0000
0100
0001
0000
0100
0010
0000
0100
1000
0000
0100
,
0010
0000
1000
0010
0000
1000
0100
0000
1000
0001
0000
0000
,
1000
0001
1000
0100
0000
0100
0010
0000
0010
0001
0000
0001
,
1000
0001
1000
0010
0000
0010
0100
0000
0100
0001
0000
0000
,
1000
0000
0100
0000
1000
0000
0001
0000
0010
0000
0001
0000
,
1000
0010
1000
0010
1000
0010
0100
0001
0100
0001
0100
0002
,
2000
3003
2200
3300
,
0022
0000
0033
1001
1001
0001
0101
0000
,
0110
0000
0000
0000
1001
0000
1000
0000
1100
0000
0100
0000
0010
0000
0001
1000
,
0000
1000
0001
0100
0010
0000
0100
0001
0100
0000
0001
0000
1000
0000
0100
0010
,
0000
0100
1000
0001
1000
0000
0001
0000
0100
0000
0001
0000
0100
0000
1000
0000
,
0100
0001
0100
1000
0100
0010
1000
0100
,
0010
0000
0100
0000
1000
0001
1000
0000
0001
0000
0010
0000
0100
0000
0010
0000
,
0001
0000
0010
0000
0100
0000
1000
0000
0100
0000
0001
0000
0100
0000
1000
0100
,
1000
0000
0100
0000
0010
0001
0010
0000
0011
0000
0000
0000
1100
0000
0000
0000
,
1010
0101
0110
1001
,
0110
0000
0000
1001
0000
0000
1000
0000
0010
0000
1000
0000
,
0001
0000
1000
0000
0001
0000
0010
0001
1000
0001
1000
0001
,
1000
0010
0100
0001
0100
0001
1000
0000
0001
1000
0000
0000
,
0001
0000
0100
0001
0000
0000
1000
0100
1000
0100
0000
0100
,
0010
0000
0010
0001
0000
0000
1001
0000
0000
1000
0000
0000
,
1010
0010
0110
0100
,
0101
0000
0000
0001
0000
0000
1000
0000
1000
0100
0000
0100
,
1000
0000
1000
0001
0000
0001
0100
0001
0100
0010
0000
0010
,
1000
0000
0000
0000
1000
0000
0001
0000
0000
0000
0000
0000
1000
0000
0000
0100
0000
0000
0001
0000
0000
0100
0000
0000
,
0010
0000
0000
0001
0000
0000
0100
0000
0000
0010
0000
0000
1000
0000
0000
0001
0000
0000
0100
0000
0010
0000
1000
0000
,
0001
1000
0001
1000
0001
0010
0100
0000
0000
0011
0000
0000
,
0001
0000
1000
0001
0000
1000
0010
0000
0000
0101
0000
0000
,
0010
0000
1000
0001
0000
1000
0100
0000
0000
0011
0000
0000
,
0101
0000
0000
1001
0000
1000
0100
0000
0000
0110
0000
0010
,
0001
0000
0010
0001
0000
1000
0100
0000
0000
1100
0000
0000
,
1000
0000
0001
0100
0000
1000
0100
0000
0001
0010
0000
1000
,
0010
0000
0010
0001
0000
0001
1000
0000
1000
0001
0000
0001
,
0100
0000
0100
0001
0000
0001
1000
0100
1000
0100
1000
0100
,
0010
0001
0010
0001
0010
0001
2000
0000
0000
3000
0000
0000
,
0201
0000
0001
0000
0310
0000
1010
1000
,
1100
0000
0100
0000
0101
0000
0001
0000
0011
0000
1000
0000
0100
0000
0010
0001
,
1000
0001
1000
0000
0001
0000
0100
0010
0100
0000
0010
0000
1010
0000
1000
0100
,
0000
0010
0001
0010
0000
0001
2000
0000
3001
0000
0000
0000
1001
0000
1010
0000
,
0101
0000
0000
0000
0000
0000
0001
0000
1000
0000
0100
0000
1000
0000
0000
0000
0001
0000
0000
0000
0010
0000
0001
0000
0100
0000
0000
0000
0000
0000
0100
0001
,
0100
0000
0001
0100
0001
1000
0010
1000
0000
0100
0010
0100
2200
0000
0000
0000
,
3300
0000
1002
0000
0103
0000
0120
2030
,
3200
0000
0000
0320
0000
0000
0230
0000
0000
0320
0000
0000
0032
0000
0000
2003
0000
0000
3001
0000
0000
0000
0100
0000
,
0001
0100
0001
1000
0000
0010
1000
0010
0100
0001
0000
0010
,
0001
0000
1000
0000
0001
0000
0100
0000
0000
0000
0100
0000
0010
0000
0000
0000
0010
0000
1000
0000
0000
0100
0000
0000
,
1000
0000
0001
0010
0001
0000
1000
0010
,
1000
0000
0000
0000
0000
0000
0001
0000
0000
0100
0000
0000
0001
0000
0000
0000
0000
0000
1000
0000
0000
0000
0001
0000
,
0010
0100
0010
0001
0000
1000
0010
0100
0010
1000
0000
0010
,
0100
0001
0100
0010
0000
1000
0100
0000
0010
0001
0000
0100
,
0000
0010
0000
1000
0000
0100
0000
0010
0000
0001
0000
1000
,
0000
0001
0000
0100
0000
1000
0100
0010
0100
0001
0000
0001
,
0100
0000
0100
0010
0000
0010
1000
0000
1000
0001
0000
0001
,
1000
0000
1000
0100
0010
0001
0010
0001
0100
0010
0000
0010
,
1000
0000
1000
0001
0000
0001
0010
0000
0010
0001
0000
0001
,
0100
0000
0100
0001
0000
0000
1010
0000
0000
1000
0000
0001
,
0100
0000
0100
0010
0000
0010
1000
0000
1000
0100
0000
0100
,
0001
0000
0001
0100
0000
0100
1000
0000
1000
0001
1000
0001
,
1000
0001
0100
0001
0100
0010
0100
0010
1000
0010
1000
0100
,
1000
0100
0010
0001
0010
0001
1000
0001
0100
0020
0000
0000
,
0130
0000
1001
0000
1100
0000
1001
0100
,
1001
0000
0000
0010
0000
0000
0011
0000
0000
0100
0000
0000
1010
0000
0000
0100
0000
0000
0011
0000
0000
0001
1000
0001
,
1000
0000
0000
0000
0000
0000
0001
0000
0000
0000
0000
0000
0101
0000
0000
0000
0000
0000
0100
0000
0000
0000
0000
0000
0010
0000
0000
0000
0000
0000
1000
0000
0000
0100
0000
0000
0000
0000
0000
0010
0000
0000
0001
0000
0010
0000
0001
0000
,
1000
0000
0000
1000
0100
0000
0010
0000
0110
0000
0100
1000
0000
0001
1000
0101
,
0000
0001
1100
0000
0100
0000
0010
0000
0001
0000
0010
0000
0100
0000
0001
0000
,
0100
0000
1000
0000
0001
0000
0100
0001
0100
0000
0001
0000
1000
0000
0100
0000
,
0110
0000
0010
0001
0100
1000
0001
0010
,
1000
0000
0100
0000
0010
0000
0100
1000
0001
0000
1000
0000
0001
0000
0100
0000
,
0010
0000
1000
0010
0100
0000
0001
0000
0010
0000
0100
0000
0001
0000
0100
0000
,
1000
0000
0000
0001
0000
0000
1000
0000
0001
0000
1000
0000
0001
0000
0000
0100
0000
0000
0010
0000
0000
1000
0000
0000
,
0100
0010
0011
0000
0001
0100
1000
0100
,
0001
1000
0100
0010
1000
0010
0011
0001
,
0101
0100
0110
0000
1010
0000
0101
0000
,
0011
0000
0000
1001
0000
0000
1000
0100
1000
0100
0000
0000
,
0010
0000
0000
0000
0001
0000
0000
0000
0010
0000
0000
0000
0001
0000
0000
0000
0000
0000
0000
0000
0000
0000
0000
0000
1000
0000
0000
0000
0000
0000
0001
0000
0000
0000
0000
0000
0100
0000
0000
0001
0000
0000
0100
0000
0000
0000
0000
0000
,
0010
0000
0000
1000
0000
0000
0010
0000
0000
0000
0000
0000
1000
0000
0000
0001
0000
0000
1000
0000
0000
0000
0000
0000
0001
0000
0000
0000
0010
0000
0000
0000
0001
0000
0000
0000
0010
0000
0000
0000
0100
0000
0000
0000
1000
0000
0000
0000
,
0100
1000
0001
0100
0010
0100
0001
0000
0000
0000
0000
0000
;
