#TITLE:Hope & Glory;
#SUBTITLE:;
#ARTIST:Måns Zelmerlöw;
#TITLETRANSLIT:;
#SUBTITLETRANSLIT:;
#ARTISTTRANSLIT:;
#CREDIT:;
#BANNER:;
#BACKGROUND:;
#LYRICSPATH:;
#CDTITLE:;
#MUSIC:Hope & Glory.mp3;
#OFFSET:-7.410;
#SAMPLESTART:35.070;
#SAMPLELENGTH:14.760;
#SELECTABLE:YES;
#BPMS:0.000=130.000;
#STOPS:143.500=1.846
;
#BGCHANGES:;

//---------------dance-single - ----------------
#NOTES:
     dance-single:
     :
     Hard:
     7:
     0.462,0.436,0.251,0.117,0.046: // measure 1
1000
0000
0001
0000
0100
0000
0010
1000
,  // measure 2
0000
1100
0000
0011
0000
0001
0100
0100
,  // measure 3
1000
0000
0100
0000
0001
0001
1000
0100
,  // measure 4
0000
0011
0000
1001
0000
1000
0001
1000
,  // measure 5
0020
0100
0001
0100
,  // measure 6
2030
0000
0010
0000
0001
0000
0100
0100
,  // measure 7
3100
0000
0010
0001
0000
0010
0001
0000
0000
0000
1000
0001
0000
1000
0001
0000
,  // measure 8
1000
0000
1100
0000
0010
0001
0100
0010
,  // measure 9
0100
0000
1000
0000
0100
0001
1000
0100
,  // measure 10
0000
0011
0000
1001
0000
1000
0010
0100
,  // measure 11
0001
0000
0010
0000
0100
0010
0001
0100
,  // measure 12
0000
0110
0000
1001
0000
1000
0001
0100
,  // measure 13
0010
0000
0100
0100
0100
0000
0001
1000
,  // measure 14
0000
0001
1000
0100
0000
0010
0100
1000
,  // measure 15
0001
0000
1000
0001
0100
0000
0010
0000
,  // measure 16
0220
0330
2002
3003
,  // measure 17
1100
0000
1001
0000
0001
0100
1000
0100
,  // measure 18
0001
0000
1000
0000
0100
0010
0100
0000
,  // measure 19
0010
0001
0100
0000
0010
1000
0100
1000
,  // measure 20
0001
0000
0100
0000
1000
0100
0001
1000
,  // measure 21
0100
0010
0001
0000
1000
0010
1000
0100
,  // measure 22
0010
0000
0001
0000
0100
1000
0100
0001
,  // measure 23
1000
0001
1000
0000
0010
0100
0010
0000
,  // measure 24
0100
0001
1000
0000
0100
1000
0001
0000
,  // measure 25
0101
0000
1001
0000
1000
0010
0100
0001
,  // measure 26
0010
0000
0110
0000
0100
1000
0001
1000
,  // measure 27
0010
0100
0010
0000
0100
0001
0010
0100
,  // measure 28
0010
0001
1000
0000
0101
0000
1001
0000
,  // measure 29
1100
0000
0010
0001
0100
0000
0001
1000
,  // measure 30
0000
1000
0100
0010
0100
1000
0001
0100
,  // measure 31
0002
0010
1000
0100
,  // measure 32
2003
0000
0010
0000
0001
0001
3001
0000
,  // measure 33
1000
0001
1000
0001
0100
0001
0100
0001
,  // measure 34
0010
0100
0010
0100
1000
0001
1000
0000
,  // measure 35
0001
0010
0001
0010
0100
1000
0100
1000
,  // measure 36
0010
1000
0010
0100
0001
0010
0100
1000
,  // measure 37
0002
0000
0000
0000
0000
0000
1000
0000
0100
0000
0010
0000
,  // measure 38
0020
0000
0000
0033
0000
0000
0010
0000
0001
0000
1000
0001
,  // measure 39
1000
0000
0001
0000
1000
0000
0001
1000
,  // measure 40
0010
0000
0100
0000
0010
0100
0010
0000
,  // measure 41
0220
0000
0000
0330
,  // measure 42
0110
0000
0000
1010
0000
0000
1000
0000
1001
0000
0000
0011
0000
0000
0010
0000
,  // measure 43
0100
0010
0001
1000
0010
0100
0010
1000
,  // measure 44
0000
0100
0001
0100
1000
0010
0100
0001
,  // measure 45
1000
0000
0001
0000
0100
0001
1000
0100
,  // measure 46
1000
0000
0100
0000
0010
0100
0010
0000
,  // measure 47
0011
0000
0001
0100
0000
1000
0100
0001
,  // measure 48
1000
0000
0100
0001
0000
0100
1000
0001
,  // measure 49
1000
0010
0100
0001
0001
1000
0100
0010
,  // measure 50
0100
1000
0001
0100
0110
0000
1001
0000
,  // measure 51
1100
0000
0011
0000
0010
0001
0100
1000
,  // measure 52
0100
0000
0001
0000
1000
0100
1000
0001
,  // measure 53
0020
1000
0001
1000
,  // measure 54
0032
0000
0100
0000
1000
1000
1003
0000
,  // measure 55
1000
0100
0010
0100
1000
0010
0100
0001
,  // measure 56
0010
0100
0010
0001
1000
0001
1000
0010
,  // measure 57
1000
0100
0001
0100
0010
0001
0100
1000
,  // measure 58
0100
0001
1000
0100
0010
0001
1000
1001
;

//---------------dance-single - ----------------
#NOTES:
     dance-single:
     :
     Medium:
     4:
     0.309,0.339,0.067,0.184,0.000:
1000
0000
0100
0000
0010
0000
0000
0010
,
0000
0100
0000
1000
0000
0000
0001
0000
,
0100
0000
0010
0000
0100
0000
0000
0010
,
0000
0100
0000
0010
0000
0000
0000
0000
,
1000
0001
0000
1000
0001
1000
0000
0010
,
1000
0010
0000
0100
0010
0100
0000
0010
,
1000
0100
0010
0001
,
1000
1010
0100
1001
,
1000
0000
0001
0000
0100
0000
0010
0010
,
0000
0100
0000
0001
0000
0000
1000
0000
,
0100
0000
0010
0000
0100
0000
0010
0010
,
0000
0100
0000
0010
0000
0001
1000
0000
,
0001
0000
1000
0010
1000
0000
0000
0000
,
0010
1000
0100
0010
,
0001
0000
1000
0001
1000
0000
0000
0000
,
2002
3003
0220
0330
,
1000
0000
0001
0000
1000
0000
0001
0100
,
0001
1000
0010
0000
,
0100
0000
0010
0000
1000
0000
0001
1000
,
0001
1000
0100
0000
,
0010
0000
0100
0000
1000
0000
0001
1000
,
0001
0000
1000
0000
0010
0000
0100
0010
,
0200
0000
0302
0000
,
2003
0000
3200
0000
,
0310
0000
0001
0000
1000
0000
0001
1000
,
0000
1000
0001
0000
0100
0000
0010
0000
,
1000
0001
1000
0000
0000
0000
0001
0000
,
0010
0100
0010
0000
0001
0000
1000
0000
,
0001
0000
1000
0000
0010
0000
0100
0010
,
0100
0000
0010
0000
1000
0000
0001
2000
,
0000
0000
3020
0000
,
0230
0000
0001
0001
,
0301
1000
0100
0001
,
0100
0000
1000
0000
0001
0100
0001
0000
,
1000
0100
0010
0001
,
1000
0000
0001
0000
1000
0001
1000
0001
,
2000
0000
0000
0000
,
0002
0000
0000
3003
,
1000
0100
0010
0001
,
0100
0000
0010
0000
0100
0010
0100
0000
,
0220
0000
0000
0330
,
0202
0303
2020
3030
,
1001
1000
0100
0001
,
0100
0000
0010
0000
0001
0010
0001
0000
,
1000
0010
0100
0001
,
1000
0000
0001
0000
1000
0000
0100
1000
,
0100
0000
1000
0000
0001
0000
0100
0001
,
0000
0001
1000
0000
0100
0000
0010
0001
,
0010
0000
0001
0000
0100
0000
0010
1000
,
0010
1000
0001
1000
,
0001
0000
0001
0000
0001
0000
1000
0100
,
1000
0001
0100
0010
,
2000
0000
3002
0000
,
0203
0000
0010
0001
,
0310
1000
0001
1000
,
0100
0000
0010
0000
0100
0010
0100
0000
,
0010
0001
0100
0010
,
1000
0000
0001
0000
1000
0001
1000
0001
;

//---------------dance-single - ----------------
#NOTES:
     dance-single:
     :
     Easy:
     2:
     0.186,0.241,0.084,0.067,0.000:
1000
0000
0001
0000
,
0100
0010
0100
0000
,
0001
0000
1000
0000
,
0100
0010
0100
0000
,
0010
0000
0001
0000
,
1000
0000
0010
0000
,
0200
0000
0000
0000
,
0001
0001
0301
0000
,
0001
0000
1000
0000
,
0001
1000
0100
0000
,
1000
0000
0001
0000
,
1000
0001
0100
0000
,
0010
0000
0100
0000
,
0001
0000
1000
0100
,
1000
0000
0001
0000
,
1001
0000
0110
0000
,
1001
0000
1000
0000
,
0001
0001
0001
0000
,
0100
0000
0010
0000
,
0100
0100
0100
0000
,
0010
0000
1000
0000
,
0100
0100
0100
0000
,
0010
0000
0001
0000
,
1000
0000
0001
0000
,
0100
0010
0100
0000
,
0010
1000
0010
0000
,
1000
0000
0001
0000
,
1000
0000
0100
1000
,
0100
0000
0010
0000
,
0001
0010
0001
0000
,
1000
0000
0001
0000
,
0100
0000
0010
0000
,
0120
0000
1000
0000
,
0100
0000
1000
0000
,
0230
0000
0010
0000
,
0001
0000
0020
0330
,
0220
0000
0000
0330
,
2002
0000
0000
3003
,
1001
0000
0000
0000
,
0001
1000
0001
0000
,
0110
0000
0000
0000
,
0110
0000
1001
0000
,
1000
0000
0100
0000
,
0010
0001
0010
0001
,
1000
0000
0001
0000
,
0100
0000
0010
0000
,
0100
0000
0001
1000
,
0001
1000
0001
0000
,
1000
0000
0100
0000
,
0010
0000
0001
0010
,
0001
0000
1000
0001
,
0100
0100
0100
0000
,
0010
0000
1000
0000
,
0100
0010
0100
0010
,
0001
0000
1000
0000
,
0001
0001
0001
0001
,
0001
0000
1000
0000
,
0010
0010
0010
0010
;

//---------------dance-single - ----------------
#NOTES:
     dance-single:
     :
     Beginner:
     1:
     0.119,0.144,0.059,0.000,0.000:
1000
0000
0001
0000
,
0100
0000
0010
0000
,
0100
0000
0001
0000
,
1000
0000
0100
0000
,
0010
0000
0000
0000
,
0100
0000
1000
0000
,
0001
0000
0000
0000
,
1000
0000
0001
0000
,
0100
0000
0010
0000
,
0100
0000
0001
0000
,
1000
0000
0001
0000
,
1000
0000
0100
0000
,
0010
0000
0000
0000
,
0001
0000
0000
0000
,
1000
0000
0000
0000
,
1001
0000
0000
0000
,
1000
0000
0001
0000
,
0100
0000
0010
0000
,
0100
0000
0001
0000
,
1000
0000
0001
0000
,
1000
0000
0100
0000
,
0010
0000
0000
0000
,
0100
0000
0000
0000
,
0010
0000
0001
0000
,
1000
0000
0001
0000
,
1000
0000
0000
0000
,
0010
0000
0000
0000
,
0100
0000
0010
0000
,
0100
0000
0001
0000
,
1000
0000
0100
0000
,
0010
0000
0000
0000
,
0110
0000
0000
0000
,
1001
0000
0001
0000
,
1000
0000
0010
0000
,
0100
0000
0010
0000
,
1000
0000
0001
0000
,
1000
0000
0000
0000
,
0001
0000
0000
0000
,
1001
0000
0000
0000
,
0000
0000
0000
0000
,
0110
0000
0000
0000
,
1001
0000
0000
0000
,
1001
0000
1000
0000
,
0100
0000
0010
0000
,
0100
0000
0000
0000
,
0010
0000
0000
0000
,
0001
0000
1000
0000
,
0001
0000
0100
0000
,
0010
0000
0000
0000
,
0100
0000
0010
0000
,
0100
0000
0001
0000
,
1000
0000
0100
0000
,
0010
0000
0000
0000
,
0001
0000
1000
0000
,
0001
0000
0100
0000
,
0010
0000
1000
0000
,
0001
0000
1000
0000
,
0100
0000
0100
0000
;
