#TITLE:G59;
#SUBTITLE:;
#ARTIST:The Angry Golden Lion;
#TITLETRANSLIT:;
#SUBTITLETRANSLIT:;
#ARTISTTRANSLIT:;
#GENRE:;
#CREDIT:;
#MENUCOLOR:;
#METERTYPE:DDR;
#BANNER:;
#BACKGROUND:;
#LYRICSPATH:;
#CDTITLE:;
#MUSIC:G59.mp3;
#OFFSET:-2.860;
#SAMPLESTART:36.700;
#SAMPLELENGTH:11.300;
#SELECTABLE:YES;
#LISTSORT:;
#BPMS:0.000=170.000;
#STOPS:;
#BGCHANGES:;
#ATTACKS:;

//---------------dance-single - ----------------
#NOTES:
     dance-single:
     :
     Hard:
     9:
     0.707,0.698,0.601,0.102,0.326: // measure 1
0000
0000
0000
0000
,  // measure 2
0000
0000
0000
0000
0000
0000
0000
0000
0011
0000
0000
1100
0000
0000
1001
0000
,  // measure 3
2002
0000
0000
0000
,  // measure 4
0000
0000
0000
0000
3003
0000
0000
0000
1010
0000
0000
0101
0000
0000
1001
0000
,  // measure 5
2002
0000
0000
0000
3003
0000
0000
0000
0001
0000
0000
1000
0000
0000
0100
0000
,  // measure 6
0010
0000
0000
0100
0000
0000
1000
0000
0010
0000
0000
1010
0000
0000
1001
0000
,  // measure 7
0001
0000
0000
0000
1000
0000
0000
0000
0100
0000
0000
0000
0010
0000
0000
0000
0001
0000
0000
0000
1000
0000
0000
0000
0100
0000
0000
0000
0010
0000
0000
0000
0001
0000
0000
0000
1000
0000
0000
0100
0000
0000
1000
0000
0000
0100
0000
0000
,  // measure 8
1000
0000
0000
0000
,  // measure 9
0001
0010
0001
1000
0010
0100
0001
0010
,  // measure 10
0001
1000
0010
1000
0010
1000
0100
0010
,  // measure 11
0100
1000
0000
0001
1000
0010
0100
0001
,  // measure 12
0010
0001
0000
1000
0010
0100
0001
1000
,  // measure 13
0100
0010
0001
1000
0100
1000
0001
1000
,  // measure 14
0010
0100
0001
0010
0001
1000
0100
1000
,  // measure 15
0001
0010
0100
1000
0001
0010
0100
1000
,  // measure 16
0002
0010
1000
0103
,  // measure 17
1010
0000
0000
0101
0000
0000
0011
0000
,  // measure 18
0000
1100
0000
0010
0001
0010
0100
0010
,  // measure 19
0001
0000
0000
0101
0000
0000
1010
0000
,  // measure 20
0000
1100
0000
1000
0100
0010
0110
0000
,  // measure 21
0011
0000
0001
0011
0000
1000
1010
0000
,  // measure 22
0010
0110
0000
0100
0010
0100
0001
1000
,  // measure 23
1001
0000
0001
0101
0000
0100
0110
0000
,  // measure 24
0010
0000
1010
0000
0000
0000
1000
0000
0100
0000
0010
0000
0001
0000
1000
0001
,  // measure 25
1000
0001
1000
0001
0100
0001
0100
0001
,  // measure 26
1000
0000
0100
0000
1000
0000
0100
0000
0010
0000
0000
0011
0000
0000
0001
0000
,  // measure 27
0100
0001
1000
0010
0100
0001
1000
0010
,  // measure 28
1000
0000
0100
0000
0010
0000
0001
0000
1000
0000
0000
1001
0000
0000
0001
0000
,  // measure 29
0100
0010
0100
0010
1000
0001
1000
0001
,  // measure 30
0010
0000
0001
0000
0010
0000
0001
0000
1000
0000
0000
1100
0000
0000
0100
0000
,  // measure 31
0010
0000
0000
0011
0000
0000
0001
0000
1000
0000
0000
1010
0000
0000
0010
0000
,  // measure 32
0100
0000
0000
0101
0000
0000
0001
0000
1000
0000
0100
0000
0010
0000
0100
0000
,  // measure 33
1100
0000
0000
0011
0000
0000
0101
0000
,  // measure 34
0000
1010
0000
0000
1000
0100
0010
0100
,  // measure 35
1100
0000
0000
0011
0000
0000
0101
0000
,  // measure 36
0000
1010
0000
0000
0001
0100
0101
0000
,  // measure 37
0001
0100
0100
0010
1000
1000
0100
0010
,  // measure 38
0010
0001
0100
0100
0010
1000
0001
0100
,  // measure 39
0001
0010
0010
0001
1000
1000
0100
0010
,  // measure 40
0010
0100
1000
1000
0010
0100
0001
0000
,  // measure 41
1000
0001
1000
0001
0100
0001
0100
0001
1000
0100
0010
0001
,  // measure 42
0020
0000
0000
0030
,  // measure 43
1000
0000
0000
1000
0100
0000
0000
0100
0010
0000
0000
0010
0001
0000
0000
0001
,  // measure 44
1000
0001
0010
0001
0100
0010
1000
0100
,  // measure 45
0010
0100
1000
0010
0100
0001
1000
0100
,  // measure 46
0001
0100
1000
0010
0100
0001
0010
0001
,  // measure 47
0100
0010
1000
0100
0010
0001
1000
0010
,  // measure 48
1000
0000
0001
0000
0100
0000
0001
0000
1000
0000
0000
0001
0000
0000
0100
0000
,  // measure 49
0001
0000
0000
0001
1000
0000
0000
1000
0100
0000
0000
0100
0010
0000
0000
0010
,  // measure 50
0100
1000
0010
0100
0001
0010
0001
1000
,  // measure 51
0010
0000
0100
0000
0001
0000
0010
0000
0001
0000
0000
1001
0000
0000
1000
0000
,  // measure 52
0100
0000
0000
0100
0010
0000
0000
0010
0001
0000
0000
0001
0100
0000
0000
0100
,  // measure 53
0001
0010
0001
1000
0010
0100
0010
1000
,  // measure 54
0001
1000
0100
1000
0001
1000
0010
1000
,  // measure 55
0100
0000
1000
0000
0010
0000
1000
0000
0001
0000
0000
1001
0000
0000
1000
0000
,  // measure 56
0010
0000
0000
0010
0001
0000
0000
0001
0010
0000
0000
0010
1000
0000
0000
1000
,  // measure 57
0100
0000
0000
0100
1000
0000
0000
1000
0001
0000
0000
0101
0000
0000
1001
0000
,  // measure 58
1000
0000
0000
1100
0000
0000
1001
0000
0011
0000
0000
1100
0000
0000
0110
0000
,  // measure 59
0100
0000
0000
0000
0010
0000
0000
0000
0001
0000
0000
0000
0010
0000
0000
0000
0001
0000
0000
0000
1000
0000
0000
0000
0010
0000
0000
0000
1000
0000
0000
0000
0100
0000
0000
0000
0010
0000
0000
0001
0000
0000
0010
0000
0000
0001
0000
0000
,  // measure 60
0020
0000
0000
0030
,  // measure 61
0001
0000
1000
0000
0001
0000
0000
0001
0100
0000
0001
0000
0100
0000
0010
0000
,  // measure 62
1000
0000
0100
0000
0010
0000
0001
0000
1000
0000
0000
0010
0000
0000
0100
0000
,  // measure 63
0001
0000
1000
0000
0001
0000
0000
0100
0001
0000
1000
0000
0001
0000
1000
0000
,  // measure 64
0100
0000
0010
0000
0100
0000
1000
0000
0001
0000
0000
1001
0000
0000
1000
0000
,  // measure 65
0010
0000
0100
0000
0001
0000
0000
0100
0010
0000
0100
0000
0001
0000
1000
0000
,  // measure 66
0100
0000
0010
0000
0100
0000
1000
0000
0001
0000
0000
0010
0000
0000
0001
0000
,  // measure 67
1000
0000
0000
0100
0000
0000
0001
0000
0100
0000
0000
1000
0000
0000
0010
0000
,  // measure 68
0001
0000
0000
0010
0000
0000
1000
0000
0100
0000
0010
0000
0001
0000
0010
0000
,  // measure 69
0011
0000
0000
1100
0000
0000
1010
0000
,  // measure 70
0000
0101
0000
0000
1000
0010
0100
0001
,  // measure 71
1001
0000
1000
1001
0000
0001
0011
0000
,  // measure 72
1000
1100
0000
0000
0001
0010
0011
0000
,  // measure 73
1001
0000
0010
1010
0000
1000
1001
0000
,  // measure 74
0001
0011
0000
0010
0001
0100
0010
1000
,  // measure 75
1010
0010
0100
0101
0001
0010
0011
0001
,  // measure 76
0100
0110
0010
1000
0100
1000
1001
0000
,  // measure 77
1000
0100
0010
0001
1000
0100
0010
0001
1000
0100
1000
0001
,  // measure 78
0200
0300
2020
3030
,  // measure 79
2002
0000
3003
0000
;

//---------------dance-single - ----------------
#NOTES:
     dance-single:
     :
     Challenge:
     10:
     0.889,0.830,0.753,0.508,0.550:
0000
0000
0000
0000
,
0000
0000
0000
0000
0000
0000
0000
0000
0110
0000
0000
0101
0000
0000
1001
0000
,
2002
0000
0000
0000
,
0000
0000
0000
0000
3003
0000
0000
0000
0110
0000
0000
1100
0000
0000
1001
0000
,
2002
0000
0000
0000
3003
0000
0000
0000
1001
0000
0000
0101
0000
0000
1001
0000
,
1010
0000
0000
0101
0000
0000
0110
0000
0101
0000
0000
0110
0000
0000
1001
0000
,
1000
0000
0000
0000
0100
0000
0000
0000
0010
0000
0000
0000
0001
0000
0000
0000
1000
0000
0000
0000
0100
0000
0000
0000
0010
0000
0000
0000
0001
0000
0000
0000
1000
0000
0000
0000
0100
0000
0000
0010
0000
0000
0001
0000
0000
1000
0000
0000
,
0200
0000
0000
0300
,
1000
0010
0100
0001
1000
0100
0010
0001
,
1000
0010
1000
0001
0100
0001
0010
0001
,
1000
0002
0010
1003
0010
0100
1000
0010
,
1000
0200
0010
0301
1000
0010
0001
0100
,
0101
0001
1000
0010
0100
0001
0010
0001
,
1000
0100
0001
0100
1000
0010
1000
0100
,
0010
0001
0010
0100
1000
0010
0100
0001
,
2002
3003
1010
0101
,
2002
0000
3003
2020
0000
3030
0202
0000
,
0303
2002
0000
3003
1000
0100
0010
0001
,
1001
0000
0000
0000
1000
0002
2000
0000
0000
0000
3003
0000
0202
0000
0000
0000
,
0303
0000
2020
0000
0000
0000
3030
0000
1000
0000
0010
1000
0001
0000
0000
0000
,
1100
1000
0001
0101
0100
0010
0110
0100
,
0001
1001
1000
0100
0010
0100
1000
0010
,
0110
0100
0001
0101
0001
1000
1010
1000
,
0100
0000
0110
0000
0010
0000
0001
0000
1000
0000
0001
1000
0100
0000
0000
0000
,
0010
0000
0001
0010
0001
0000
0100
0000
0010
0000
1000
0010
1000
0000
0001
0000
,
0100
0000
0010
0100
0010
0000
0100
0000
0001
0000
0000
1001
0000
0000
1000
0000
,
0100
0000
0010
0100
0010
0000
0100
0000
1000
0000
0001
0100
0001
0000
1000
0000
,
0010
0000
0100
0001
0100
0000
0010
0000
1010
0000
0000
1001
0000
0000
0101
0000
,
0001
0100
0001
0000
1000
0000
0010
0000
1000
0100
1000
0000
0100
0000
0010
0000
,
0001
0010
0001
0000
0100
0000
0010
0000
1000
0000
0000
0001
0000
0000
1000
0000
,
0001
0000
0000
0101
0000
0000
0100
0000
0010
0000
0000
1010
0000
0000
1000
0000
,
0101
0000
0000
1001
0000
0000
1100
0000
0010
0000
0001
0000
0100
0000
0010
0000
,
0220
0000
0330
2020
0000
3030
2002
0000
,
3003
0022
0000
0033
1000
0100
1000
0001
,
0011
0000
0000
0000
0010
0002
2000
0000
0000
0000
3003
0000
2020
0000
0000
0000
,
3030
0000
0202
0000
0000
0000
0303
0000
0001
0000
1000
0001
1000
0000
0000
0000
,
2010
0100
0010
3002
0010
0100
2003
0010
,
0001
3200
1000
0010
0310
0001
0100
0010
,
2010
0001
0100
3020
0100
0001
2030
0001
,
0010
3200
1000
0010
0301
0100
1000
0010
,
1000
0010
0100
0001
1000
0100
0010
0001
1000
0001
1000
0100
,
0020
0000
0000
0030
,
0001
0010
0001
0000
1000
0010
1000
0000
0010
0000
0100
0000
0001
0000
0010
0000
,
0100
1000
0010
1000
0100
0001
0100
1000
,
0100
0010
0001
1000
0010
0100
0001
0010
,
0100
1000
0100
0000
0010
0001
0010
0000
0001
0000
1000
0010
0000
1000
0010
0000
,
0100
0001
0010
0001
0010
0001
1000
0010
,
0100
0000
0001
0000
0100
0000
0010
0000
1010
0000
0000
0101
0000
0000
1001
0000
,
1000
0100
0010
0000
0001
0100
0010
0000
1000
0000
0010
1000
0000
0001
0100
0000
,
0010
1000
0010
0000
1000
0000
0100
0000
0010
0001
0000
0000
0001
1000
0000
0000
,
1000
0100
0000
0000
0100
0010
0000
0000
0011
0000
0000
1100
0000
0000
1001
0000
,
1000
0100
0010
0100
1000
0000
0010
0000
0100
0000
0001
1000
0000
1000
0100
0000
,
0010
0100
1000
0010
0100
0010
0001
0010
,
1000
0000
0100
0000
0010
0000
0001
0000
1000
0010
0000
0000
0100
0001
0000
0000
,
1000
0100
0000
0000
0010
0001
0000
0000
0101
0000
0000
1010
0000
0000
0101
0000
,
1000
0010
1000
0001
0010
0000
0001
0000
0100
0000
0010
1000
0000
0001
0100
0000
,
0001
1000
0100
1000
0100
0010
0001
0010
0001
0000
0000
0101
0000
0000
0100
0000
,
0110
0000
0000
1010
0000
0000
1000
0000
1100
0000
0000
0011
0000
0000
1001
0000
,
1000
0000
0000
0000
0010
0000
0000
0000
0100
0000
0000
0000
0001
0000
0000
0000
1000
0000
0000
0000
0100
0000
0000
0000
0010
0000
0000
0000
0001
0000
0000
0000
1000
0000
0000
0000
0010
0000
0000
0100
0000
0000
0001
0000
0000
1000
0000
0000
,
0200
0000
0000
0300
,
1000
0100
0000
0010
0001
0000
0100
0000
0001
0100
0000
0010
1000
0000
0010
1000
,
0010
0100
0000
0001
1000
0000
0001
0000
0011
0000
0000
1100
0000
0000
1001
0000
,
1000
0100
0000
0010
0001
0000
1000
0000
0010
1000
0000
0001
0100
0000
0010
0100
,
0010
0100
0000
0001
1000
0000
0100
0000
1100
0000
0000
0011
0000
0000
1100
0000
,
1000
0100
0000
1000
0001
0000
0010
0000
0001
1000
0000
1000
0100
0000
0010
0100
,
1000
0100
1000
0100
0010
0001
0010
0001
1000
0000
0000
1001
0000
0000
0101
0000
,
0100
0000
0000
0010
0000
0000
1000
0000
0100
0000
0000
0010
0000
0000
0001
0000
,
0100
0001
0100
0010
1000
0010
1000
0001
1000
0000
0100
0000
0010
0000
0001
0000
,
0012
0010
0010
2003
0100
0100
3020
0100
,
0100
2030
0001
0001
3100
0010
0001
0100
,
0120
1000
1030
2000
0001
0001
3002
0010
,
0010
0000
0023
0000
0100
0000
0100
0000
0130
0000
1000
0010
0100
0000
0000
0000
,
1010
1000
0100
0110
0010
0001
0011
0001
,
0100
0110
0010
1000
0001
0010
0001
1000
,
1010
0100
0001
0011
0100
1000
1001
0100
,
0010
0000
0110
0000
0001
0000
1000
0000
0100
0000
0010
0001
0010
0001
1000
0100
,
0010
0000
0000
0000
0001
0000
0000
0000
1000
0000
0000
0000
0100
0000
0000
0000
0010
0000
0000
0000
0001
0000
0000
0000
1000
0000
0000
0000
0010
0000
0000
0000
0100
0000
0000
0000
0001
0000
0000
0100
0000
0000
0010
0000
0000
1000
0000
0000
,
0200
0300
0022
0033
,
2002
0000
3003
0000
;

//---------------dance-single - ----------------
#NOTES:
     dance-single:
     :
     Medium:
     7:
     0.510,0.498,0.110,0.152,0.085: // measure 1
0000
0000
0000
0000
,  // measure 2
0000
0000
0000
0000
0000
0000
0000
0000
1000
0000
0000
0001
0000
0000
2000
0000
,  // measure 3
0002
0000
0000
0000
,  // measure 4
0000
0000
0000
0000
3003
0000
0000
0000
0100
0000
0000
0010
0000
0000
0200
0000
,  // measure 5
0020
0000
0000
0000
0330
0000
0000
0000
0100
0000
0000
0001
0000
0000
0100
0000
,  // measure 6
0010
0000
0000
1000
0000
0000
0010
0000
1000
0000
0000
0100
0000
0000
0010
0000
,  // measure 7
0002
0010
1000
0103
,  // measure 8
0220
0000
0000
0330
,  // measure 9
1000
0010
1000
0000
0001
0010
0001
0000
,  // measure 10
1000
0100
0010
0001
,  // measure 11
0100
0010
0000
0010
1000
0001
0010
0000
,  // measure 12
0001
0100
0000
0010
1000
0100
1000
0000
,  // measure 13
0001
0010
0001
0000
1000
0100
1000
0000
,  // measure 14
0001
0010
0100
1000
,  // measure 15
0001
0010
0001
0000
1000
0010
1000
0000
,  // measure 16
0001
0100
0001
0000
1000
0010
1000
0000
,  // measure 17
0001
0000
1000
0010
0000
0010
1000
0000
,  // measure 18
1000
0001
0000
0001
0100
0000
0001
0000
,  // measure 19
1000
0000
0001
0010
0000
0010
0100
0000
,  // measure 20
0100
1000
0000
1000
0010
0100
0001
0000
,  // measure 21
1000
0000
0010
1000
0000
0010
1000
0000
,  // measure 22
0001
0100
0000
0001
0100
0000
0001
0000
,  // measure 23
1000
0000
0001
0010
0000
0001
0010
0000
,  // measure 24
0100
1000
0000
0100
1000
0001
0010
0001
,  // measure 25
0100
0010
1000
0100
,  // measure 26
0010
0000
0000
0000
0001
0000
0000
0000
1000
0000
0000
0001
0000
0000
0100
0000
,  // measure 27
0010
1000
0001
0100
,  // measure 28
0010
0000
0000
0000
1000
0000
0000
0000
0100
0000
0000
0010
0000
0000
0100
0000
,  // measure 29
0010
0001
0010
0000
0001
0100
0001
0000
,  // measure 30
1000
0010
1000
0000
0010
0000
0100
0000
,  // measure 31
0001
1000
0001
0000
1000
0100
1000
0000
,  // measure 32
0001
0010
0001
0000
0100
0001
0100
0010
,  // measure 33
0100
0000
0000
0110
0000
0000
1010
0000
,  // measure 34
0000
0101
0000
0000
1000
0000
0001
0000
,  // measure 35
0011
0000
0000
1100
0000
0000
0011
0000
,  // measure 36
0000
0101
0000
0000
1000
0010
0100
0000
,  // measure 37
0001
0000
1000
0001
0000
0001
1000
0000
,  // measure 38
1000
0100
0000
0100
0010
0000
0100
0000
,  // measure 39
0010
0000
0001
0010
0000
0010
0100
0000
,  // measure 40
0100
0010
0000
0010
0001
1000
0001
0100
,  // measure 41
0010
1000
0001
0100
,  // measure 42
0220
0000
0000
0330
,  // measure 43
1000
0100
1000
0000
0001
0010
0001
0000
,  // measure 44
1000
0010
1000
0000
0001
0100
0001
0000
,  // measure 45
1000
0100
0010
0001
,  // measure 46
1000
0010
1000
0000
0001
0100
0001
0000
,  // measure 47
1000
0100
1000
0000
0001
0010
0001
1000
,  // measure 48
0001
0000
0000
0000
1000
0000
0000
0000
0001
0000
0000
0001
0000
0000
1000
0000
,  // measure 49
0100
0010
0100
0000
0010
0001
0010
0000
,  // measure 50
0001
0100
0001
0000
1000
0010
1000
0000
,  // measure 51
0010
0000
0000
0000
0100
0000
0001
0000
1000
0000
0000
0010
0000
0000
0100
0000
,  // measure 52
0001
1000
0100
0000
1000
0001
0100
0000
,  // measure 53
0001
1000
0010
0000
1000
0001
0010
0001
,  // measure 54
1000
0010
0100
0001
,  // measure 55
1000
0000
0000
0000
0100
0000
0000
0000
0010
0000
0000
0100
0000
0000
1000
0000
,  // measure 56
0001
1000
0001
0000
1000
0010
1000
0000
,  // measure 57
0001
0000
0100
0000
0001
0000
1000
0000
0100
0000
0000
0010
0000
0000
0001
0000
,  // measure 58
0100
0000
0000
0010
0000
0000
0100
0000
0001
0000
0000
1000
0000
0000
0001
0000
,  // measure 59
0100
0010
1000
0100
,  // measure 60
0220
0000
0000
0330
,  // measure 61
0010
0001
0010
0000
0001
0100
0001
0000
,  // measure 62
1000
0000
0000
0000
0010
0000
0000
0000
0100
0000
0000
0001
0000
0000
0100
0000
,  // measure 63
0010
1000
0100
0000
0010
0001
0100
0000
,  // measure 64
0001
0000
0000
0000
1000
0000
0000
0000
0100
0000
0000
0010
0000
0000
0100
0000
,  // measure 65
0010
0001
1000
0000
0010
1000
0001
0000
,  // measure 66
0100
0000
0010
0000
1000
0000
0100
0000
0010
0000
0000
0100
0000
0000
0010
0000
,  // measure 67
0100
0000
0000
1000
0000
0000
0100
0000
1000
0000
0000
0001
0000
0000
0100
0000
,  // measure 68
0001
0000
0000
0010
0000
0000
0001
0000
1000
0000
0000
0010
0000
0000
0100
0000
,  // measure 69
0001
0000
1000
0001
0000
0001
0100
0000
,  // measure 70
0100
0010
0000
0010
1000
0001
0100
0000
,  // measure 71
0001
0000
0010
0001
0000
1000
0100
0000
,  // measure 72
0010
0001
0000
1000
0010
0100
0001
0000
,  // measure 73
0010
0001
0100
0010
0000
1000
0010
0100
,  // measure 74
0001
0010
0000
0001
0100
0001
0100
0000
,  // measure 75
0010
1000
0100
0010
0000
0100
0010
0100
,  // measure 76
0010
0001
0000
0010
0001
1000
0001
0000
,  // measure 77
2000
0010
0001
3100
,  // measure 78
2200
3300
0022
0033
,  // measure 79
2002
0000
3003
0000
;

//---------------dance-single - ----------------
#NOTES:
     dance-single:
     :
     Easy:
     5:
     0.371,0.565,0.296,0.305,0.000: // measure 1
0000
0000
0000
0000
,  // measure 2
0000
0000
2002
3003
,  // measure 3
0220
0000
0000
0000
,  // measure 4
0000
0330
0220
0330
,  // measure 5
2002
3003
0202
0303
,  // measure 6
2020
3030
2200
3300
,  // measure 7
0010
0001
0010
0001
,  // measure 8
2002
0000
0000
3003
,  // measure 9
1000
0010
1000
0010
,  // measure 10
0100
0001
0100
0100
,  // measure 11
0010
1000
0100
0010
,  // measure 12
0100
0010
0001
0001
,  // measure 13
0010
0001
0100
0010
,  // measure 14
1000
0001
0100
0100
,  // measure 15
0010
0000
1000
0000
,  // measure 16
0100
0000
0010
0001
,  // measure 17
0010
0000
0000
0100
0000
0000
0010
0000
,  // measure 18
0000
0001
0000
0000
1000
0000
0010
0000
,  // measure 19
1000
0000
0000
0001
0000
0000
0100
0000
,  // measure 20
0000
0010
0000
0000
1000
0000
1001
0000
,  // measure 21
0001
0000
0000
0010
0000
0000
0001
0000
,  // measure 22
0000
1000
0000
0000
0100
0000
1000
0000
,  // measure 23
0010
0000
0000
0100
0000
0000
0001
0000
,  // measure 24
0000
1000
0000
0000
0100
0000
0010
0000
,  // measure 25
0001
1000
0001
1000
,  // measure 26
0001
0010
0100
0100
,  // measure 27
0010
0001
0100
0010
,  // measure 28
1000
0010
0100
0100
,  // measure 29
0010
1000
0001
1000
,  // measure 30
0100
0010
0100
0100
,  // measure 31
0010
0000
0001
0000
,  // measure 32
0100
0000
0010
0001
,  // measure 33
1001
0000
0000
1000
0000
0000
0010
0000
,  // measure 34
0000
0100
0000
0000
0001
0000
1000
0000
,  // measure 35
0100
0000
0000
0010
0000
0000
0100
0000
,  // measure 36
0000
0010
0000
0000
0001
0000
1001
0000
,  // measure 37
1000
0000
0000
0010
0000
0000
0100
0000
,  // measure 38
0000
0001
0000
0000
0100
0000
0010
0000
,  // measure 39
1000
0000
0000
0100
0000
0000
0010
0000
,  // measure 40
0000
0100
0000
0000
0010
0000
0100
0000
,  // measure 41
0220
0000
0000
0330
,  // measure 42
2002
0000
0000
3003
,  // measure 43
1000
0010
0100
0010
,  // measure 44
1000
0100
0010
0100
,  // measure 45
0010
0001
1000
0010
,  // measure 46
0100
0001
1000
0001
,  // measure 47
0100
0010
1000
0100
,  // measure 48
0010
0100
0110
0000
,  // measure 49
1001
0001
0100
0010
,  // measure 50
1000
0100
1000
0001
,  // measure 51
0010
0100
0110
0000
,  // measure 52
1001
1000
0100
0010
,  // measure 53
0001
0100
0010
1000
,  // measure 54
0010
1000
0001
0100
,  // measure 55
0001
1000
1001
0000
,  // measure 56
0110
0010
0001
1000
,  // measure 57
0010
0100
0220
0330
,  // measure 58
0202
0303
2200
3300
,  // measure 59
1000
0100
0010
0001
,  // measure 60
2002
0000
0000
3003
,  // measure 61
1000
0100
0010
0001
,  // measure 62
0100
0010
0110
0000
,  // measure 63
0100
0010
1000
0100
,  // measure 64
0010
0001
1001
0000
,  // measure 65
1000
0010
0100
0001
,  // measure 66
0010
0100
0110
0000
,  // measure 67
0011
0000
0101
0000
,  // measure 68
1010
0000
1100
0000
,  // measure 69
1001
0000
0000
0001
0000
0000
0010
0000
,  // measure 70
0000
0100
0000
0000
1000
0000
0001
0000
,  // measure 71
1000
0000
0000
0010
0000
0000
0100
0000
,  // measure 72
0000
0001
0000
0000
1000
0000
0010
0000
,  // measure 73
1000
0000
0000
1000
0000
0000
0001
0000
,  // measure 74
0000
0001
0000
0000
0010
0000
0100
0000
,  // measure 75
0010
0000
0000
0100
0000
0000
0010
0000
,  // measure 76
0000
0001
0000
0000
1000
0000
0001
0000
,  // measure 77
2002
0000
0000
3003
,  // measure 78
2020
3030
0202
0303
,  // measure 79
0220
0000
0330
0000
;

//---------------dance-single - ----------------
#NOTES:
     dance-single:
     :
     Beginner:
     2:
     0.167,0.299,0.254,0.017,0.000: // measure 1
0000
0000
0000
0000
,  // measure 2
0000
0000
1001
0000
,  // measure 3
0110
0000
0000
0000
,  // measure 4
0000
0000
0110
0000
,  // measure 5
1001
0000
0001
0000
,  // measure 6
0100
0000
0010
0000
,  // measure 7
0110
0000
0000
0000
,  // measure 8
1001
0000
0000
0000
,  // measure 9
1000
0000
0000
0000
,  // measure 10
0001
0000
0010
0000
,  // measure 11
0001
0000
0100
0000
,  // measure 12
0010
0000
0000
0000
,  // measure 13
0100
0000
0000
0000
,  // measure 14
0001
0000
1000
0000
,  // measure 15
0100
0000
0010
0000
,  // measure 16
0100
0000
0000
0000
,  // measure 17
0010
0000
0000
0000
,  // measure 18
0000
0000
0000
0000
,  // measure 19
0001
0000
0000
0000
,  // measure 20
0000
0000
0000
0000
,  // measure 21
1000
0000
0000
0000
,  // measure 22
0000
0000
0000
0000
,  // measure 23
0010
0000
0000
0000
,  // measure 24
0000
0000
0000
0000
,  // measure 25
0100
0000
0001
0000
,  // measure 26
1000
0000
0100
0000
,  // measure 27
0010
0000
0100
0000
,  // measure 28
0010
0000
0001
0000
,  // measure 29
1000
0000
0001
0000
,  // measure 30
0100
0000
0010
0000
,  // measure 31
1000
0000
0001
0000
,  // measure 32
0100
0000
0010
0000
,  // measure 33
0110
0000
0000
0000
,  // measure 34
0000
0000
0000
0000
,  // measure 35
1001
0000
0000
0000
,  // measure 36
0000
0000
0000
0000
,  // measure 37
0110
0000
0000
0000
,  // measure 38
0000
0000
0000
0000
,  // measure 39
1001
0000
0000
0000
,  // measure 40
0000
0000
0000
0000
,  // measure 41
1000
0000
0010
0000
,  // measure 42
0110
0000
0000
0000
,  // measure 43
0100
0000
0001
0000
,  // measure 44
0010
0000
0100
0000
,  // measure 45
1000
0000
0001
0000
,  // measure 46
0100
0000
0010
0000
,  // measure 47
1000
0000
0100
0000
,  // measure 48
0010
0000
0110
0000
,  // measure 49
0110
0000
0100
0000
,  // measure 50
0010
0000
0100
0000
,  // measure 51
1000
0000
1001
0000
,  // measure 52
1001
0000
0001
0000
,  // measure 53
0100
0000
0010
0000
,  // measure 54
0100
0000
0001
0000
,  // measure 55
1000
0000
1001
0000
,  // measure 56
1001
0000
0001
0000
,  // measure 57
0100
0000
0110
0000
,  // measure 58
0110
0000
1001
0000
,  // measure 59
1001
0000
0000
0000
,  // measure 60
0110
0000
0000
0000
,  // measure 61
1000
0000
1000
0000
,  // measure 62
0001
0000
0001
0000
,  // measure 63
0100
0000
0100
0000
,  // measure 64
0010
0000
0010
0000
,  // measure 65
1000
0000
0010
0000
,  // measure 66
0100
0000
0001
0000
,  // measure 67
1000
0000
0100
0000
,  // measure 68
0010
0000
0001
0000
,  // measure 69
1001
0000
0000
0000
,  // measure 70
0000
0000
0000
0000
,  // measure 71
0110
0000
0000
0000
,  // measure 72
0000
0000
0000
0000
,  // measure 73
1001
0000
0000
0000
,  // measure 74
0000
0000
0000
0000
,  // measure 75
0110
0000
0000
0000
,  // measure 76
0000
0000
0000
0000
,  // measure 77
1001
0000
0000
0000
,  // measure 78
0110
0000
1001
0000
,  // measure 79
0220
0000
0330
0000
;
