#TITLE:Freestyler;
#SUBTITLE:;
#ARTIST:Bomfunk MC's;
#TITLETRANSLIT:;
#SUBTITLETRANSLIT:;
#ARTISTTRANSLIT:;
#CREDIT:;
#BANNER:;
#BACKGROUND:;
#LYRICSPATH:;
#CDTITLE:;
#MUSIC:Freestyler.mp3;
#OFFSET:-8.820;
#SAMPLESTART:35.180;
#SAMPLELENGTH:11.710;
#SELECTABLE:YES;
#DISPLAYBPM:164.000;
#BPMS:0.000=163.850;
#STOPS:;
#BGCHANGES:;

//---------------dance-single - ----------------
#NOTES:
     dance-single:
     :
     Hard:
     9:
     0.590,0.587,0.463,0.000,0.000:
1000
0001
1000
0000
0001
0100
0000
0100
,
0010
0000
0010
1000
0000
1000
0001
1000
,
1001
0000
0001
0100
0010
1000
0000
1000
,
0100
0000
0010
0001
0100
0000
0010
0100
,
0001
0000
1000
0001
1000
0010
0100
0000
,
0010
0100
0001
0010
1000
0010
0001
1000
,
0001
0000
0100
0010
0000
0010
0100
0000
,
0001
1000
0100
0000
0010
0100
0010
0000
,
0011
0000
0001
1000
0010
0100
0001
0000
,
0010
0001
0100
0010
1000
0001
1000
0100
,
0110
0000
0010
0001
1000
0000
1000
0001
,
0000
0001
0100
0100
1000
0100
0001
0000
,
0011
0000
0001
0010
1000
0010
0001
1000
,
0000
1000
0010
0100
0001
0010
0100
0000
,
0110
0000
0010
0001
1000
0001
0100
1000
,
0100
0010
1000
0100
0010
0000
0100
1000
,
0000
1000
0001
0000
1001
0000
0000
0000
,
0010
1000
0001
0100
0000
0100
0001
0000
,
1000
0001
1000
0010
0100
0001
0010
0000
,
0001
0010
0100
0010
0000
0001
0010
0000
,
0011
1100
1010
0101
,
1000
0001
1000
0010
0100
0000
0000
0000
,
0110
0000
0100
0000
0001
0010
0100
0000
,
0010
0001
1000
0010
0000
0100
0001
0000
,
1010
1100
0011
0101
,
0010
1000
0100
0001
0100
0000
0000
0000
,
0110
0000
0010
0001
1000
0010
0000
1000
,
0010
0100
0001
0010
0100
0000
0110
0000
,
0011
0000
0001
1000
0001
0100
0000
0010
,
0100
0001
1000
0100
0010
0000
0011
0000
,
1001
0000
1000
0010
0100
0001
0000
0001
,
0100
0010
1000
0100
0010
0000
0110
0000
,
0100
0010
0001
0000
0001
0100
0000
0100
,
1000
0000
1000
0010
0000
0010
0001
0000
,
0001
0100
0000
0100
1000
0000
1000
0010
,
0000
0010
0001
0000
0001
1000
0000
0000
,
1001
0000
0000
0000
1000
0100
0000
0010
,
0001
0000
0100
0000
0010
1000
0000
0001
,
0100
0000
0001
1000
0100
0010
0100
1000
,
0100
0100
0100
0000
0010
0001
1000
0000
,
1001
0000
0001
0000
0100
0001
0100
0000
,
0010
1000
0100
0010
0000
0100
1000
0001
,
0100
0000
0010
0000
0100
0001
1000
0000
,
0001
0010
0100
1000
0100
0010
0001
0010
,
0011
0000
0001
0000
0100
1000
0100
0000
,
0001
1000
0100
0010
0100
1000
0010
0010
,
0100
0000
0001
0000
1000
0100
1000
0001
,
0100
0100
0010
1000
0000
0001
1000
0100
,
0110
0000
0011
0000
1000
0001
0000
1000
,
0010
0100
0001
1000
0000
1000
0001
0010
,
0100
0010
0100
1000
0100
1000
0001
0100
,
0010
1000
0001
0100
0010
0000
1010
0000
,
1001
0001
0010
0100
,
0010
0001
1000
0001
0000
0100
0001
1000
,
1100
0011
0101
1010
,
0010
1000
0100
0001
0100
0000
0000
0000
,
0011
0000
0001
0100
0001
0000
1000
0010
,
0100
0001
0010
0100
0000
0010
0001
0000
,
1001
1100
1010
0101
,
0001
1000
0100
0010
0100
0000
0000
0000
,
1001
0000
1000
0010
0100
0001
0010
0100
,
0010
0001
1000
0010
0000
0100
0001
1000
,
1100
0110
1100
1001
,
0001
0100
1000
0100
0001
1000
0100
0000
,
0001
0100
0001
0100
0010
0000
0100
0001
,
0010
0100
0010
0001
0000
1000
0001
0000
,
1010
1100
0011
0101
,
0010
1000
0100
0001
0100
1000
1001
0000
,
1010
0000
0001
0100
0001
0100
0000
0010
,
0100
0001
0010
0100
0010
0000
0011
0000
,
1001
0000
1000
0010
0001
0010
0000
1000
,
0010
0100
0001
0010
0100
0010
0001
1000
,
1001
0000
0001
0100
1000
0100
0000
0001
,
0010
0100
0010
0001
1000
0000
1001
0000
,
1010
0000
0010
0100
0001
0011
0000
1100
,
1000
0010
0100
0001
0100
0010
1010
0000
,
1001
0000
0000
0000
;

//---------------dance-single - ----------------
#NOTES:
     dance-single:
     :
     Medium:
     7:
     0.477,0.494,0.431,0.000,0.000:
1000
0000
0001
0000
1000
0001
0000
0001
,
1000
0000
1000
0010
0000
0010
0100
0000
,
0010
0000
1000
0000
0001
1000
0000
1000
,
0100
0000
0010
0000
0100
0010
0100
0000
,
0010
0000
0001
0000
1000
0000
0100
0010
,
0000
0010
0100
0000
0010
0000
0001
0000
,
1001
0000
0000
0000
1000
0010
1000
0000
,
0001
0000
0100
0000
0010
0100
0000
0100
,
0001
1000
0001
0010
,
0100
0010
0001
0000
0010
0001
1000
0000
,
1001
0000
0001
0000
0100
0000
0010
1000
,
0000
1000
0001
0000
0010
0000
0100
0000
,
0010
0000
0001
0000
1000
0000
0001
1000
,
0000
1000
0100
0000
0010
0001
0010
0000
,
0001
1000
0000
1000
0001
0000
1000
0010
,
0000
0010
1000
0000
0001
0000
0010
0000
,
0100
0010
0001
0000
,
1000
0001
1000
0001
0000
1000
0001
0000
,
0101
0000
0100
0010
,
1000
0000
0100
0010
0000
0010
0100
0000
,
0011
0011
1100
1100
,
1010
0101
1001
0000
,
0110
0000
0010
1000
,
0100
0000
0010
0100
0000
0100
0010
0000
,
1100
1100
1001
1001
,
0101
0110
1001
0000
,
1000
0000
0100
0000
0010
0001
0000
0001
,
0010
0000
0001
1000
0001
0000
1000
0000
,
0010
0000
0100
0000
0001
0100
0000
0100
,
0001
0000
1000
0100
1000
0000
0001
0000
,
1001
0000
1010
0000
0000
0101
0000
0000
,
0001
0100
0001
0100
0001
0000
1000
0000
,
0001
1000
0001
0000
1000
0100
0000
0100
,
0010
0000
0010
0001
0000
0001
1000
0000
,
1000
0010
0000
0010
0100
0000
0100
0001
,
0000
0001
1000
0000
1000
0100
0000
0000
,
0011
0000
0000
0000
1000
0001
0000
0001
,
1000
0000
0001
0000
0100
0010
0000
0010
,
0100
0000
0001
0000
1000
0000
0001
0010
,
0000
0010
0001
0000
1000
0001
1000
0000
,
0101
0000
0010
0000
1000
0100
0000
0010
,
0001
0000
1000
0000
0001
0100
0001
0000
,
1000
0010
1000
0000
0001
1000
0000
1000
,
0100
0000
0010
0000
0100
1000
0001
0000
,
1001
1010
0101
0000
,
0101
0011
1100
1001
,
0001
0100
1000
0000
1000
0100
0001
0000
,
1000
0000
0001
1000
0000
0001
1000
0000
,
0100
0010
0001
0000
0010
0001
0000
0010
,
0001
0000
1000
0000
0001
0100
0000
0100
,
0001
0000
1000
0000
0010
0100
0000
0100
,
0001
0000
0001
1000
0000
1000
0001
0000
,
1001
0000
0000
0000
1000
0000
0100
0010
,
0100
0000
0010
0001
0000
0001
0010
0000
,
0011
1100
1010
0101
,
0001
0000
1000
0001
1000
0000
0000
0000
,
0101
0001
1000
0100
,
0010
0000
0100
1000
0000
1000
0001
0000
,
1001
1010
0101
0011
,
0001
0000
1000
0001
1000
0000
0000
0000
,
1001
0001
0100
1000
,
0100
0000
0010
0100
0000
0100
0010
0000
,
0110
1010
1001
0011
,
0001
1000
0001
1000
0001
0000
0100
0000
,
0101
0000
0001
1000
,
0100
0000
0010
0100
0000
0100
1000
0000
,
1100
0011
0101
1010
,
0010
1000
0010
1000
0001
0000
0100
0000
,
0110
0000
0010
0000
1000
0001
0000
0001
,
1000
0000
0001
0010
0001
0000
1000
0000
,
0001
0000
0100
0000
0010
1000
0000
1000
,
0001
0000
0010
0001
0100
0000
0010
0000
,
0110
0000
0100
0000
0001
1000
0000
1000
,
0100
0000
0010
0001
0100
0000
0010
0000
,
1000
0000
0001
0100
0001
0100
0000
0100
,
0001
0000
1000
0001
1000
0000
0010
0000
,
0110
0000
0000
0000
;

//---------------dance-single - ----------------
#NOTES:
     dance-single:
     :
     Easy:
     4:
     0.263,0.278,0.049,0.000,0.000: // measure 1
1000
0000
0001
0000
0000
1000
0000
0000
,  // measure 2
0001
0000
0000
1000
0000
0000
0001
0000
,  // measure 3
0100
0010
0100
0000
,  // measure 4
0010
1000
0010
0000
,  // measure 5
1000
0100
0010
0000
,  // measure 6
0100
0010
0001
1000
,  // measure 7
0001
0000
1000
0000
,  // measure 8
0001
0100
0001
0000
,  // measure 9
1000
0010
0100
0001
,  // measure 10
0010
0000
0001
0000
,  // measure 11
1001
0000
1000
0000
,  // measure 12
0010
0100
0010
0000
,  // measure 13
0100
0000
0001
0000
,  // measure 14
1000
0001
1000
0001
,  // measure 15
0100
0000
0010
0000
,  // measure 16
0100
0010
1000
0000
,  // measure 17
0001
0001
0001
0000
,  // measure 18
1000
0100
1000
0100
,  // measure 19
0010
0000
0100
0000
,  // measure 20
0010
0000
0001
0000
,  // measure 21
1000
1000
0001
0001
,  // measure 22
0100
0010
0100
0000
,  // measure 23
0010
0000
0100
0000
,  // measure 24
0010
0000
0100
0000
,  // measure 25
0001
0001
1000
1000
,  // measure 26
0100
0010
0100
0000
,  // measure 27
1001
0000
1000
0000
,  // measure 28
0001
1000
0001
1000
,  // measure 29
0000
0001
0000
1000
,  // measure 30
0001
0010
0100
0010
,  // measure 31
0000
0100
0000
0010
,  // measure 32
0001
1000
0001
1000
,  // measure 33
0000
0000
0001
0000
0000
0001
0000
0000
,  // measure 34
1000
0000
0000
1000
0000
0000
0010
0000
,  // measure 35
0000
0010
0000
0000
0100
0000
0000
0100
,  // measure 36
0000
0000
0001
0000
0000
1000
0000
0000
,  // measure 37
1001
0000
0001
0000
,  // measure 38
0100
0010
0100
0000
,  // measure 39
0010
1000
0001
1000
,  // measure 40
0100
0000
0010
0100
,  // measure 41
0010
0000
0001
0000
,  // measure 42
1000
0001
1000
0000
,  // measure 43
0001
0100
0010
1000
,  // measure 44
0010
0100
0010
0000
,  // measure 45
0110
0000
0100
0000
,  // measure 46
0001
0001
0001
0000
,  // measure 47
1000
0100
1000
0000
,  // measure 48
0001
0010
0100
0010
,  // measure 49
0001
0001
0001
0000
,  // measure 50
1000
1000
1000
0000
,  // measure 51
0001
0100
0001
1000
,  // measure 52
0100
0010
0100
0000
,  // measure 53
1001
0000
0001
0000
,  // measure 54
0100
0000
0010
0000
,  // measure 55
1000
1000
0010
0010
,  // measure 56
0100
0100
0001
0000
,  // measure 57
0100
0000
0001
0000
,  // measure 58
1000
0000
0001
0000
,  // measure 59
0010
0010
0001
0001
,  // measure 60
1000
1000
0100
0000
,  // measure 61
0010
0000
0100
0000
,  // measure 62
0010
0000
0001
0000
,  // measure 63
1000
1000
0001
0001
,  // measure 64
0100
0010
0100
0000
,  // measure 65
0010
0000
1000
0000
,  // measure 66
0001
0000
1000
0000
,  // measure 67
0001
0010
0100
1000
,  // measure 68
0100
0010
0001
0000
,  // measure 69
1001
0000
0001
0000
,  // measure 70
0100
0010
0100
0000
,  // measure 71
0010
0000
1000
0010
,  // measure 72
1000
0001
0100
0001
,  // measure 73
0010
0000
0100
0000
,  // measure 74
0010
0001
0010
0000
,  // measure 75
0001
0000
1000
0001
,  // measure 76
1000
0010
0100
0100
,  // measure 77
0100
0000
0000
0000
;

//---------------dance-single - ----------------
#NOTES:
     dance-single:
     :
     Beginner:
     2:
     0.137,0.185,0.049,0.000,0.000: // measure 1
0000
0000
0000
0000
,  // measure 2
0000
0000
0000
0000
,  // measure 3
1001
0000
0001
0000
,  // measure 4
0100
0000
0010
0000
,  // measure 5
0100
0000
0001
0000
,  // measure 6
1000
0000
0000
0000
,  // measure 7
0001
0000
0010
0000
,  // measure 8
0001
0000
1000
0000
,  // measure 9
0100
0000
0010
0000
,  // measure 10
0100
0000
0000
0000
,  // measure 11
0010
0000
0000
0000
,  // measure 12
0001
0000
0000
0000
,  // measure 13
1000
0000
0001
0000
,  // measure 14
0100
0000
0000
0000
,  // measure 15
0010
0000
0000
0000
,  // measure 16
0100
0000
0000
0000
,  // measure 17
0110
0000
0000
0000
,  // measure 18
1001
0000
0000
0000
,  // measure 19
1000
0000
0001
0000
,  // measure 20
1000
0000
0001
0000
,  // measure 21
0100
0000
0100
0000
,  // measure 22
0100
0000
0000
0000
,  // measure 23
0010
0000
0100
0000
,  // measure 24
0001
0000
1000
0000
,  // measure 25
0010
0000
0010
0000
,  // measure 26
0010
0000
0000
0000
,  // measure 27
1000
0000
0010
0000
,  // measure 28
0100
0000
0000
0000
,  // measure 29
0001
0000
0010
0000
,  // measure 30
0100
0000
0000
0000
,  // measure 31
0010
0000
0001
0000
,  // measure 32
1000
0000
0000
0000
,  // measure 33
1001
0000
0000
0000
,  // measure 34
0000
0000
0000
0000
,  // measure 35
0000
0000
0000
0000
,  // measure 36
0000
0000
0000
0000
,  // measure 37
0110
0000
0000
0000
,  // measure 38
1000
0000
0000
0000
,  // measure 39
0001
0000
0010
0000
,  // measure 40
0001
0000
1000
0000
,  // measure 41
0001
0000
0000
0000
,  // measure 42
1000
0000
0000
0000
,  // measure 43
0010
0000
0100
0000
,  // measure 44
0010
0000
1000
0000
,  // measure 45
0001
0000
0001
0000
,  // measure 46
1000
0000
1000
0000
,  // measure 47
0100
0000
0010
0000
,  // measure 48
0100
0000
0000
0000
,  // measure 49
0010
0000
0000
0000
,  // measure 50
0001
0000
0000
0000
,  // measure 51
1000
0000
1000
0000
,  // measure 52
0001
0000
0001
0000
,  // measure 53
1000
0000
0000
0000
,  // measure 54
0001
0000
0000
0000
,  // measure 55
0100
0000
0100
0000
,  // measure 56
0100
0000
0000
0000
,  // measure 57
0010
0000
0000
0000
,  // measure 58
0100
0000
0000
0000
,  // measure 59
0001
0000
0001
0000
,  // measure 60
0001
0000
0000
0000
,  // measure 61
1000
0000
0100
0000
,  // measure 62
0010
0000
0001
0000
,  // measure 63
1000
0000
0001
0000
,  // measure 64
1000
0000
0001
0000
,  // measure 65
0100
0000
0010
0000
,  // measure 66
1000
0000
0001
0000
,  // measure 67
0010
0000
0100
0000
,  // measure 68
0010
0000
0100
0000
,  // measure 69
0110
0000
0000
0000
,  // measure 70
0010
0000
0001
0000
,  // measure 71
1000
0000
0000
0000
,  // measure 72
0001
0000
1000
0000
,  // measure 73
0010
0000
0000
0000
,  // measure 74
0100
0000
0010
0000
,  // measure 75
0100
0000
0010
0000
,  // measure 76
1000
0000
0001
0000
,  // measure 77
1000
0000
0000
0000
;
