#TITLE:Finger On It;
#SUBTITLE:;
#ARTIST:Mama's Gun;
#TITLETRANSLIT:;
#SUBTITLETRANSLIT:;
#ARTISTTRANSLIT:;
#CREDIT:;
#BANNER:;
#BACKGROUND:;
#LYRICSPATH:;
#CDTITLE:;
#MUSIC:Finger On It.mp3;
#OFFSET:-0.990;
#SAMPLESTART:39.360;
#SAMPLELENGTH:15.360;
#SELECTABLE:YES;
#BPMS:0.000=125.000;
#STOPS:;
#BGCHANGES:;

//---------------dance-single - ----------------
#NOTES:
     dance-single:
     :
     Hard:
     6:
     0.404,0.376,0.149,0.112,0.019: // measure 1
0010
0100
0010
0000
1000
0000
0010
0000
,  // measure 2
0001
0000
0000
0000
0010
0000
0000
0000
1000
0000
0000
1000
0000
0000
1000
0000
,  // measure 3
0100
1000
0100
0000
0010
0000
0001
1000
,  // measure 4
0100
0000
0010
0001
0100
0000
0110
0000
,  // measure 5
0001
1000
0001
0000
1000
0000
0010
0100
,  // measure 6
0010
0000
0100
0000
0001
1000
0000
0001
,  // measure 7
1000
0000
0100
0010
0100
0000
0010
0000
,  // measure 8
0001
1000
0001
1000
0001
1000
0001
0000
,  // measure 9
0100
0000
0100
0000
0100
0010
0100
0010
,  // measure 10
1000
0000
1000
0000
1000
0001
0000
0001
,  // measure 11
0100
0000
0010
0000
0100
0010
1000
0100
,  // measure 12
0000
0100
0010
0000
0010
0001
1000
0000
,  // measure 13
0001
0100
0001
0100
0010
0000
0100
0000
,  // measure 14
0010
1000
0010
1000
0001
0000
1000
0000
,  // measure 15
0100
0001
0100
0000
1000
0000
0001
0000
,  // measure 16
2002
0000
0000
3003
,  // measure 17
0110
0000
0100
0000
0001
0100
0001
0000
,  // measure 18
1000
0100
1000
0000
0001
1000
0100
0010
,  // measure 19
0100
0000
0010
0000
0001
0010
0001
0000
,  // measure 20
1000
0100
1000
0000
1100
0000
1001
0000
,  // measure 21
0001
0000
0100
0000
0010
0100
0010
0000
,  // measure 22
1000
0000
0001
0000
1000
0100
1000
0000
,  // measure 23
0001
0000
0010
0000
0100
0010
0001
0010
,  // measure 24
0001
0000
1000
0000
0001
1000
0001
0000
,  // measure 25
1000
0000
0010
0000
0100
0100
0100
0000
,  // measure 26
0010
0000
1000
0000
0001
0001
0001
0000
,  // measure 27
1000
0000
0100
0000
0010
0100
0010
0100
,  // measure 28
0010
0000
0011
0000
0001
1000
0002
2000
,  // measure 29
3003
0000
0000
0000
,  // measure 30
0110
0000
1010
0000
0010
1000
0100
1000
,  // measure 31
0000
1000
0001
0000
0010
0001
0100
0001
,  // measure 32
0000
0100
0001
0000
1000
0010
0100
0001
,  // measure 33
0000
0001
0100
0000
0010
0100
0001
0000
,  // measure 34
1000
0000
0001
0000
1000
0100
1000
0100
,  // measure 35
0000
0010
0001
0000
0010
0001
0100
0001
,  // measure 36
0000
0001
0100
0000
0010
0100
0001
1000
,  // measure 37
0001
0000
0000
1000
0000
0000
2002
0000
0000
0000
3003
0000
0000
0000
0000
0000
,  // measure 38
1000
0001
1000
0001
0100
0000
0000
0000
,  // measure 39
0010
0100
0010
0100
0001
0000
1000
0100
,  // measure 40
0000
0100
1000
0000
0001
0010
0100
0100
,  // measure 41
0000
0010
0010
0001
1000
0000
1001
0000
,  // measure 42
0001
0100
0010
0000
0100
0000
0010
1000
,  // measure 43
0010
0000
1000
0100
0000
0100
0010
0001
,  // measure 44
1000
0000
0001
0100
0000
0100
0001
0000
,  // measure 45
1000
0001
1000
0001
1000
0001
0100
0000
,  // measure 46
0220
0000
0000
0330
,  // measure 47
1010
0000
1000
0010
0100
0000
0001
0000
,  // measure 48
0010
0000
0001
0010
0100
0000
0010
0000
,  // measure 49
0001
0000
1000
0001
1000
0000
0010
0000
,  // measure 50
0100
0000
0000
0100
0000
0000
0001
0000
1000
0000
0000
1000
0000
0000
0100
0000
,  // measure 51
0010
0000
0011
0000
0001
1000
0001
0000
,  // measure 52
1000
0000
1010
0000
0010
0100
0010
2000
,  // measure 53
0002
0000
0000
3003
,  // measure 54
0220
0000
0000
0000
0000
0330
0000
1001
;

//---------------dance-single - ----------------
#NOTES:
     dance-single:
     :
     Challenge:
     9:
     0.603,0.601,0.381,0.121,0.414: // measure 1
1000
0100
0001
0100
1000
0000
0001
0000
,  // measure 2
1000
0000
0010
0000
1000
0000
0000
0000
0001
0000
0000
1000
0000
0000
0001
0000
,  // measure 3
1000
0100
0010
0100
1000
0000
0101
0000
,  // measure 4
0012
0000
0013
0001
1000
0010
0100
0010
,  // measure 5
0100
0000
0001
1000
0100
0000
1000
0100
,  // measure 6
1000
0100
0010
0001
0010
0000
1001
0000
,  // measure 7
1000
0010
0001
0010
1000
0100
0010
0100
,  // measure 8
1000
1000
0001
0001
0010
0100
0010
0100
,  // measure 9
1001
0000
0000
0000
1000
0000
0100
0010
0000
0010
0001
0000
1000
0000
0001
0000
,  // measure 10
1000
0000
0010
1000
0010
0000
0000
0110
0000
0000
0100
0000
0010
0000
1010
0000
,  // measure 11
0000
1000
0100
0100
0010
0100
1000
0001
,  // measure 12
0000
0100
0001
1000
0100
0000
0110
0000
,  // measure 13
0010
0000
0001
0000
1000
0000
0001
1000
0000
1000
0001
0000
0100
0000
0010
0000
,  // measure 14
1000
0000
0001
0000
0010
0000
0100
1000
0000
1000
0001
0000
0100
0000
0010
0000
,  // measure 15
1000
0000
0100
0000
0001
0000
0100
0000
1000
0000
0000
0000
0001
1000
0001
1000
,  // measure 16
0002
0000
0000
0003
,  // measure 17
1001
0000
0000
0000
1000
0000
0001
0010
0000
0100
1000
0000
0001
0000
0100
0000
,  // measure 18
0001
0000
0000
0000
1000
0000
0010
1000
0000
1000
0001
0000
0010
0100
1000
0000
,  // measure 19
1001
0000
0000
0000
0001
0000
0010
0001
0000
1000
0100
0000
0010
0000
0100
0000
,  // measure 20
1000
0001
0100
0010
1000
0001
0100
0010
,  // measure 21
1001
0000
0000
0000
1000
0000
0001
0010
0000
0010
0001
0000
0100
0000
0010
0000
,  // measure 22
1000
0000
0010
0000
0001
0000
0010
1000
0000
1000
0100
0000
0010
0000
0100
0000
,  // measure 23
1000
0000
0000
0000
0001
0000
0010
0001
0000
0001
0010
0000
0001
0010
0100
0000
,  // measure 24
1001
0000
0000
0000
1000
0000
0010
1000
0000
1000
0100
0000
0010
0000
0001
0000
,  // measure 25
1000
0000
0000
0000
1100
0000
0000
0100
0000
0010
0100
0000
1000
0000
0001
0000
,  // measure 26
0100
0001
0000
0000
0100
0000
0010
1000
0000
1000
0001
0000
1000
0000
0100
0000
,  // measure 27
1000
0000
0000
0000
1001
0000
0000
0001
0000
0010
0001
0000
1000
0000
0010
0000
,  // measure 28
0100
0010
1000
0001
1000
0100
0010
0011
,  // measure 29
2002
0000
0000
0000
3003
0000
0000
0000
1001
0000
0000
1000
0010
0000
0100
0000
,  // measure 30
0110
0000
0000
0000
1001
0000
0000
1001
0000
1000
0000
0100
0000
0010
0001
0000
,  // measure 31
0010
0001
0100
0000
0101
0000
0001
1000
0000
1000
0100
0000
0010
0000
0100
0000
,  // measure 32
0010
0001
0010
0001
1000
0000
0000
1001
0000
0001
0000
0100
0010
0000
1010
0000
,  // measure 33
1000
0001
1000
0000
1001
0000
0000
0011
0000
1100
0000
0000
1001
0000
0000
0000
,  // measure 34
0001
0100
0001
0000
1010
0000
0000
1001
0000
0001
0010
0001
0010
0000
0100
0000
,  // measure 35
0010
0001
1000
0000
1001
0000
0000
0001
0000
0100
0010
0000
1000
0000
0100
0000
,  // measure 36
0001
0100
1000
0100
0010
0000
0000
1001
0000
1000
0100
0000
0010
0001
1000
0001
,  // measure 37
1000
0000
0000
1010
0000
0000
2002
0000
0000
0000
3003
0000
0000
0000
0000
0000
,  // measure 38
1001
0000
0000
0000
1000
0000
0100
0000
0010
0000
0100
0000
1000
0001
1000
0000
,  // measure 39
0001
0000
0100
0000
0010
0000
0100
0010
0000
0010
0000
0010
1000
0000
0010
0000
,  // measure 40
0100
0000
0001
1000
0100
0001
0100
1000
,  // measure 41
0001
0001
0100
0010
2002
0000
3003
0000
,  // measure 42
1000
0100
1000
0002
0000
0103
0001
0100
,  // measure 43
0010
0000
1000
0000
0001
0000
1000
0010
0000
0100
0000
0001
0100
0000
0010
0000
,  // measure 44
0100
0001
0010
0100
1000
0000
1001
0000
,  // measure 45
0001
0001
0100
0100
0010
1000
0010
1000
,  // measure 46
2002
0000
0000
3003
,  // measure 47
0011
0000
0000
0100
1000
0000
0010
0000
0100
0000
0001
0000
0010
0000
0001
0000
,  // measure 48
1000
0000
0000
0001
1000
0000
0100
0000
0010
0000
0100
0000
1000
0000
0001
0000
,  // measure 49
0100
0000
0000
0010
0100
0000
0001
0000
0010
0000
0100
0000
0010
0000
0001
0000
,  // measure 50
1000
0000
0001
0100
0000
0001
0100
0000
0010
0000
0100
0001
0000
0100
0001
0000
,  // measure 51
1100
0000
0000
0000
1001
0000
0000
0001
0010
0000
0001
0000
0100
0000
0010
0000
,  // measure 52
0100
0000
0000
0000
1001
0000
1000
0100
0000
0010
0001
0000
0100
0000
0010
0000
,  // measure 53
0200
0010
0000
0010
0000
0010
0000
0010
0000
0010
0000
0010
0000
0010
0000
0010
,  // measure 54
0020
0000
0000
0000
0000
0000
0330
1001
;

//---------------dance-single - ----------------
#NOTES:
     dance-single:
     :
     Medium:
     5:
     0.372,0.376,0.260,0.112,0.005: // measure 1
1001
0000
0000
0001
0100
0000
0010
0000
,  // measure 2
0100
0010
1000
0001
,  // measure 3
0010
0000
0001
0010
0100
0000
0010
0000
,  // measure 4
0001
0000
1000
0000
0001
1000
0001
0000
,  // measure 5
1000
0000
0000
1000
0100
0000
0010
0000
,  // measure 6
0100
1000
0001
0100
,  // measure 7
0010
0000
0100
0010
1000
0000
0001
0000
,  // measure 8
1000
1000
1000
0000
0001
0001
0001
0000
,  // measure 9
1000
0000
0100
0000
0010
0100
0000
0000
,  // measure 10
0010
0000
0001
0000
1000
0001
0000
1001
,  // measure 11
0000
1000
0010
0000
0100
0000
0010
0100
,  // measure 12
0000
0100
0001
0000
1000
0000
0001
0000
,  // measure 13
0011
0000
0000
0000
1000
0000
0100
1000
,  // measure 14
0001
0000
0000
0000
1000
0000
0010
1000
,  // measure 15
0001
0010
0100
0010
,  // measure 16
2002
0000
0000
3003
,  // measure 17
1001
0000
1000
0000
1000
0100
1000
0000
,  // measure 18
0001
0000
0001
0000
0001
0100
0001
0000
,  // measure 19
1000
0000
0010
0000
0100
0010
1000
0000
,  // measure 20
2001
0001
0001
3001
,  // measure 21
0110
0010
1000
0001
,  // measure 22
1001
0000
1000
0000
0100
1000
0100
0000
,  // measure 23
0011
0001
1000
0001
,  // measure 24
0101
0000
0100
0000
0010
1000
0100
0000
,  // measure 25
0110
0000
0100
0000
1000
0001
1000
0000
,  // measure 26
0001
0000
0100
0000
0010
0100
0001
0000
,  // measure 27
1000
0000
0100
0000
0010
0100
1000
0000
,  // measure 28
0001
1000
0001
0000
0101
0000
2002
0000
,  // measure 29
3003
0000
0000
0000
,  // measure 30
1000
0100
1000
0000
0001
0000
0100
0000
,  // measure 31
0010
0100
0001
0000
0010
0000
0100
0000
,  // measure 32
0010
0001
1000
0000
0001
0000
1000
0000
,  // measure 33
0001
0010
0001
0000
1000
0100
1000
0000
,  // measure 34
0010
1000
0100
0000
0010
0000
0100
0000
,  // measure 35
0010
0001
0100
0000
1000
0000
0100
0000
,  // measure 36
0010
0100
0001
0000
1000
0000
0001
0000
,  // measure 37
1001
0000
0000
1001
0000
0000
2002
0000
0000
0000
3003
0000
0000
0000
0000
0000
,  // measure 38
1001
0000
1000
0100
1000
0000
0001
0000
,  // measure 39
0100
0000
0010
0010
0010
0000
0000
1001
,  // measure 40
0000
1000
0100
0000
0010
0001
0100
0000
,  // measure 41
0001
0000
1000
0001
1000
0000
0000
0000
,  // measure 42
0110
0000
0010
0100
0001
0000
1000
0000
,  // measure 43
0001
0000
1000
0100
1000
0000
0001
0000
,  // measure 44
1001
0000
1000
1000
1000
0000
0001
0000
,  // measure 45
0110
0000
1001
0000
1000
0001
1000
0010
,  // measure 46
0200
0000
0000
0310
,  // measure 47
1001
0000
1000
0000
0001
1000
0100
0000
,  // measure 48
0010
0100
0010
0000
0100
1000
0001
0000
,  // measure 49
0010
0000
0001
0000
0100
0001
0100
0000
,  // measure 50
1010
0100
1001
0100
,  // measure 51
0110
0000
0010
0000
1000
0010
1000
0000
,  // measure 52
0001
0000
0010
0000
0100
0010
0001
2000
,  // measure 53
0002
0000
0000
3003
,  // measure 54
0220
0000
0000
0000
0000
0330
0000
0110
;

//---------------dance-single - ----------------
#NOTES:
     dance-single:
     :
     Easy:
     4:
     0.278,0.351,0.223,0.130,0.000: // measure 1
1001
0001
0100
0000
,  // measure 2
0010
0100
0001
1000
,  // measure 3
0100
0010
0100
0000
,  // measure 4
0010
0001
1000
0000
,  // measure 5
1001
0001
0100
0000
,  // measure 6
0010
0100
0001
1000
,  // measure 7
0001
1000
0100
0000
,  // measure 8
0010
0010
0010
0010
,  // measure 9
0110
0000
0100
0000
,  // measure 10
1000
0001
1000
0001
,  // measure 11
0100
0000
0010
0000
,  // measure 12
0100
0010
1000
0001
,  // measure 13
1000
0000
0001
0000
,  // measure 14
0010
0001
0100
0000
,  // measure 15
0010
0100
0001
1000
,  // measure 16
2002
0000
0000
3003
,  // measure 17
1001
0000
1000
0100
,  // measure 18
1000
0000
0001
0010
,  // measure 19
0001
0000
1000
0001
,  // measure 20
0100
1000
0100
0010
,  // measure 21
0110
0000
0010
1000
,  // measure 22
0100
0010
0100
1000
,  // measure 23
0001
0000
1000
0001
,  // measure 24
0100
1000
0100
0010
,  // measure 25
0100
0000
0010
1000
,  // measure 26
0001
1000
0100
0010
,  // measure 27
0100
0000
0010
0001
,  // measure 28
1000
0001
1000
2002
,  // measure 29
0000
0000
0000
3003
,  // measure 30
1000
1100
0100
0010
,  // measure 31
0001
0011
0010
0100
,  // measure 32
1000
0001
0100
1000
,  // measure 33
0100
0010
1000
0001
,  // measure 34
1000
1001
0001
0100
,  // measure 35
0010
0110
0100
0001
,  // measure 36
1000
0100
0010
0100
,  // measure 37
2002
0000
3003
0000
,  // measure 38
1001
1000
0100
0000
,  // measure 39
0010
0001
0100
0010
,  // measure 40
0100
0010
1000
0000
,  // measure 41
0001
1000
0100
0000
,  // measure 42
0010
0001
1000
0001
,  // measure 43
0100
0010
0100
0000
,  // measure 44
0010
1000
0001
0000
,  // measure 45
1001
1001
0110
0110
,  // measure 46
2002
0000
0000
3003
,  // measure 47
1001
1000
0100
0010
,  // measure 48
0100
0100
1000
0001
,  // measure 49
0100
0100
0010
0100
,  // measure 50
2002
3003
0220
0330
,  // measure 51
1001
0001
1000
0100
,  // measure 52
0010
0010
0100
1000
,  // measure 53
2002
0000
0000
0000
,  // measure 54
3003
0000
0000
0000
0000
0000
0000
1001
;

//---------------dance-single - ----------------
#NOTES:
     dance-single:
     :
     Beginner:
     1:
     0.133,0.150,0.139,0.000,0.000: // measure 1
1001
0000
0000
0000
,  // measure 2
1000
0000
0010
0000
,  // measure 3
1000
0000
0000
0000
,  // measure 4
0001
0000
1000
0000
,  // measure 5
0001
0000
0000
0000
,  // measure 6
0010
0000
0001
0000
,  // measure 7
0100
0000
0000
0000
,  // measure 8
0010
0000
0010
0010
,  // measure 9
0010
0000
0000
0000
,  // measure 10
1000
0000
0001
0000
,  // measure 11
1000
0000
0100
0000
,  // measure 12
0010
0000
0000
0000
,  // measure 13
0100
0000
0010
0000
,  // measure 14
0001
0000
1000
0000
,  // measure 15
0001
0000
0000
0000
,  // measure 16
1001
0000
0000
0000
,  // measure 17
0110
0000
0000
0000
,  // measure 18
0100
0000
0010
0000
,  // measure 19
0100
0000
0000
0000
,  // measure 20
1001
0000
0000
0000
,  // measure 21
1001
0000
0000
0000
,  // measure 22
1000
0000
0000
0000
,  // measure 23
0100
0000
0010
0000
,  // measure 24
0001
0000
1000
0000
,  // measure 25
0001
0000
0000
0000
,  // measure 26
0100
0000
0000
0000
,  // measure 27
0010
0000
1000
0000
,  // measure 28
0001
0000
1000
0000
,  // measure 29
1001
0000
0000
0000
,  // measure 30
0110
0000
0100
0000
,  // measure 31
0010
0000
0010
0000
,  // measure 32
1000
0000
1000
0000
,  // measure 33
0001
0000
0001
0000
,  // measure 34
1000
0000
0100
0000
,  // measure 35
0010
0000
0001
0000
,  // measure 36
1000
0000
0010
0000
,  // measure 37
0100
0000
0000
0000
,  // measure 38
1001
0000
0000
0000
,  // measure 39
1000
0000
0100
0000
,  // measure 40
0010
0000
0000
0000
,  // measure 41
0100
0000
1000
0000
,  // measure 42
0001
0000
0001
0000
,  // measure 43
1000
0000
0001
0000
,  // measure 44
0100
0000
0100
0000
,  // measure 45
0110
0000
0000
0000
,  // measure 46
1001
0000
0000
0000
,  // measure 47
1001
0000
0000
0000
,  // measure 48
1000
0000
0100
0000
,  // measure 49
0010
0000
0001
0000
,  // measure 50
0100
0000
0010
0000
,  // measure 51
0110
0000
0000
0000
,  // measure 52
0100
0000
0010
0000
,  // measure 53
1001
0000
0000
0000
,  // measure 54
0110
0000
0000
0000
0000
0110
0000
0000
;
