#TITLE:Et s'il fallait le faire;
#SUBTITLE:;
#ARTIST:Patricia Kaas;
#TITLETRANSLIT:;
#SUBTITLETRANSLIT:;
#ARTISTTRANSLIT:;
#GENRE:;
#CREDIT:;
#MENUCOLOR:;
#METERTYPE:DDR;
#BANNER:;
#BACKGROUND:;
#LYRICSPATH:;
#CDTITLE:;
#MUSIC:Et s'il fallait le faire.mp3;
#OFFSET:-7.780;
#SAMPLESTART:7.090;
#SAMPLELENGTH:15.490;
#SELECTABLE:YES;
#LISTSORT:;
#BPMS:0.000=62.000,92.000=56.000,93.000=54.000,94.000=27.000,96.000=62.000;
#STOPS:;
#BGCHANGES:;
#ATTACKS:;

//---------------dance-single - ----------------
#NOTES:
     dance-single:
     :
     Hard:
     6:
     0.243,0.279,0.051,0.254,0.250:
2000
0010
0002
3003
,
0002
0010
2000
3003
,
2000
0010
0001
0100
,
3002
0010
2000
3003
,
0110
0000
0000
0010
0000
1000
0100
0000
0000
0010
0000
0000
,
0002
2003
3020
0230
,
0301
0000
0000
0100
0000
0010
1000
0010
1000
0100
0000
0010
,
0002
0010
2000
3003
,
1010
0000
0000
0001
0100
0001
0100
0000
0100
0010
1000
0010
,
1000
0000
0000
0001
0000
0000
0010
0001
0010
0001
1000
0100
,
1000
0000
0000
0010
0000
0010
0100
0000
0000
0001
0000
0000
,
1001
0000
0000
1000
0000
0000
0100
0000
0000
0010
0001
0010
,
0200
1000
0010
2300
,
3002
0000
0000
0010
0000
0000
0100
0000
0000
2003
0000
0010
,
3020
0100
0001
2030
,
3002
0000
0000
0010
0000
0000
0100
0000
0000
1003
0010
0100
,
0001
0000
0001
0200
0000
0000
0310
0000
0000
0010
1000
0001
,
0100
0000
0100
0002
0000
0000
1003
0000
1000
0100
0010
0001
,
0100
0000
0000
0000
0000
0000
0001
0000
0000
0000
1000
0000
1001
0000
0000
0000
0001
0000
0100
0000
0000
0010
1000
0000
,
0200
0000
0000
0000
0000
0000
0010
0000
0000
0000
0000
0000
1300
0000
0000
0000
1000
0000
0001
0000
0000
1000
0001
0000
,
0020
0000
0000
0001
0000
0000
0130
0000
0100
0010
0001
1000
,
0020
0000
0000
0001
0000
0000
1030
0000
1000
0010
0000
0000
,
2001
0000
0020
3000
,
0200
0000
0000
0000
,
0330
0000
0000
0000
0000
0000
0000
0000
0000
0000
0000
0000
1000
0000
0000
0001
0000
0100
0001
0000
1000
0001
1000
0000
,
0001
0000
0100
0000
0010
0000
1000
0100
1000
0100
1000
0000
0100
0000
0010
0000
0001
0000
0100
0001
0100
0001
0100
0000
,
0010
0000
1000
0000
0100
0000
0010
0100
0010
0001
0010
0000
0001
0010
0000
0001
0000
1000
0010
1000
0001
0000
0100
0000
,
0202
0000
0303
0000
;

//---------------dance-single - ----------------
#NOTES:
     dance-single:
     :
     Medium:
     5:
     0.171,0.171,0.051,0.085,0.144: // measure 1
1000
0001
0100
0010
,  // measure 2
2000
0000
3000
0000
,  // measure 3
0001
0010
0100
1000
,  // measure 4
0002
0000
0003
0000
,  // measure 5
1001
1000
0010
0100
,  // measure 6
0002
0010
2000
3003
,  // measure 7
1000
0010
0100
0001
,  // measure 8
2000
0100
0002
3003
,  // measure 9
1000
0000
0000
0010
0000
0000
0100
0000
0000
0001
0100
0001
,  // measure 10
0100
0000
0000
0001
0000
0000
1000
0000
1000
0100
0000
0010
,  // measure 11
0001
0000
0000
1000
0000
0000
0100
0000
0000
0010
0000
0001
,  // measure 12
1000
0000
0000
0010
0000
0000
0100
0000
0100
0001
1000
0001
,  // measure 13
1000
0000
0000
0010
0000
0000
0100
0000
0000
0001
0100
0010
,  // measure 14
1000
0000
0000
0100
0000
0000
0010
0000
0000
0001
0000
1000
,  // measure 15
0010
0000
0000
0100
0000
0100
0001
0000
0000
0001
0000
0001
,  // measure 16
2000
0010
0200
3300
,  // measure 17
0010
0000
0010
0001
0000
0000
1000
0000
0000
0010
0000
0000
,  // measure 18
1000
0000
1000
0001
0000
0000
0100
0000
0000
0010
0000
0000
,  // measure 19
1001
0000
0000
1000
0000
1000
0100
0000
0000
0010
0000
0001
,  // measure 20
1000
0000
0000
0010
1000
0010
0100
0000
0000
0001
0000
0000
,  // measure 21
1001
0000
0000
1000
0001
1000
0100
0000
0000
0010
0000
0000
,  // measure 22
0110
0000
0000
0100
0000
0000
1000
0000
1000
0001
0000
0000
,  // measure 23
1002
0000
0010
0000
,  // measure 24
0200
0000
0000
0000
,  // measure 25
0000
0000
0303
0000
,  // measure 26
1000
0100
1000
0100
0000
0010
0001
0010
0001
0010
0000
0001
,  // measure 27
0100
0001
0100
0001
0000
1000
0010
1000
0010
1000
0000
0001
,  // measure 28
0101
0000
0000
0000
;

//---------------dance-single - ----------------
#NOTES:
     dance-single:
     :
     Easy:
     2:
     0.103,0.149,0.076,0.102,0.000: // measure 1
1001
0000
0001
1000
,  // measure 2
0010
0000
0000
0000
,  // measure 3
0110
0000
0100
0001
,  // measure 4
0010
0000
0000
0000
,  // measure 5
0002
0000
1000
1000
,  // measure 6
1003
0000
0000
0000
,  // measure 7
0200
0000
0010
0010
,  // measure 8
0310
0000
0000
0000
,  // measure 9
1001
0000
1000
0100
,  // measure 10
1000
0000
0001
0000
,  // measure 11
0100
0000
0010
1000
,  // measure 12
0010
0000
0100
0000
,  // measure 13
0001
0000
1000
0000
,  // measure 14
0100
0010
0100
0000
,  // measure 15
0010
0000
0001
1000
,  // measure 16
0001
0100
0010
1000
,  // measure 17
0001
1000
2002
3003
,  // measure 18
0100
0010
0220
0330
,  // measure 19
0010
1000
0001
0010
,  // measure 20
0001
1000
0100
0010
,  // measure 21
0220
0000
0330
0000
,  // measure 22
2002
0000
0000
3003
,  // measure 23
0220
0000
0000
0000
,  // measure 24
0000
0000
0330
0000
,  // measure 25
0000
0000
0000
0000
,  // measure 26
1000
0010
1000
0010
,  // measure 27
0100
0001
0100
0001
,  // measure 28
1001
0000
0000
0000
;

//---------------dance-single - ----------------
#NOTES:
     dance-single:
     :
     Beginner:
     1:
     0.057,0.069,0.042,0.000,0.000: // measure 1
1000
0000
0001
0000
,  // measure 2
0100
0000
0000
0000
,  // measure 3
0010
0000
0100
0000
,  // measure 4
0001
0000
0000
0000
,  // measure 5
1000
0000
0100
0000
,  // measure 6
1000
0000
0000
0000
,  // measure 7
0001
0000
0100
0000
,  // measure 8
0001
0000
1000
0000
,  // measure 9
1001
0000
0000
0000
,  // measure 10
1000
0000
0010
0000
,  // measure 11
0100
0000
0010
0000
,  // measure 12
1000
0000
0000
0000
,  // measure 13
0001
0000
0010
0000
,  // measure 14
0001
0000
1000
0000
,  // measure 15
0010
0000
0100
0000
,  // measure 16
0110
0000
0000
0000
,  // measure 17
1001
0000
1000
0000
,  // measure 18
0100
0000
0000
0000
,  // measure 19
1000
0000
0001
0000
,  // measure 20
0010
0000
0000
0000
,  // measure 21
0001
0000
1000
0000
,  // measure 22
0001
0000
1000
0000
,  // measure 23
1001
0000
0000
0000
,  // measure 24
0000
0000
0000
0000
,  // measure 25
0000
0000
0000
0000
,  // measure 26
1000
0000
0001
0000
,  // measure 27
0100
0000
0010
0000
,  // measure 28
0110
0000
0000
0000
;
