#TITLE:Electronic or Treat!;
#SUBTITLE:;
#ARTIST:PON;
#TITLETRANSLIT:;
#SUBTITLETRANSLIT:;
#ARTISTTRANSLIT:;
#CREDIT:;
#BANNER:;
#BACKGROUND:;
#LYRICSPATH:;
#CDTITLE:;
#MUSIC:Electronic or Treat!.mp3;
#OFFSET:-5.080;
#SAMPLESTART:25.600;
#SAMPLELENGTH:15.150;
#SELECTABLE:YES;
#BPMS:0.000=190.000,192.000=142.500,231.000=190.000;
#DISPLAYBPM:143:190;
#STOPS:;
#BGCHANGES:;

//---------------dance-single - ----------------
#NOTES:
     dance-single:
     :
     Hard:
     9:
     0.707,0.806,0.654,0.195,0.698:
1000
0001
1000
0000
0001
0100
0001
0000
,
0010
0001
0100
0000
0010
1000
0001
0000
,
0100
0001
0100
0001
1000
0001
1000
0001
,
0100
0000
0010
0000
1000
0000
0001
0000
1000
0000
0100
0000
,
0220
0000
0000
0330
,
0011
0000
0000
0001
0000
0000
0100
0000
0000
1000
0000
0100
,
0001
0000
0000
1000
0000
0000
0100
0000
0000
0010
0000
0001
,
0100
0000
0000
0010
0000
0000
1000
0000
0000
0001
0000
0010
,
0001
0000
0000
0100
0000
0000
1000
0000
0000
0100
0000
0100
,
0001
1000
0100
0001
,
0100
0000
0000
1000
0000
0000
0010
0000
0000
0100
0000
0010
,
1000
0001
0010
0100
,
0010
0000
0000
0001
0000
0000
1000
0000
0000
0010
0000
0100
,
0001
0000
0001
1000
0000
1000
0100
0000
0100
0010
0000
0000
,
0001
0000
0001
0010
0000
0010
0100
0000
0100
1000
0000
0000
,
0001
0000
0010
0000
0001
0000
1000
0000
0010
0000
0100
0000
,
0220
0000
0000
0000
0000
0000
0000
0000
0000
0330
0000
1001
,
0000
0000
0000
1010
0000
0000
1100
0000
0000
1010
0000
0001
,
0100
0000
0000
0011
0000
0000
0101
0000
0000
1001
0000
1000
,
0100
0000
0000
0110
0000
0000
0011
0000
0000
0110
0000
0010
,
0001
0000
0000
1001
0000
0000
1010
0000
0000
0101
0000
1000
,
0100
0000
0000
0101
0000
0000
1100
0000
0000
0110
0000
0010
,
0100
0000
0000
1001
0000
0000
1100
0000
0010
0001
0000
0000
,
0101
0000
0000
1001
0000
0000
1010
0000
0000
1001
0000
0001
,
0010
0000
0000
0011
0000
0000
0101
0000
0010
1000
0000
0001
,
0100
0000
0100
0010
0000
0010
1000
0000
1000
0100
0000
0100
,
0010
0000
0010
0100
0000
0100
0010
0000
0010
0001
0000
0001
,
1000
0000
1000
0000
1000
0000
0001
0000
0001
0000
0001
0000
,
2002
0000
0000
3003
,
1000
0000
0100
1000
0000
0000
0001
0000
0100
0001
0000
0000
,
1000
0001
1000
0001
1000
0100
0020
0000
0000
0130
0000
0100
,
1000
0000
0000
1001
0000
0000
0001
0000
0100
0010
0000
0000
,
2200
3300
2002
3003
,
0001
0000
0100
0001
0000
0000
1000
0000
0010
1000
0000
0000
,
0001
0000
0010
0100
0000
0000
0010
0000
0001
1000
0000
0001
,
0100
1010
0100
1001
,
1000
0000
0100
0000
0010
0000
0001
0000
1000
0000
0001
0000
,
2002
0000
0000
3003
,
1000
0010
0001
0010
,
0100
0000
0000
0001
0000
0000
1000
0000
0100
0010
0000
0100
,
1000
0000
0000
0001
0000
0000
1000
0010
1000
0010
0100
0001
,
0100
0000
0000
0001
0000
0000
0010
0000
0001
0010
0000
0000
,
0001
1000
0001
1000
0000
0000
0001
0000
0000
0010
0001
0010
,
0001
0000
0001
1000
0000
0010
0000
0000
0010
0100
0000
0000
,
0001
0000
0010
0100
0000
0000
1000
0000
0001
0100
0000
0000
,
0010
0100
0010
0100
0000
0000
0001
1000
0001
1000
0000
0000
,
0001
0010
0001
0010
0000
0000
0001
0000
1000
0000
0001
0000
,
1000
0010
1000
0010
0000
0000
0100
0001
1000
0100
0010
0002
,
2000
3003
0000
0101
,
2002
0000
0000
0000
3003
0000
0000
0000
1000
0100
1000
0000
0001
0010
0001
0000
,
1000
0000
0010
0000
0100
0000
0001
0000
0010
0001
0010
0000
0001
1000
0001
0000
,
1000
0000
0001
0100
0000
0100
0001
0000
1000
0100
1000
0000
0001
0010
0001
0010
,
0100
0000
0010
0000
0001
0000
1000
0000
0010
0100
0010
0000
1000
0001
1000
0000
,
0100
0010
1000
0001
1000
0010
0001
0100
,
0101
0000
0000
0001
0000
0000
1000
0000
0100
0010
0000
0100
0000
0000
0010
0000
,
0001
0000
0000
0100
0000
0000
0010
0000
1000
0010
0000
1000
0001
1000
0001
1000
,
0010
0000
0000
0100
0000
0000
0001
0000
1000
0100
0000
0010
0000
0000
0001
0000
,
0011
0010
0110
0100
1100
1000
1001
0000
,
0110
0000
0000
0000
0000
0000
0000
0000
1001
0000
0000
0000
,
1010
0000
0000
0101
0000
0000
0011
0000
0001
0020
0000
0000
,
0100
0000
0000
1000
0000
0000
0031
0000
1001
0000
0000
0000
,
0101
0000
0000
0110
0000
0000
1001
0000
1000
0200
0000
0000
,
0301
0000
0000
0001
0100
1000
0001
0000
1001
0000
0000
0000
,
1010
0000
0000
0101
0000
0000
1001
0000
1000
0200
0000
0000
,
0001
0000
0000
1000
0000
0000
0310
0000
0110
0000
0000
0000
,
0011
0000
0000
0101
0000
0000
1010
0000
0000
0001
0100
0001
,
0100
0000
0000
0010
1000
0010
1000
0000
0000
0001
0000
0010
,
1000
0000
0010
0001
0000
0010
0100
0000
0100
1000
0000
0100
,
0001
0000
0100
0010
0000
0010
0001
0000
0000
0011
0000
0001
,
0000
0100
0000
0010
0000
1000
0000
0100
0000
1100
0000
1000
,
0000
0010
0000
0100
0000
0001
0000
1000
0000
1100
0000
1100
,
0000
0011
0000
0011
0000
0110
0000
1001
0000
0110
0000
0000
;

//---------------dance-single - ----------------
#NOTES:
     dance-single:
     :
     Medium:
     7:
     0.488,0.526,0.342,0.332,0.166: // measure 1
1000
0100
0010
0001
,  // measure 2
0100
0010
1000
0001
,  // measure 3
0100
0001
1000
0100
,  // measure 4
0011
0000
1100
0000
,  // measure 5
2002
0000
0000
3003
,  // measure 6
1000
0000
0000
0010
0000
0000
0100
0000
0000
0001
0000
0100
,  // measure 7
0001
0000
1000
0000
,  // measure 8
0100
0000
0000
0010
0000
0000
0001
0000
0000
0100
0000
0010
,  // measure 9
0100
0000
0001
1000
,  // measure 10
0100
0000
0000
0010
0000
0000
0001
0000
0000
1000
0000
0100
,  // measure 11
1000
0000
0001
0000
,  // measure 12
0100
0000
0000
0001
0000
0000
1000
0000
0000
0010
0000
0100
,  // measure 13
0010
0100
0001
1000
,  // measure 14
1001
0001
0100
0010
,  // measure 15
0110
0100
0001
1000
,  // measure 16
2200
3300
0022
0033
,  // measure 17
2002
0000
0000
0000
0000
0000
3003
0000
0000
0000
0000
1001
,  // measure 18
0000
1000
0100
0001
,  // measure 19
0100
0000
0000
1000
0000
0000
0001
0000
0000
1000
0000
0001
,  // measure 20
0100
0010
0100
0001
,  // measure 21
0010
0100
0010
0001
,  // measure 22
1000
0010
0001
0010
,  // measure 23
1000
0000
0000
0100
0000
0000
0010
0000
0000
0100
0000
1000
,  // measure 24
0100
0010
0001
0100
,  // measure 25
1000
0100
0001
1000
,  // measure 26
1001
0000
1000
0100
,  // measure 27
1100
0000
0001
0100
,  // measure 28
0202
0303
2002
3003
,  // measure 29
0220
0000
0000
0330
,  // measure 30
0010
1000
0001
1000
,  // measure 31
0200
0000
2000
3300
,  // measure 32
1000
0100
0010
0001
,  // measure 33
0200
0300
0002
0003
,  // measure 34
1000
0100
0010
0100
,  // measure 35
1000
0010
0100
0010
,  // measure 36
1000
0100
0010
0001
,  // measure 37
1000
0000
0001
0000
1000
0000
0001
0000
1000
0000
0001
0000
,  // measure 38
2000
0000
0000
3000
,  // measure 39
1001
0000
0001
0100
,  // measure 40
0010
0100
0001
0010
,  // measure 41
0100
0000
0010
0001
,  // measure 42
1000
0000
0000
0010
0000
0000
0100
0000
0000
0001
0000
0100
,  // measure 43
0001
0000
1000
0010
,  // measure 44
0100
0010
1000
0100
,  // measure 45
0010
0000
0100
0010
,  // measure 46
0220
0330
2002
3003
,  // measure 47
0100
1010
0100
1001
,  // measure 48
0010
0101
0010
1001
,  // measure 49
0220
0000
0330
0110
,  // measure 50
2002
0000
3003
0000
1000
0001
1000
0001
,  // measure 51
0100
0000
0110
0000
0010
1000
0100
0010
,  // measure 52
0001
0000
1100
0000
0010
0001
0100
0100
,  // measure 53
0100
0000
1010
0000
0100
0010
1000
0001
,  // measure 54
1000
0100
1000
0000
0001
0100
0001
0000
,  // measure 55
1000
0000
0000
0100
0000
0000
1000
0000
0001
0000
0000
0010
0000
0000
0001
0000
,  // measure 56
0100
0000
0000
0010
0000
0000
0100
0000
0001
0000
0000
1000
0000
0000
0001
0000
,  // measure 57
1000
0000
0000
0100
0000
0000
0010
0000
0100
0000
0000
1000
0000
0000
0001
0000
,  // measure 58
1000
0010
0100
0001
1000
0010
0200
0000
,  // measure 59
0300
0000
0000
0000
0000
0000
0000
0000
1001
0000
0000
0000
,  // measure 60
1000
0010
0200
0010
,  // measure 61
0010
0000
0000
0010
0000
0000
0310
0000
0110
0000
0000
0000
,  // measure 62
0010
1000
0002
1000
,  // measure 63
1000
0000
0000
1000
0000
0000
1003
0000
1001
0000
0000
0000
,  // measure 64
1000
0010
0100
0110
,  // measure 65
0110
0000
0000
1001
0000
0000
1001
0000
1001
0000
0000
0000
,  // measure 66
1000
0010
0100
0002
,  // measure 67
0023
0230
0320
0031
,  // measure 68
0100
0010
1000
0010
,  // measure 69
0100
0000
0000
0001
0000
0000
1000
0000
0000
0001
0000
1000
,  // measure 70
0000
0001
0000
1000
0000
0001
0000
1000
0000
0010
0000
0100
,  // measure 71
0000
0010
0000
0100
0000
0010
0000
0100
0000
0001
0000
0010
,  // measure 72
0000
0001
0000
1000
0000
0100
0000
1000
0000
0001
0000
0000
;

//---------------dance-single - ----------------
#NOTES:
     dance-single:
     :
     Easy:
     4:
     0.347,0.421,0.264,0.127,0.010: // measure 1
1000
0001
1000
0001
,  // measure 2
0100
0010
0100
0010
,  // measure 3
1000
0100
0010
0001
,  // measure 4
1001
0000
0110
0000
,  // measure 5
2002
0000
3003
0000
,  // measure 6
1000
0100
0010
0001
,  // measure 7
1000
0000
0001
0000
,  // measure 8
0100
0010
0100
0001
,  // measure 9
1000
0000
0001
0000
,  // measure 10
1000
0100
1000
0000
,  // measure 11
0001
0000
0010
0000
,  // measure 12
0100
0010
0100
0000
,  // measure 13
0010
0000
0001
0000
,  // measure 14
1001
0000
1000
0000
,  // measure 15
0010
0000
0100
0000
,  // measure 16
0001
0000
0100
0000
,  // measure 17
0220
0000
0000
0000
0000
0000
0000
0000
0000
0000
0000
0330
,  // measure 18
0000
0100
0001
1000
,  // measure 19
0100
0000
0010
0000
,  // measure 20
0100
0010
0001
0100
,  // measure 21
0010
0000
0100
0000
,  // measure 22
0010
1000
0010
1000
,  // measure 23
0100
0000
0010
0000
,  // measure 24
0001
0010
0001
0010
,  // measure 25
0100
0000
0010
0000
,  // measure 26
0001
1000
0001
0000
,  // measure 27
1000
0010
1000
0000
,  // measure 28
0001
0000
0100
0000
,  // measure 29
0110
0000
0000
1000
,  // measure 30
1001
0000
0001
0100
,  // measure 31
0002
0000
1003
0000
,  // measure 32
1000
0000
0010
0100
,  // measure 33
0020
0000
0200
0330
,  // measure 34
0100
0001
1000
0001
,  // measure 35
0010
0100
0010
0001
,  // measure 36
1000
0010
0100
0001
,  // measure 37
0011
0000
1100
0000
,  // measure 38
2002
0000
0000
3003
,  // measure 39
0001
0100
0001
0000
,  // measure 40
1000
0100
1000
0000
,  // measure 41
0001
0010
0100
0010
,  // measure 42
0100
1000
0001
0000
,  // measure 43
1000
0010
0100
0000
,  // measure 44
0010
0100
0001
0000
,  // measure 45
1000
0001
1000
0100
,  // measure 46
0110
0000
1001
0000
,  // measure 47
1000
0001
1000
0000
,  // measure 48
0010
0100
0010
1000
,  // measure 49
2002
0000
3003
1001
,  // measure 50
1001
0000
0001
0100
,  // measure 51
0101
0001
1000
0100
,  // measure 52
0010
0100
1000
0000
,  // measure 53
0001
0100
0010
0100
,  // measure 54
0001
1000
0100
0000
,  // measure 55
0010
0001
0100
0000
,  // measure 56
0010
1000
0100
0000
,  // measure 57
0010
0001
1000
0100
,  // measure 58
0010
0001
1000
2002
,  // measure 59
0000
0000
0000
0000
0000
0000
0000
0000
3003
0000
0000
0000
,  // measure 60
1000
0010
0100
0110
,  // measure 61
0000
0010
0000
1000
,  // measure 62
0001
0010
0001
1001
,  // measure 63
0000
1000
0010
0100
,  // measure 64
0001
0010
0100
0110
,  // measure 65
0000
0010
0001
1000
,  // measure 66
0001
0100
0010
0110
,  // measure 67
0000
0010
1000
0001
,  // measure 68
0001
0001
0001
1000
,  // measure 69
1000
1000
1000
1001
,  // measure 70
0000
0001
0000
0101
,  // measure 71
0000
0100
0000
0110
,  // measure 72
0000
1001
0000
0000
0000
0110
0000
0000
0000
1001
0000
0000
;

//---------------dance-single - ----------------
#NOTES:
     dance-single:
     :
     Beginner:
     2:
     0.179,0.210,0.068,0.010,0.000: // measure 1
1000
0000
0001
0000
,  // measure 2
1000
0000
0001
0000
,  // measure 3
0100
0000
0010
0000
,  // measure 4
0200
0000
0000
0000
,  // measure 5
0300
0000
0000
0000
,  // measure 6
0010
0000
0100
0000
,  // measure 7
0010
0000
0000
0000
,  // measure 8
1000
0000
0001
0000
,  // measure 9
1000
0000
0000
0000
,  // measure 10
0001
0000
0010
0000
,  // measure 11
0001
0000
0000
0000
,  // measure 12
1000
0000
0100
0000
,  // measure 13
1000
0000
0000
0000
,  // measure 14
0001
0000
0001
0000
,  // measure 15
1000
0000
1000
0000
,  // measure 16
0010
0000
0100
0000
,  // measure 17
0110
0000
0000
0000
,  // measure 18
0010
0000
0010
0000
,  // measure 19
0010
0000
0000
0000
,  // measure 20
0100
0000
0100
0000
,  // measure 21
0100
0000
0000
0000
,  // measure 22
0001
0000
0001
0000
,  // measure 23
0001
0000
0000
0000
,  // measure 24
1000
0000
1000
0000
,  // measure 25
1000
0000
0000
0000
,  // measure 26
0001
0000
0010
0000
,  // measure 27
0100
0000
1000
0000
,  // measure 28
0001
0000
1000
0000
,  // measure 29
1001
0000
0000
0000
,  // measure 30
0001
0000
1000
0000
,  // measure 31
0010
0010
0010
0000
,  // measure 32
0100
0000
0001
0000
,  // measure 33
1000
0000
0100
0000
,  // measure 34
1000
0000
0100
0000
,  // measure 35
0010
0000
0001
0000
,  // measure 36
1000
0000
0010
0000
,  // measure 37
0110
0000
0000
0000
,  // measure 38
1001
0000
0000
0000
,  // measure 39
1000
0000
0100
0000
,  // measure 40
0010
0000
0100
0000
,  // measure 41
0010
0000
0000
0000
,  // measure 42
0001
0000
0000
0000
,  // measure 43
1000
0000
0010
0000
,  // measure 44
0100
0000
0001
0000
,  // measure 45
1000
0000
0000
0000
,  // measure 46
0001
0000
0000
0000
,  // measure 47
1000
0000
0100
0000
,  // measure 48
0010
0000
0001
0000
,  // measure 49
1001
0000
0000
0001
,  // measure 50
0001
0000
0000
1000
,  // measure 51
1000
0000
0001
0000
,  // measure 52
0100
0000
0010
0000
,  // measure 53
0100
0000
0001
0000
,  // measure 54
1000
0000
0100
0000
,  // measure 55
0010
0000
0001
0000
,  // measure 56
1000
0000
0010
0000
,  // measure 57
0100
0000
0001
0000
,  // measure 58
1001
0000
0000
0000
,  // measure 59
0000
0000
0000
1000
,  // measure 60
0000
0001
0000
1000
,  // measure 61
0000
0000
0000
0010
,  // measure 62
0000
0100
0000
0010
,  // measure 63
0000
0000
0000
1000
,  // measure 64
0000
0001
0000
1000
,  // measure 65
0000
0000
0000
0001
,  // measure 66
0000
0010
0000
0001
,  // measure 67
0000
0000
0000
1000
,  // measure 68
0000
0100
0000
0010
,  // measure 69
0000
0001
0000
1000
,  // measure 70
0000
0001
0000
0100
,  // measure 71
0000
0010
0000
0100
,  // measure 72
0000
0001
0000
1001
;
