#TITLE:Eastern European Funk;
#SUBTITLE:;
#ARTIST:InCulto;
#TITLETRANSLIT:;
#SUBTITLETRANSLIT:;
#ARTISTTRANSLIT:;
#CREDIT:;
#BANNER:Eastern European Funk.png;
#BACKGROUND:Eastern European Funk-bg.png;
#LYRICSPATH:;
#CDTITLE:;
#MUSIC:Eastern European Funk.mp3;
#OFFSET:-7.190;
#SAMPLESTART:40.720;
#SAMPLELENGTH:14.300;
#SELECTABLE:YES;
#BPMS:0.000=134.000,63.000=140.000,64.000=136.000,68.000=133.400,75.000=134.000,99.000=135.000,107.000=132.000,111.000=134.000,127.000=132.000,132.000=134.000;
#STOPS:;
#BGCHANGES:;

//---------------dance-single - ----------------
#NOTES:
     dance-single:
     :
     Hard:
     7:
     0.461,0.455,0.266,0.071,0.066: // measure 1
1001
0000
0000
0001
0100
0010
1000
0100
,  // measure 2
1000
0000
0010
0000
0100
0000
0001
0010
,  // measure 3
0011
0000
0001
0100
1000
0100
0001
0000
,  // measure 4
1000
0100
0010
0100
1000
0000
0011
0000
,  // measure 5
1001
0000
1000
0010
0100
0010
1000
0000
,  // measure 6
0001
0000
0010
0100
0010
0000
0001
0100
,  // measure 7
0001
0000
1000
0010
0001
0010
0100
0010
,  // measure 8
1000
0000
0001
0100
0001
1000
1000
1000
,  // measure 9
0001
1000
0100
0001
,  // measure 10
0100
1000
0001
0000
0100
0001
1000
0000
,  // measure 11
0010
0001
0010
1000
,  // measure 12
0100
0000
0010
0000
0001
0000
0000
0000
0010
0000
0000
0001
0000
0000
1000
0000
,  // measure 13
0100
0000
0010
0001
0100
0000
1000
0000
,  // measure 14
0100
0001
1000
0000
0100
0010
0100
0010
,  // measure 15
0001
0000
1000
0010
0100
0000
0010
0000
,  // measure 16
1000
0010
0001
0010
1000
0100
0010
0100
,  // measure 17
0220
0000
0000
0330
,  // measure 18
0001
0000
0000
1000
0000
0000
0001
0000
0100
0000
0000
0000
0010
0000
0000
0100
,  // measure 19
0000
0010
1000
0000
0101
0000
1001
0001
,  // measure 20
0100
0010
0100
0000
0010
0000
1000
0100
,  // measure 21
0001
0000
0001
0100
1000
0000
0010
0100
,  // measure 22
0001
0010
0100
0000
0010
0000
0001
0100
,  // measure 23
1000
0000
1000
0100
0001
0000
1000
0100
,  // measure 24
0010
0001
0100
0000
0010
0000
1000
0010
,  // measure 25
0001
0000
0000
0010
0000
0000
1000
0000
0000
0000
0000
0000
0100
0000
0000
0000
0000
0000
0110
0000
0000
0000
0010
0000
,  // measure 26
0000
0001
0000
1001
0000
1000
0000
0010
0000
0110
0000
0100
,  // measure 27
0000
0001
0000
0011
0000
0000
1100
0000
0000
1001
0000
0000
,  // measure 28
0001
0100
0001
0000
1000
0100
0010
0100
,  // measure 29
1000
0010
0001
0010
0100
0000
0001
0000
,  // measure 30
0010
0001
0100
0000
0010
1000
0100
0001
,  // measure 31
0100
1000
0010
0100
0001
0000
0010
0000
,  // measure 32
0001
0010
0100
0000
0010
0001
0100
0010
,  // measure 33
1000
0010
0110
0000
0101
0000
1001
0000
,  // measure 34
1010
0000
0010
0000
0100
0000
0110
0000
0010
0000
1000
0000
,  // measure 35
1100
0000
0100
0000
0010
0000
0011
0000
0000
0101
0000
0000
,  // measure 36
0120
0000
1000
0000
,  // measure 37
0100
0000
1000
0000
,  // measure 38
0230
0000
0010
0000
,  // measure 39
0001
0000
0010
0000
,  // measure 40
0301
0000
0101
0000
0100
0000
0010
1000
,  // measure 41
0000
1000
0100
0010
0001
0000
0001
0100
,  // measure 42
0000
0100
0001
0010
0100
0000
0010
0001
,  // measure 43
2002
0000
0000
3003
,  // measure 44
1000
0100
1000
0001
1000
0100
0010
0100
,  // measure 45
0010
0001
0100
0010
0100
0001
1000
0000
,  // measure 46
0001
0100
0010
0100
0001
0010
0100
0001
,  // measure 47
0000
0001
0100
2000
0000
0010
3010
0000
,  // measure 48
0001
0010
0100
1000
0100
0010
0100
1000
,  // measure 49
0010
0001
0010
1000
0100
0010
0001
0010
,  // measure 50
0000
0011
0000
0001
0100
0010
0100
0001
,  // measure 51
1000
0100
0010
0200
0000
0000
1300
0000
,  // measure 52
1000
0010
0001
0010
1000
0010
0100
0010
,  // measure 53
1000
0100
0001
0100
1000
0100
0010
0100
,  // measure 54
0000
0011
0000
0101
0000
1100
0000
0110
,  // measure 55
0010
1000
0100
0010
0100
0010
0001
0000
,  // measure 56
1000
0001
0100
0001
0010
0100
0001
0100
,  // measure 57
1000
0010
0100
0001
0100
0010
1000
0001
,  // measure 58
1001
0000
0000
0000
;

//---------------dance-single - ----------------
#NOTES:
     dance-single:
     :
     Medium:
     6:
     0.389,0.354,0.133,0.089,0.062: // measure 1
0100
0000
0000
0001
0100
0000
1000
0000
,  // measure 2
0100
0000
0000
0001
1000
0000
0100
0000
,  // measure 3
0010
0000
0000
0100
0010
0000
0001
0000
,  // measure 4
1000
0010
1000
0010
0100
0000
0001
0000
,  // measure 5
1001
0000
0000
1000
0100
0000
0001
0000
,  // measure 6
0100
0000
0000
0010
0001
0000
1000
0001
,  // measure 7
1000
0000
0000
0001
0100
0000
0001
0000
,  // measure 8
1000
0000
0100
0000
0010
0001
0001
0001
,  // measure 9
1000
0000
0001
0100
0002
0000
0003
0000
,  // measure 10
1000
0100
1000
0000
0001
0010
0001
0000
,  // measure 11
1000
0000
0010
0100
0002
0000
0003
0000
,  // measure 12
1000
0100
0010
0000
0010
0100
1000
0000
,  // measure 13
0001
0000
1000
0010
2000
0000
3000
0000
,  // measure 14
0001
1000
0100
0000
1000
0001
0100
0000
,  // measure 15
0001
0000
0010
0100
0020
0000
0030
0000
,  // measure 16
0001
0010
0001
0000
1000
0000
1100
0000
,  // measure 17
2002
0000
0000
3003
,  // measure 18
1000
0000
0000
0001
0000
0000
1000
0000
0001
0000
0000
0000
0100
0000
0000
0010
,  // measure 19
0000
0100
0010
0000
1001
0000
0110
0000
,  // measure 20
0010
1000
0001
0000
0010
0001
0010
0001
,  // measure 21
0100
0000
0010
1000
0100
0000
0010
0000
,  // measure 22
0100
1000
0001
0000
1000
0010
0100
0001
,  // measure 23
0010
0000
0001
0100
1000
0000
0100
0000
,  // measure 24
0001
1000
0001
0000
1000
0100
0010
0001
,  // measure 25
0100
0000
0000
0000
0000
0000
0010
0000
0000
1000
0000
0000
0010
0000
0000
1000
0000
0000
0100
0000
0000
0000
0100
0000
,  // measure 26
0000
0100
0000
0010
0000
0010
0000
0010
0000
0001
0000
1000
,  // measure 27
0000
0001
0000
1000
0000
0000
0101
0000
0000
1001
0000
0000
,  // measure 28
1000
0100
0001
0000
0001
0100
1000
0001
,  // measure 29
0100
0000
0010
1000
0100
0000
0010
0000
,  // measure 30
0001
0100
1000
0000
1000
0100
0001
1000
,  // measure 31
0100
0000
0010
0001
0100
0010
1000
0000
,  // measure 32
0001
0100
0001
0000
1000
0100
0010
0100
,  // measure 33
1000
0101
0022
0033
,  // measure 34
1000
0000
0001
0000
1000
0000
0010
0000
0100
0000
0010
0000
,  // measure 35
1000
0000
0001
0000
1000
0000
0001
0000
0000
1001
0000
0000
,  // measure 36
0110
0000
0010
0000
,  // measure 37
1000
0000
0100
0000
,  // measure 38
0010
0000
0001
0000
,  // measure 39
1000
0000
0010
0000
,  // measure 40
1000
0001
1000
0100
,  // measure 41
0001
0100
1000
0010
,  // measure 42
0100
0100
0010
0010
,  // measure 43
2002
0000
0000
3003
,  // measure 44
1000
0100
1000
0100
1000
0000
0001
0000
,  // measure 45
0100
0000
0001
0000
1000
0100
1000
0000
,  // measure 46
0010
0000
0100
0010
0100
0000
0001
0000
,  // measure 47
0010
0000
0100
0000
0010
0001
0010
0000
,  // measure 48
0001
1000
0001
1000
0010
0000
0100
0000
,  // measure 49
0001
0000
0010
0000
0100
0010
0001
0000
,  // measure 50
1000
0010
0100
0001
1000
0000
0100
0000
,  // measure 51
0010
0100
0010
0000
0001
0010
0001
0000
,  // measure 52
1001
0000
1000
0010
0100
0000
0001
0010
,  // measure 53
0100
0010
0001
0000
1000
0000
0010
0100
,  // measure 54
0001
0000
1000
0100
1000
0000
0001
0010
,  // measure 55
0100
0010
0001
0000
0100
0000
1000
0100
,  // measure 56
0001
0000
1000
0100
1000
0000
0001
1000
,  // measure 57
0001
1000
0100
0000
0010
0000
0110
0000
,  // measure 58
1001
0000
0000
0000
;

//---------------dance-single - ----------------
#NOTES:
     dance-single:
     :
     Easy:
     2:
     0.203,0.227,0.133,0.000,0.000: // measure 1
1000
0000
0001
0000
,  // measure 2
1000
0000
0100
0010
,  // measure 3
0100
0000
0010
0000
,  // measure 4
0001
0000
1000
1000
,  // measure 5
1000
0000
0001
0000
,  // measure 6
0100
0000
0010
0100
,  // measure 7
0010
0000
1000
0000
,  // measure 8
0001
0000
1000
0001
,  // measure 9
1001
0000
1000
0000
,  // measure 10
0100
0000
0010
0100
,  // measure 11
0010
0000
0001
0000
,  // measure 12
0100
0000
0010
1000
,  // measure 13
0010
0000
1000
0000
,  // measure 14
0001
0000
0010
0001
,  // measure 15
0010
0000
0001
0000
,  // measure 16
1000
0000
0100
0010
,  // measure 17
0110
0000
0000
0000
,  // measure 18
1001
0000
0000
0110
,  // measure 19
0000
0000
1001
1001
,  // measure 20
0000
1000
0100
1000
,  // measure 21
0000
0001
0010
0001
,  // measure 22
0000
1000
0010
1000
,  // measure 23
0000
0001
0100
0001
,  // measure 24
0000
1000
0100
1000
,  // measure 25
0000
0001
1000
1001
,  // measure 26
0000
1001
0000
0110
,  // measure 27
0000
0100
0010
0110
,  // measure 28
0000
0010
0000
1000
,  // measure 29
0001
1000
0001
1000
,  // measure 30
0000
0001
0000
0010
,  // measure 31
0100
0010
0100
0010
,  // measure 32
0000
0001
0000
1000
,  // measure 33
0100
1000
0100
0000
,  // measure 34
1001
0000
0110
0000
,  // measure 35
1001
0000
1000
0001
,  // measure 36
1001
0000
1000
0000
,  // measure 37
0100
0000
0100
0000
,  // measure 38
0010
0000
0010
0000
,  // measure 39
0100
0000
0100
0000
,  // measure 40
0010
0000
0010
0000
,  // measure 41
0001
0000
0001
0000
,  // measure 42
1000
0000
1000
0000
,  // measure 43
1001
0000
0000
0000
,  // measure 44
0001
0001
0001
0000
,  // measure 45
1000
0000
0100
0000
,  // measure 46
0010
0010
0010
0000
,  // measure 47
0100
0000
1000
0000
,  // measure 48
0010
0010
0010
0000
,  // measure 49
0100
0000
0001
0000
,  // measure 50
1000
1000
1000
0000
,  // measure 51
0001
0000
1000
0000
,  // measure 52
0001
0010
0001
0000
,  // measure 53
1000
0010
1000
0000
,  // measure 54
0010
0100
0010
0000
,  // measure 55
0100
0001
0100
0000
,  // measure 56
0001
1000
0001
0000
,  // measure 57
1000
0100
1000
0100
,  // measure 58
0010
0000
0000
0000
;

//---------------dance-single - ----------------
#NOTES:
     dance-single:
     :
     Beginner:
     1:
     0.139,0.152,0.089,0.000,0.000: // measure 1
1000
0000
0000
0000
,  // measure 2
0001
0000
1000
0000
,  // measure 3
0100
0000
0000
0000
,  // measure 4
0010
0000
0100
0000
,  // measure 5
0010
0000
0000
0000
,  // measure 6
0001
0000
1000
0000
,  // measure 7
0010
0000
0000
0000
,  // measure 8
0100
0000
0010
0000
,  // measure 9
0110
0000
0000
0000
,  // measure 10
0010
0000
1000
1000
,  // measure 11
1000
0000
0000
0000
,  // measure 12
0001
0000
0010
0010
,  // measure 13
0010
0000
0000
0000
,  // measure 14
0100
0000
1000
1000
,  // measure 15
1000
0000
0000
0000
,  // measure 16
0010
0000
0100
0100
,  // measure 17
0100
0000
0000
0000
,  // measure 18
0110
0000
0000
0110
,  // measure 19
0000
0000
0000
1001
,  // measure 20
0000
1000
0000
0100
,  // measure 21
0000
0010
0000
0001
,  // measure 22
0000
0100
0000
0010
,  // measure 23
0000
0100
0000
0010
,  // measure 24
0000
1000
0000
0100
,  // measure 25
0000
0010
0000
0110
,  // measure 26
0000
0010
0000
0001
,  // measure 27
0000
1001
0000
1000
,  // measure 28
0000
0010
0000
1000
,  // measure 29
0000
0001
0000
0100
,  // measure 30
0000
0010
0000
0100
,  // measure 31
0000
0001
0000
0010
,  // measure 32
0000
1000
0000
0010
,  // measure 33
0000
0001
0000
0000
,  // measure 34
1001
0000
1000
0000
,  // measure 35
0001
0000
0100
0000
,  // measure 36
0110
0000
0000
0000
,  // measure 37
0100
0000
0000
0000
,  // measure 38
0001
0000
0000
0000
,  // measure 39
1000
0000
0000
0000
,  // measure 40
0100
0000
0000
0000
,  // measure 41
0010
0000
0000
0000
,  // measure 42
0001
0000
0000
0000
,  // measure 43
1001
0000
0000
0000
,  // measure 44
1000
0000
1000
0000
,  // measure 45
0001
0000
0001
0000
,  // measure 46
0100
0000
0100
0000
,  // measure 47
0010
0000
0010
0000
,  // measure 48
0100
0000
0010
0000
,  // measure 49
1000
0000
0010
0000
,  // measure 50
0100
0000
0001
0000
,  // measure 51
0100
0000
0010
0000
,  // measure 52
1000
0000
0100
0000
,  // measure 53
0010
0000
0100
0000
,  // measure 54
0010
0000
0001
0000
,  // measure 55
1000
0000
0001
0000
,  // measure 56
0100
0000
0010
0000
,  // measure 57
1000
0000
0001
0000
,  // measure 58
1001
0000
0000
0000
;
