#TITLE:Don't Tell Me;
#SUBTITLE:;
#ARTIST:House Rulez feat. Gina;
#TITLETRANSLIT:;
#SUBTITLETRANSLIT:;
#ARTISTTRANSLIT:;
#CREDIT:;
#BANNER:;
#BACKGROUND:;
#LYRICSPATH:;
#CDTITLE:;
#MUSIC:Don't Tell Me.mp3;
#OFFSET:-0.050;
#SAMPLESTART:16.560;
#SAMPLELENGTH:15.110;
#SELECTABLE:YES;
#BPMS:0.000=127.000;
#STOPS:;
#BGCHANGES:;

//---------------dance-single - ----------------
#NOTES:
     dance-single:
     :
     Hard:
     7:
     0.425,0.436,0.270,0.144,0.054: // measure 1
0000
0000
0000
0000
,  // measure 2
1001
0000
0000
0000
1000
0000
0000
0001
0000
0000
0100
0000
0000
0010
0000
0000
,  // measure 3
1000
0000
0100
0000
0001
0100
1000
0000
,  // measure 4
0001
0000
0000
0000
1000
0000
0000
0001
0000
0000
1000
0000
0000
0100
0000
0000
,  // measure 5
0010
0000
0100
0000
0010
0001
0100
1000
,  // measure 6
0100
0000
0000
0000
0001
0000
0000
1000
0000
0000
0001
0000
0000
0100
0000
0000
,  // measure 7
0001
0000
1000
0000
0001
0010
0100
0000
,  // measure 8
0011
0000
1000
0000
0010
0100
0001
0000
,  // measure 9
0100
0010
1000
0100
0010
0000
1001
0000
,  // measure 10
0101
0000
0010
1000
0100
0010
0100
0000
,  // measure 11
0010
0001
0100
0000
0010
1000
0100
0000
,  // measure 12
0011
0000
0001
0000
1000
0100
0010
0100
,  // measure 13
0000
0010
0001
0000
1000
0010
0100
0000
,  // measure 14
1010
0000
0001
0000
0010
0001
1000
0000
,  // measure 15
0100
0010
0001
0010
0001
0000
1000
0000
,  // measure 16
1010
0000
1001
0000
0101
0000
0001
0010
,  // measure 17
0000
0100
1000
0000
0001
1000
0001
0000
,  // measure 18
1000
0001
0001
0000
0010
0001
0001
0100
,  // measure 19
0010
0100
0100
0000
0010
0100
0100
0001
,  // measure 20
0010
0000
1100
0000
0010
0001
0100
0000
,  // measure 21
0010
1000
0001
1000
0100
0001
0100
0000
,  // measure 22
0010
0001
0001
1000
0001
0001
0100
0000
,  // measure 23
0010
1000
1000
0001
1000
1000
0100
0000
,  // measure 24
0010
0001
0100
0000
0001
1000
0000
1000
,  // measure 25
0100
0001
0100
0000
1000
0100
0010
0000
,  // measure 26
1001
0000
0101
0000
0001
1000
0010
0000
,  // measure 27
2001
3200
2300
3200
,  // measure 28
0301
0000
0000
0000
0100
0000
0000
0100
1000
0000
0001
0000
0100
0000
0000
0000
,  // measure 29
0010
0100
0001
0010
0001
1000
0100
0010
,  // measure 30
0100
0000
0010
0000
0001
1000
0001
0000
,  // measure 31
2001
3020
0230
0302
,  // measure 32
0103
0000
0000
0000
1010
0000
0000
0010
1000
0000
0100
0000
0010
0000
0000
0000
,  // measure 33
0001
0010
0100
0010
0001
0000
1001
0000
,  // measure 34
0110
0000
0001
1000
0100
0010
0000
0100
,  // measure 35
0000
0010
0001
0100
0010
1000
0001
0000
,  // measure 36
0011
0000
1100
0000
1010
0000
0001
0100
,  // measure 37
0000
0100
0001
1000
0100
0010
0100
0000
,  // measure 38
0011
0000
0001
0100
1000
0100
0000
0001
,  // measure 39
0000
1000
0100
0001
0100
0010
0001
0000
,  // measure 40
0011
0000
1100
0000
1010
0000
0001
0100
,  // measure 41
0001
0100
0002
0000
1000
1000
2003
0000
,  // measure 42
3200
0000
0000
0000
,  // measure 43
0000
0000
0000
0000
,  // measure 44
2300
0000
0000
0000
,  // measure 45
0000
0000
0000
0000
,  // measure 46
3002
0000
0000
0000
,  // measure 47
0000
0000
0000
0000
,  // measure 48
0203
0000
0000
0000
,  // measure 49
0310
0010
0010
0000
1000
0001
1001
0000
,  // measure 50
1100
0000
0000
0000
0011
0000
0000
0010
0001
0000
0100
0000
0010
0000
1000
0000
,  // measure 51
0001
0000
0011
0000
0010
0001
0100
0000
,  // measure 52
0010
0000
0000
0000
1010
0000
0000
0001
1000
0000
0001
0000
0100
0000
0000
0000
,  // measure 53
0010
1000
0100
0001
0100
1000
0001
0010
,  // measure 54
0001
0000
1001
0000
1000
0010
0100
0000
,  // measure 55
0001
1000
0100
0000
0010
0010
0010
0001
,  // measure 56
2000
0000
0001
0002
0000
0000
0000
0000
,  // measure 57
0000
0000
0000
0000
0000
0000
3003
0000
0000
0000
0000
0000
1000
0000
0001
0000
1000
0000
0001
0000
0000
1000
0000
0000
;

//---------------dance-single - ----------------
#NOTES:
     dance-single:
     :
     Medium:
     5:
     0.332,0.358,0.099,0.144,0.000: // measure 1
0000
0000
0000
0000
,  // measure 2
1001
0000
1000
0100
,  // measure 3
0001
0000
0001
0100
,  // measure 4
1000
0010
0100
0001
,  // measure 5
0010
0000
0010
0001
,  // measure 6
1000
0010
0100
0010
,  // measure 7
0100
0000
0010
0100
,  // measure 8
0010
1000
0100
0010
,  // measure 9
0100
0010
0001
0011
,  // measure 10
1001
0000
1000
0010
,  // measure 11
0100
0000
0001
0000
0010
0001
0100
0000
,  // measure 12
0001
0000
1000
0000
0001
0000
1000
0100
,  // measure 13
0000
0010
0001
0000
1000
0001
1000
0000
,  // measure 14
0010
0100
0001
0010
,  // measure 15
0100
0000
0010
0000
0001
1000
0100
0000
,  // measure 16
0010
0000
0001
0000
0010
0000
0001
1000
,  // measure 17
0100
0010
0001
0000
1000
1000
1000
0000
,  // measure 18
0001
0100
0001
0000
1000
0000
0100
0000
,  // measure 19
0010
0100
0010
0000
0100
0000
1000
0001
,  // measure 20
0100
0000
0010
0000
0100
0000
0001
1000
,  // measure 21
0000
1000
0100
0020
0000
0100
0130
0000
,  // measure 22
0010
0001
0100
0000
0010
0010
0010
0000
,  // measure 23
0100
0000
0001
0000
1000
1000
1000
0000
,  // measure 24
0001
0000
0010
0000
0001
1000
0000
0100
,  // measure 25
0000
0010
0001
0000
1000
0001
0100
0000
,  // measure 26
1010
1000
0100
0010
,  // measure 27
0200
2300
3200
2300
,  // measure 28
3001
0000
1000
0000
0001
0010
1000
0000
,  // measure 29
0010
0000
0001
0000
1000
0010
1000
0010
,  // measure 30
0100
0000
0001
0000
1000
0100
0001
0000
,  // measure 31
0200
2300
3002
2003
,  // measure 32
3001
0100
1000
0100
,  // measure 33
0001
0010
0100
0010
0001
0000
1001
0000
,  // measure 34
0110
0000
0010
0000
1000
0100
0010
0000
,  // measure 35
0001
0010
0001
0000
1000
0001
0100
0000
,  // measure 36
0010
0000
1000
0000
0001
0000
0010
0100
,  // measure 37
0000
0010
0100
0000
0010
0001
1000
0000
,  // measure 38
0001
0000
1000
0000
0010
0100
0001
0000
,  // measure 39
0010
0001
1000
0000
0001
0001
0001
0000
,  // measure 40
0100
1000
0010
0001
,  // measure 41
1000
0001
0200
0000
0010
0000
0310
0000
,  // measure 42
2001
0000
0000
0000
,  // measure 43
0000
0000
0000
0000
,  // measure 44
3200
0000
0000
0000
,  // measure 45
0000
0000
0000
0000
,  // measure 46
0320
0000
0000
0000
,  // measure 47
0000
0000
0000
0000
,  // measure 48
0032
0000
0000
0000
,  // measure 49
1003
0001
0100
0110
,  // measure 50
1001
0000
1000
0000
0100
0000
0010
0001
,  // measure 51
0010
0000
0001
0000
1000
0001
1000
0000
,  // measure 52
0001
0000
0100
0000
0010
0000
1000
0001
,  // measure 53
0100
0000
0001
0000
0010
0001
1000
0000
,  // measure 54
0001
0000
1000
0000
0100
0000
0010
0100
,  // measure 55
1000
0000
0001
0000
0100
0010
0100
0001
,  // measure 56
2000
0000
0001
0002
0000
0000
0000
0000
,  // measure 57
0000
3003
0110
1001
;

//---------------dance-single - ----------------
#NOTES:
     dance-single:
     :
     Easy:
     4:
     0.249,0.281,0.072,0.108,0.000: // measure 1
0000
0000
0000
0000
,  // measure 2
1001
0000
0001
0000
,  // measure 3
1000
0000
0100
0010
,  // measure 4
0100
0000
0010
0000
,  // measure 5
0001
0000
1000
0010
,  // measure 6
1000
0000
0001
0000
,  // measure 7
0010
0000
0100
0010
,  // measure 8
0001
0000
1000
0000
,  // measure 9
0001
0100
0220
0330
,  // measure 10
1001
0000
0001
1000
,  // measure 11
0001
1000
0010
0100
,  // measure 12
0010
0010
0100
0100
,  // measure 13
0001
0000
1000
0001
,  // measure 14
1000
0100
0001
0100
,  // measure 15
0010
0001
1000
0001
,  // measure 16
0100
0000
0010
1000
,  // measure 17
0100
0010
0002
0003
,  // measure 18
1001
0100
0010
0100
,  // measure 19
0001
0010
0100
0010
,  // measure 20
0001
1000
0001
1000
,  // measure 21
0010
0100
0001
0000
,  // measure 22
1000
0100
0010
0100
,  // measure 23
1000
0010
0100
0001
,  // measure 24
0010
0001
1000
0100
,  // measure 25
0010
0010
0100
0100
,  // measure 26
1001
0000
0010
2000
,  // measure 27
0001
0001
0001
3001
,  // measure 28
1000
0100
0010
0100
,  // measure 29
0010
0001
1000
0001
,  // measure 30
0100
0000
0010
1000
,  // measure 31
0002
1000
1000
1003
,  // measure 32
1000
0100
0001
0010
,  // measure 33
0001
0100
0010
0001
,  // measure 34
1001
0000
0001
0100
,  // measure 35
0010
0100
0001
1000
,  // measure 36
0100
0100
0010
0010
,  // measure 37
0100
1000
0001
0100
,  // measure 38
0010
1000
0001
1000
,  // measure 39
0001
0100
0010
0100
,  // measure 40
0001
0001
1000
1000
,  // measure 41
0100
0010
0001
2000
,  // measure 42
3002
0000
0000
0000
,  // measure 43
0000
0000
0000
0000
,  // measure 44
0203
0000
0000
0000
,  // measure 45
0000
0000
0000
0000
,  // measure 46
0302
0000
0000
0000
,  // measure 47
0000
0000
0000
0000
,  // measure 48
2003
0000
0000
0000
,  // measure 49
3001
0001
1000
1001
,  // measure 50
0001
0010
0100
0010
,  // measure 51
0001
0001
1000
1000
,  // measure 52
0010
1000
0100
1000
,  // measure 53
0010
0010
0100
0100
,  // measure 54
0001
0010
1000
0010
,  // measure 55
0001
0001
1000
0001
,  // measure 56
2002
0000
0000
0000
,  // measure 57
0000
0000
0000
3003
;

//---------------dance-single - ----------------
#NOTES:
     dance-single:
     :
     Beginner:
     1:
     0.117,0.149,0.054,0.000,0.000: // measure 1
0000
0000
0000
0000
,  // measure 2
1001
0000
0000
0000
,  // measure 3
1000
0000
0100
0000
,  // measure 4
1000
0000
0000
0000
,  // measure 5
0001
0000
1000
0000
,  // measure 6
0001
0000
0000
0000
,  // measure 7
0100
0000
0001
0000
,  // measure 8
0100
0000
0010
0000
,  // measure 9
0100
0000
0001
0000
,  // measure 10
1001
0000
0000
0000
,  // measure 11
0000
0000
0000
0000
,  // measure 12
1000
1000
1000
1000
,  // measure 13
1000
0000
0001
0000
,  // measure 14
0100
0000
0000
0000
,  // measure 15
0000
0000
0000
0000
,  // measure 16
0010
0010
0010
0010
,  // measure 17
0010
0000
0100
0000
,  // measure 18
0001
0000
1000
0000
,  // measure 19
0100
0000
0010
0000
,  // measure 20
0100
0000
0000
0000
,  // measure 21
0010
0000
0000
0000
,  // measure 22
0001
0000
0010
0000
,  // measure 23
0001
0000
1000
0000
,  // measure 24
0001
0000
0000
0000
,  // measure 25
1000
0000
0001
0000
,  // measure 26
1001
0000
0000
0000
,  // measure 27
1000
0000
0001
0000
,  // measure 28
0100
0000
0000
0000
,  // measure 29
0010
0000
0100
0000
,  // measure 30
0001
0000
0000
0000
,  // measure 31
0010
0000
0001
0000
,  // measure 32
1000
0000
0001
0000
,  // measure 33
1000
0000
0100
0000
,  // measure 34
0110
0000
0000
0000
,  // measure 35
0010
0000
0001
0000
,  // measure 36
1000
0000
1000
0000
,  // measure 37
0001
0000
0000
0000
,  // measure 38
0100
0000
0001
0000
,  // measure 39
1000
0000
0010
0000
,  // measure 40
0100
0000
0100
0000
,  // measure 41
0010
0000
0000
0000
,  // measure 42
1000
0000
0000
0000
,  // measure 43
0000
0000
0000
0000
,  // measure 44
0100
0000
0000
0000
,  // measure 45
0000
0000
0000
0000
,  // measure 46
0010
0000
0000
0000
,  // measure 47
0000
0000
0000
0000
,  // measure 48
0001
0000
0000
0000
,  // measure 49
1000
0000
0001
0000
,  // measure 50
1001
0000
1000
0000
,  // measure 51
0010
0000
0100
0000
,  // measure 52
0001
0000
0100
0000
,  // measure 53
0010
0000
1000
0000
,  // measure 54
0001
0000
0010
0000
,  // measure 55
0100
0000
0010
0000
,  // measure 56
0110
0000
0000
0000
;
