#TITLE:Dances with Snow Fairies;
#SUBTITLE:;
#ARTIST:Dr.Honda;
#TITLETRANSLIT:;
#SUBTITLETRANSLIT:;
#ARTISTTRANSLIT:;
#CREDIT:;
#BANNER:;
#BACKGROUND:;
#LYRICSPATH:;
#CDTITLE:;
#MUSIC:Dances with Snow Fairies.mp3;
#OFFSET:-6.300;
#SAMPLESTART:43.640;
#SAMPLELENGTH:12.460;
#SELECTABLE:YES;
#BPMS:0.000=154.000;
#STOPS:;
#BGCHANGES:;

//---------------dance-single - ----------------
#NOTES:
     dance-single:
     :
     Hard:
     8:
     0.578,0.548,0.217,0.226,0.325: // measure 1
1000
0000
0001
0000
1000
0100
0010
0100
,  // measure 2
1000
0001
0100
0000
0010
0100
0001
0000
,  // measure 3
0010
0000
0001
0000
1000
0100
0001
0100
,  // measure 4
0010
0000
0001
0000
0100
0000
0000
0000
0010
0000
1000
0100
0000
0100
1000
0000
,  // measure 5
0010
0000
0100
0000
0001
1000
0100
0000
,  // measure 6
0010
0100
0010
0001
0010
0001
1000
0010
,  // measure 7
0100
0000
0001
0000
1000
0010
0100
0001
,  // measure 8
1000
0000
0000
0100
0000
0000
1000
0000
0001
0000
0000
1000
0000
0000
0001
0000
,  // measure 9
0101
0000
0011
0000
1000
0100
1000
0000
,  // measure 10
0001
1000
0100
0010
0100
1000
0001
0000
,  // measure 11
1010
0000
0101
0000
0001
1000
0100
0000
,  // measure 12
0010
0000
0001
0000
0100
0000
1000
0000
0100
0000
0001
1000
0000
0001
1000
0000
,  // measure 13
0001
1000
0010
0100
0010
1000
0001
0100
,  // measure 14
0001
0000
0000
0010
0000
0000
0100
0000
1000
0000
0001
0000
0100
0000
0000
0000
,  // measure 15
0001
0000
1000
0000
0100
0000
0010
0000
0001
0000
0010
0100
0000
0000
0010
0000
,  // measure 16
0001
0000
0000
1000
0000
0000
0001
0000
0100
0000
0000
0010
0000
0010
1000
0000
,  // measure 17
2002
0003
0200
0300
,  // measure 18
0020
0030
0001
0100
,  // measure 19
0020
3000
0200
0300
,  // measure 20
0002
0003
0100
1030
,  // measure 21
2002
0003
0200
3000
,  // measure 22
0020
0300
0001
0130
,  // measure 23
2002
0003
0020
3000
,  // measure 24
0200
0000
0330
1001
,  // measure 25
1010
0000
0000
0010
0100
0000
0000
0100
0001
0000
0000
0001
0010
0000
0000
0010
,  // measure 26
0100
0000
0000
0100
1000
0000
0000
1000
0001
0000
0000
0001
0100
0000
0010
0000
,  // measure 27
0100
0000
0000
0100
0001
0000
0000
0001
1000
0000
0000
1000
0100
0000
0000
0100
,  // measure 28
0010
0000
0000
0010
0100
0000
0000
0100
1000
0000
0000
1000
0001
0000
0010
0001
,  // measure 29
0010
0000
0000
0010
0001
0000
0000
0001
1000
0000
0000
1000
0010
0000
0000
0010
,  // measure 30
0100
0000
0000
0100
0001
0000
0000
0001
0010
0000
0000
0010
0001
0000
1000
0000
,  // measure 31
0001
0000
0000
0001
1000
0000
0000
1000
0100
0000
0000
0100
0001
0000
0000
0001
,  // measure 32
0100
0000
0000
0100
1000
0000
0000
1000
0010
0000
0000
0101
0000
0000
1000
0100
,  // measure 33
1000
0100
0010
0100
1000
0001
0100
0001
,  // measure 34
0010
0100
0010
0001
1000
0010
0100
0001
,  // measure 35
1000
0100
0001
0100
1000
0001
0010
0100
,  // measure 36
0010
0000
0100
0000
1000
0000
0001
0000
1000
0000
0000
1010
0000
0000
0010
0000
,  // measure 37
0110
0000
0000
0100
0001
0000
1000
0000
0100
0000
0001
0000
0100
0000
1000
0000
,  // measure 38
0001
0000
0000
0010
0001
0000
1000
0000
0010
0000
0100
0000
0001
0000
1000
0000
,  // measure 39
0100
0000
0000
0010
0100
0000
0010
0000
0001
0000
1000
0000
0001
0000
1000
0000
,  // measure 40
0010
0000
0000
0100
0001
0000
1000
0000
0001
0000
0000
1001
0000
0000
1000
0000
,  // measure 41
0100
0000
0000
0100
0010
0000
0000
0010
0001
0000
0000
0001
1000
0000
0001
0000
,  // measure 42
0100
0000
0000
0100
0010
0000
0000
0010
1000
0000
0000
1000
0001
0000
1000
0000
,  // measure 43
0100
0000
0000
0100
0001
0000
0000
0001
0100
0000
0000
0100
1000
0000
0001
0000
,  // measure 44
0100
0000
0010
0000
0100
0000
0001
0000
0010
0000
0000
1100
0000
0000
0001
0000
,  // measure 45
1001
0000
0000
1000
0100
0000
0010
0000
0001
0000
1000
0001
1000
0000
0001
0000
,  // measure 46
0100
0000
0000
0100
0001
0000
1000
0000
0100
0000
0010
0000
0100
0000
1000
0000
,  // measure 47
0001
1100
1000
0101
,  // measure 48
0001
0000
0100
0000
1000
0000
0100
0000
0010
0000
0000
1000
0000
0000
0001
0000
,  // measure 49
2001
0000
0010
0000
,  // measure 50
3200
0000
0000
0000
0000
0000
0010
0000
0310
0000
0000
0100
0000
0000
0010
0000
,  // measure 51
0011
0000
1001
0000
2010
0010
0000
0001
,  // measure 52
0000
0010
0000
0002
0000
0000
3003
0000
,  // measure 53
0102
0100
0100
0100
,  // measure 54
1000
1000
1000
1003
,  // measure 55
0220
0000
0000
0330
0000
0000
0010
0000
0100
0000
0001
0000
,  // measure 56
2002
0000
0000
3003
,  // measure 57
1000
0100
0010
0001
1000
0010
0100
0001
,  // measure 58
1000
0000
0001
0000
1000
0000
0001
0000
0100
0000
0000
0010
0000
0000
0100
0000
,  // measure 59
0001
0100
0010
1000
0001
0010
0100
1000
,  // measure 60
0100
0000
0010
0000
0001
0000
1000
0000
0001
0000
0000
0010
0000
0000
0001
0000
,  // measure 61
0100
1000
0100
0001
0100
0010
0100
0001
,  // measure 62
0010
0000
0100
0000
0010
0000
0001
0000
1000
0000
0000
0001
0000
0000
1000
0000
,  // measure 63
0100
0010
0001
0100
0010
0100
0001
1000
,  // measure 64
0001
1000
0000
0001
0000
1000
0000
0010
0000
0200
0000
0000
0010
0000
0310
0000
;

//---------------dance-single - ----------------
#NOTES:
     dance-single:
     :
     Medium:
     5:
     0.422,0.405,0.154,0.289,0.045:
1000
0000
0100
0000
0010
0001
0100
0000
,
0010
0000
1000
0000
0001
1000
0001
0000
,
1000
0000
0001
0000
0100
0010
0100
0000
,
0010
0000
1000
0000
0100
0000
0000
0000
0010
0000
0000
0010
0000
0000
0010
0000
,
0010
0000
0001
0000
1000
0001
1000
0000
,
0001
0100
0001
0000
1000
0000
0010
0100
,
0001
0000
1000
0000
0001
1000
0100
0000
,
0010
0000
0000
0000
0001
0000
0000
0000
1000
0000
0000
1000
0000
0000
1000
0000
,
1001
0000
0001
0000
0100
0010
0100
0000
,
0010
1000
0001
1000
,
0100
0000
0010
0000
0100
0010
0001
0000
,
1000
0000
0000
0000
0001
0000
0000
0000
0100
0000
0000
0100
0000
0000
0100
0000
,
0100
0000
0010
0000
1000
0010
0100
0000
,
0001
0000
1000
0000
0001
0000
0010
0001
,
0100
0000
0010
0000
1000
0010
0100
0000
,
0010
0000
0000
0010
0000
0000
0010
0000
1000
0000
0000
1000
0000
0000
1000
0000
,
1002
0000
0023
0000
,
0230
0000
2300
0000
,
3020
0000
0230
0000
,
0302
0000
0023
0030
,
0220
0030
2300
0000
,
3020
0000
0230
0000
,
0302
0000
2003
0000
,
3002
0000
2000
3003
,
1001
1000
0100
0010
,
0100
0000
1000
0000
0001
1000
0001
0000
,
1000
0010
0100
0001
,
0010
0000
0100
0000
0010
0100
1000
0100
,
0010
0001
1000
0010
,
0100
0000
0001
0000
1000
0001
0100
0000
,
0010
0100
0001
1000
,
0100
0010
2002
3003
,
1000
0010
1000
0000
0010
0100
0010
0000
,
0100
0001
0100
0000
0001
0000
0010
0000
,
0001
0010
0001
0000
1000
0100
1000
0000
,
0001
1000
0001
0000
0100
0000
0110
0000
,
0010
1000
0100
0000
0010
0001
0100
0000
,
0001
1000
0100
0000
0010
0000
0100
0000
,
0010
0001
0001
0000
1000
0010
0010
0000
,
0100
0000
0001
0000
0001
0000
0000
0000
1000
0000
0000
0001
0000
0000
1000
0000
,
1001
0000
1000
0000
0100
0010
0100
0000
,
0010
0000
0001
0000
1000
0001
1000
0000
,
0001
0000
0100
0000
0010
1000
0010
0000
,
0100
0000
0000
0000
0001
0000
0000
0000
1000
0000
0000
1000
0000
0000
1000
0000
,
1000
0000
0001
0000
0100
0010
0100
0000
,
0001
0000
1000
0000
0001
0010
0001
0000
,
1000
1010
0001
0011
,
1000
0000
0000
0000
1001
0000
0000
0000
0010
0000
0000
0100
0000
0000
0010
0000
,
0120
0000
2030
0000
,
3200
0000
0320
0000
,
0230
0000
2300
0000
,
3002
0000
0203
0000
,
0010
0010
0010
0010
,
0001
0001
0001
0301
,
2002
0000
0000
3003
0000
0000
0100
0000
0010
0000
0100
0000
,
0020
0000
0000
0030
,
0100
0001
0100
0000
0010
1000
0010
0000
,
1000
0001
1000
0000
0001
0000
0011
0000
,
0010
0100
1000
0000
0010
0100
0001
0000
,
1000
0001
0100
0000
1010
0000
0101
0000
,
0001
1000
0100
0000
0010
0100
1000
0000
,
0001
1000
0010
0000
0100
0000
0101
0000
,
0001
1000
0100
0000
1000
0100
0010
0000
,
2002
0000
0000
0000
,
3003
0000
0000
0000
;

//---------------dance-single - ----------------
#NOTES:
     dance-single:
     :
     Easy:
     4:
     0.298,0.289,0.145,0.244,0.000:
1000
0100
0010
0001
,
1000
0001
1000
0000
,
0001
0100
0010
1000
,
0001
1000
0001
0000
,
1000
0100
0001
0100
,
1000
0100
0010
0000
,
0001
0100
1000
0100
,
0001
1000
0001
1000
,
1001
0000
0001
0010
,
0001
1000
0010
0000
,
0100
0000
0010
0100
,
0001
1000
0001
0000
,
1000
0000
0001
0010
,
0100
1000
0100
0000
,
0010
0001
1000
0001
,
1001
0000
0110
0000
,
2002
0000
0003
0000
,
3002
0000
0203
0000
,
0020
0000
0300
0000
,
2030
0000
3002
0000
,
2003
0000
3200
0000
,
0320
0000
0032
0000
,
2003
0000
3020
0000
,
0200
0000
0330
0000
,
1001
1000
0100
0010
,
0100
1000
0001
0100
,
1000
0100
0010
1000
,
0001
0010
0100
0010
,
0001
1000
0001
0100
,
0010
1000
0100
0001
,
0100
0010
0001
1000
,
0001
0100
0110
0000
,
1000
0100
1000
0100
,
1000
0001
1000
0001
,
0100
0001
0100
0001
,
0010
0001
0010
0001
,
0010
0100
0010
0001
,
0010
0100
1000
0100
,
0010
0100
1000
0001
,
0100
0010
0110
0000
,
1000
0010
0100
0001
,
0020
0000
0000
0000
,
0130
0010
0001
1000
,
0002
0000
0000
0000
,
1003
0010
0100
0001
,
2000
0000
0000
0000
,
3001
0010
0100
0010
,
0001
1000
0010
0100
,
0220
0000
0000
0000
,
0000
0000
0000
0330
,
1001
0000
1001
0000
,
0220
0000
0000
0330
,
2002
0000
0000
0000
,
0000
0000
0000
3003
,
0110
0000
1001
0000
,
0220
0000
0000
0330
,
0010
1000
0100
0010
,
0100
1000
0001
0001
,
0001
0100
0010
0100
,
0001
1000
0100
0100
,
0100
0010
0100
0010
,
0001
1000
0010
0010
,
0010
0100
0001
1000
,
2002
0000
0000
0000
,
3003
0000
0000
0000
;

//---------------dance-single - ----------------
#NOTES:
     dance-single:
     :
     Beginner:
     1:
     0.143,0.173,0.081,0.018,0.000:
1000
0000
0000
0000
,
0001
0000
0100
0000
,
0001
0000
0000
0000
,
1000
0000
0100
0000
,
1000
0000
0000
0000
,
0001
0000
0010
0000
,
0100
0000
0000
0000
,
0010
0000
0001
0000
,
1001
0000
0000
0000
,
0000
0000
1000
1000
,
1000
0000
0000
0000
,
0000
0000
0010
0010
,
0010
0000
0000
0000
,
0000
0000
0100
0100
,
0100
0000
0000
0000
,
0001
0000
1000
0000
,
1001
0000
0000
0000
,
0000
0000
0001
0000
,
0100
0000
0000
0000
,
0000
0000
0100
0000
,
0110
0000
0000
0000
,
0000
0000
0010
0000
,
1000
0000
0001
0000
,
1000
0000
0000
0000
,
1001
0000
0001
0000
,
1000
0000
0010
0000
,
0100
0000
0001
0000
,
0010
0000
0100
0000
,
0010
0000
0001
0000
,
1000
0000
0001
0000
,
0100
0000
0010
0000
,
1000
0000
0001
0000
,
1001
0000
0000
0000
,
1000
0000
0001
0000
,
0100
0000
0000
0000
,
0010
0000
0100
0000
,
0001
0000
0000
0000
,
1000
0000
0100
0000
,
0010
0000
0000
0000
,
0100
0000
1000
0000
,
0001
0000
0001
0000
,
0100
0000
0010
0000
,
1000
0000
1000
0000
,
0001
0000
1000
0000
,
0100
0000
0100
0000
,
0010
0000
0100
0000
,
0010
0000
0010
0000
,
0001
0000
1000
0000
,
1001
0000
0000
0000
,
0000
0000
0000
0000
,
0001
0000
1000
0000
,
0001
0000
0000
0000
,
0110
0000
0000
0000
,
0000
0000
0000
0000
,
0100
0000
0001
0000
,
1001
0000
0000
0000
,
1000
0000
0100
0000
,
1000
0000
0001
0000
,
0100
0000
0001
0000
,
0100
0000
0010
0000
,
0100
0000
0001
0000
,
0010
0000
0100
0000
,
0010
0000
0001
0000
,
2002
0000
0000
0000
,
3003
0000
0000
0000
;
