#TITLE:Dance With Me;
#SUBTITLE:;
#ARTIST:Zoli Adok;
#TITLETRANSLIT:;
#SUBTITLETRANSLIT:;
#ARTISTTRANSLIT:;
#GENRE:;
#CREDIT:;
#MENUCOLOR:;
#METERTYPE:DDR;
#BANNER:;
#BACKGROUND:;
#LYRICSPATH:;
#CDTITLE:CDTitle.PNG;
#MUSIC:Dance With Me.mp3;
#OFFSET:-7.730;
#SAMPLESTART:53.750;
#SAMPLELENGTH:15.360;
#SELECTABLE:YES;
#LISTSORT:;
#DISPLAYBPM:125.000;
#BPMS:0.000=125.015;
#STOPS:;
#BGCHANGES:;
#ATTACKS:;

//---------------dance-single - ----------------
#NOTES:
     dance-single:
     :
     Hard:
     7:
     0.464,0.403,0.145,0.242,0.068: // measure 1
1000
0000
0101
0000
0001
1000
0100
0000
,  // measure 2
0010
0001
0100
0010
1000
0000
1001
0000
,  // measure 3
0001
0000
0101
0000
0010
1000
0100
0000
,  // measure 4
1000
0100
0010
0001
0100
0000
0000
0000
,  // measure 5
1010
0001
1000
1100
,  // measure 6
0010
0001
0100
0010
1000
0000
0001
0000
,  // measure 7
0100
0101
1000
1100
,  // measure 8
0010
0001
0100
0010
0100
0000
0000
0000
,  // measure 9
1000
0100
0010
0001
0100
0010
1000
0100
,  // measure 10
0020
0032
0203
0320
,  // measure 11
1030
0010
0100
0001
0010
0100
1000
0001
,  // measure 12
0020
0032
2000
3003
,  // measure 13
1000
0010
0001
0010
1000
0010
1000
0010
,  // measure 14
0200
0302
2003
3200
,  // measure 15
0310
0001
0010
1000
0010
0001
0100
0001
,  // measure 16
2000
3010
1010
1001
,  // measure 17
0011
0000
0010
0001
0100
0000
0101
0000
,  // measure 18
0001
1000
0010
1000
0000
0010
0100
0001
,  // measure 19
0000
0010
0001
1000
0000
0010
1000
0001
,  // measure 20
0010
0001
0100
0001
1000
0010
0100
0001
,  // measure 21
0002
0023
0230
2300
,  // measure 22
3010
0100
0001
0010
0100
1000
0010
1000
,  // measure 23
0000
0001
1000
0001
0010
0001
0100
0101
,  // measure 24
0000
0000
0001
0000
1000
0000
0100
0000
0000
0000
1000
0000
0001
0100
0000
0000
,  // measure 25
0102
0000
0010
0000
1003
0100
1000
0001
,  // measure 26
0000
0000
0100
0000
0001
0000
1000
0000
0000
0000
0010
0000
1000
0000
0010
0100
,  // measure 27
0020
0000
0100
0000
1030
0100
0010
0000
,  // measure 28
0010
0000
0001
0000
1000
0000
0010
0000
0000
0000
0100
0000
0001
0000
1000
0100
,  // measure 29
1000
0000
0000
0001
0000
0000
0010
0000
0001
0000
0100
0000
0010
0000
1000
0000
,  // measure 30
0000
0100
0010
0001
0000
1000
0010
0100
,  // measure 31
0000
0001
0010
0001
1000
0100
0010
0100
,  // measure 32
0010
0000
0001
0000
0010
0000
0001
0020
0000
0000
0000
0000
0030
0000
0000
0000
,  // measure 33
0011
0000
0001
0100
0010
1000
0001
0100
,  // measure 34
0010
0000
0000
0010
0000
0000
0020
0000
0000
0000
0000
0000
0030
0000
0000
0000
,  // measure 35
1000
0100
0010
0100
1000
0010
0100
0001
,  // measure 36
1000
0000
0000
0000
0001
0000
0000
0000
1000
0000
0100
0000
0000
0010
0000
0000
,  // measure 37
0001
0000
0000
1000
0000
0000
0010
0000
1000
0000
0100
0000
0010
0000
0001
0000
,  // measure 38
0000
0000
1000
0010
0000
0010
1000
0002
,  // measure 39
0000
0000
0010
0000
1000
0000
0103
0001
,  // measure 40
1000
0100
1000
0100
0010
0000
0001
0000
,  // measure 41
1000
0001
1000
0000
0001
0000
0100
0000
0002
0000
0000
0000
0003
0000
0000
0000
,  // measure 42
2000
0000
0000
0010
0000
0000
3001
0000
0000
0000
0100
0000
0010
0000
1000
0000
,  // measure 43
0100
0000
0010
0000
0001
0000
0010
0000
0000
0000
0001
0000
0100
0000
0001
0100
,  // measure 44
0002
0000
0000
0010
0000
0000
1003
0000
0000
0000
1000
0000
0100
0000
0010
0000
,  // measure 45
0001
0010
0001
1000
0000
0000
0001
1000
,  // measure 46
0020
0000
0000
1000
0000
0000
0130
0000
0000
0000
1000
0000
0100
0000
0010
0000
,  // measure 47
0000
0100
1000
0010
0000
0100
0001
0010
,  // measure 48
0001
0010
0100
1000
0010
0100
0001
1000
,  // measure 49
0010
0000
0100
0000
0001
0000
0100
0001
0000
0000
1000
0000
0100
0000
0010
0000
,  // measure 50
0110
0000
0000
0000
;

//---------------dance-single - ----------------
#NOTES:
     dance-single:
     :
     Beginner:
     1:
     0.137,0.166,0.116,0.000,0.000: // measure 1
0001
0000
1000
0000
,  // measure 2
0100
0000
0000
0000
,  // measure 3
1000
0000
0001
0000
,  // measure 4
0100
0000
0000
0000
,  // measure 5
0010
0000
0100
0000
,  // measure 6
0001
0000
0000
0000
,  // measure 7
0010
0000
0100
0000
,  // measure 8
1000
0000
0000
0000
,  // measure 9
1001
0000
0000
0000
,  // measure 10
0001
0000
0100
0000
,  // measure 11
0010
0000
0100
0000
,  // measure 12
0001
0000
1000
0000
,  // measure 13
0100
0000
0000
0000
,  // measure 14
0010
0000
0100
0000
,  // measure 15
0010
0000
0000
0000
,  // measure 16
1000
0000
0001
0000
,  // measure 17
1001
0000
1000
0000
,  // measure 18
0001
0000
0100
0000
,  // measure 19
0010
0000
0100
0000
,  // measure 20
0001
0000
1000
0000
,  // measure 21
1001
0000
0001
0000
,  // measure 22
0100
0000
0010
0000
,  // measure 23
0100
0000
0001
0000
,  // measure 24
1001
0000
0000
0000
,  // measure 25
0110
0000
0100
0000
,  // measure 26
0001
0000
1000
0000
,  // measure 27
0100
0000
1000
0000
,  // measure 28
0001
0000
0010
0000
,  // measure 29
0001
0000
0100
0000
,  // measure 30
0010
0000
1000
0000
,  // measure 31
0100
0000
0010
0000
,  // measure 32
0100
0000
0000
0000
,  // measure 33
1001
0000
0000
0000
,  // measure 34
0001
0001
0001
0000
,  // measure 35
0110
0000
0000
0000
,  // measure 36
0100
0100
0100
0000
,  // measure 37
0110
0000
0010
0000
,  // measure 38
1000
0000
0100
0000
,  // measure 39
0010
0000
0000
0000
,  // measure 40
1001
0000
0000
0000
,  // measure 41
1001
0000
0000
0000
,  // measure 42
1001
0000
0001
0000
,  // measure 43
0100
0000
0010
0000
,  // measure 44
1000
0000
0100
0000
,  // measure 45
0010
0000
0001
0000
,  // measure 46
1000
0000
0001
0000
,  // measure 47
1000
0000
0001
0000
,  // measure 48
0100
0000
0010
0000
,  // measure 49
0100
0000
0001
0000
,  // measure 50
1001
0000
0000
0000
;

//---------------dance-single - ----------------
#NOTES:
     dance-single:
     :
     Medium:
     5:
     0.369,0.356,0.145,0.107,0.039: // measure 1
1000
0001
0010
0001
,  // measure 2
1000
0000
0010
0100
0010
0000
0000
0000
,  // measure 3
1000
0001
1000
0100
,  // measure 4
0010
0000
0100
0010
0100
0000
0000
0000
,  // measure 5
0010
0010
0001
0000
0001
0001
0100
0000
,  // measure 6
0010
0000
1000
0010
1000
0000
0000
0000
,  // measure 7
0001
0001
1000
0000
1000
1000
0010
0000
,  // measure 8
0100
0000
0001
0100
0001
0000
0000
0000
,  // measure 9
1100
0011
0001
0100
,  // measure 10
0010
0000
1000
0000
0001
0000
1000
0010
,  // measure 11
1000
0000
0001
0000
0100
0001
0100
0000
,  // measure 12
0002
0010
2000
3003
,  // measure 13
1000
0010
1000
0000
0001
0010
0001
0000
,  // measure 14
1000
0100
0010
0001
,  // measure 15
1000
0010
0001
0100
,  // measure 16
1000
0010
0001
1001
,  // measure 17
0110
0000
1000
0010
1000
0000
0001
0000
,  // measure 18
0100
0000
0001
0100
0000
0100
0010
0000
,  // measure 19
1000
0100
0010
0001
,  // measure 20
1000
0001
1000
0000
0010
0100
0010
0000
,  // measure 21
0110
0000
0100
0001
1000
0000
0100
0000
,  // measure 22
1000
0001
0010
0000
0001
0000
0100
0010
,  // measure 23
0000
0010
1000
0000
1000
0001
0100
0001
,  // measure 24
0000
0010
0001
0010
0000
0100
1000
0000
,  // measure 25
2001
0000
0000
0001
0000
0000
3001
0000
0000
0000
0001
0000
0100
0000
0010
0000
,  // measure 26
1000
0010
0100
0001
,  // measure 27
1002
0000
0000
1000
0000
0000
1003
0000
0000
0000
0100
0000
0010
0000
0100
0000
,  // measure 28
0001
0010
0001
1000
,  // measure 29
2010
0000
0000
0010
0000
0000
3010
0000
0000
0000
0001
0000
0100
0000
0001
0000
,  // measure 30
0000
1000
0010
1000
0000
0001
0010
0001
,  // measure 31
0100
0010
1000
0100
,  // measure 32
0010
0001
0010
0001
1000
0000
0000
0000
,  // measure 33
1001
0000
0001
0000
0100
0000
0010
1000
,  // measure 34
0001
0000
0000
1000
0000
0000
0100
0000
0010
0000
0000
0000
0100
0000
0000
0000
,  // measure 35
0110
0000
0010
0000
0001
0000
0100
0001
,  // measure 36
0100
0000
0000
0000
0001
0000
1000
0000
0000
0000
0001
0000
0000
1000
0000
0000
,  // measure 37
0001
0000
0100
0000
0010
1000
0001
0100
,  // measure 38
0000
0001
0100
0010
0000
1000
0001
1000
,  // measure 39
0001
0000
1000
0000
0100
0000
0010
0002
,  // measure 40
0000
0010
1000
0103
,  // measure 41
0220
0000
0000
0330
,  // measure 42
1020
0000
0000
1000
0000
0000
1030
0000
0000
0000
0010
0000
1000
0000
0001
0000
,  // measure 43
0000
0001
1000
0100
0000
0010
0001
0000
,  // measure 44
0021
0000
0000
0001
0000
0000
0031
0000
0000
0000
0001
0000
0100
0000
0010
0000
,  // measure 45
0000
0010
0100
0001
0000
1000
0100
0000
,  // measure 46
0210
0000
0000
0010
0000
0000
0310
0000
0000
0000
0010
0000
0001
0000
1000
0000
,  // measure 47
0000
1000
0001
0100
0000
0010
1000
0100
,  // measure 48
0000
1000
0100
0000
0010
0001
0010
0000
,  // measure 49
0001
0100
0010
1000
0001
0000
0100
0000
,  // measure 50
0110
0000
0000
0000
;

//---------------dance-single - ----------------
#NOTES:
     dance-single:
     :
     Easy:
     3:
     0.239,0.261,0.107,0.058,0.000: // measure 1
1000
0100
1000
0100
,  // measure 2
0010
0001
0010
0000
,  // measure 3
0001
0100
0001
0100
,  // measure 4
0010
1000
0010
0000
,  // measure 5
1000
0001
1000
0001
,  // measure 6
0100
0010
0100
0000
,  // measure 7
0010
1000
0001
0100
,  // measure 8
0001
1000
0100
0000
,  // measure 9
0010
0001
1000
0010
,  // measure 10
0100
0001
1000
1000
,  // measure 11
0001
0100
0001
0010
,  // measure 12
0100
0010
0110
0000
,  // measure 13
0010
0001
1000
0100
,  // measure 14
0010
0001
0100
0010
,  // measure 15
1000
0000
0010
0000
,  // measure 16
0100
0000
0001
1000
,  // measure 17
1001
0000
0010
0100
,  // measure 18
0001
1000
0100
0010
,  // measure 19
0100
0000
0010
0000
,  // measure 20
0001
0010
0001
1000
,  // measure 21
0010
0000
0100
0000
,  // measure 22
0001
0100
0010
1000
,  // measure 23
0100
0000
0010
0100
,  // measure 24
0110
0000
2002
3003
,  // measure 25
1001
0000
0001
0100
,  // measure 26
0010
0100
0001
0000
,  // measure 27
1001
0000
1000
0100
,  // measure 28
0010
0100
1000
0000
,  // measure 29
0110
0000
0100
0010
,  // measure 30
0100
0001
1000
0100
,  // measure 31
1000
0000
0001
0000
,  // measure 32
0010
0001
0100
0000
,  // measure 33
0010
0100
0010
1000
,  // measure 34
0001
1000
0100
0000
,  // measure 35
0010
0001
0100
0001
,  // measure 36
1000
0010
0100
0000
,  // measure 37
0010
1000
0010
0100
,  // measure 38
0001
0000
1000
0000
,  // measure 39
0200
0000
0000
0000
,  // measure 40
0020
0000
0000
0330
,  // measure 41
2002
0000
0000
3003
,  // measure 42
1001
1000
0010
0100
,  // measure 43
0001
1000
0100
0000
,  // measure 44
0010
0001
0100
0010
,  // measure 45
0100
0001
1000
0000
,  // measure 46
1001
0001
0100
0000
,  // measure 47
0010
0100
0001
0000
,  // measure 48
1000
0100
0010
0001
,  // measure 49
0100
0010
0100
0001
,  // measure 50
1001
0000
0000
0000
;
