#TITLE:DJ, Take Me Away;
#SUBTITLE:;
#ARTIST:Deep Zone & Balthazar;
#TITLETRANSLIT:;
#SUBTITLETRANSLIT:;
#ARTISTTRANSLIT:;
#CREDIT:;
#BANNER:;
#BACKGROUND:;
#LYRICSPATH:;
#CDTITLE:;
#MUSIC:DJ, Take Me Away.mp3;
#OFFSET:-7.410;
#SAMPLESTART:50.790;
#SAMPLELENGTH:14.760;
#SELECTABLE:YES;
#BPMS:0.000=130.000;
#STOPS:;
#BGCHANGES:;

//---------------dance-single - ----------------
#NOTES:
     dance-single:
     :
     Hard:
     8:
     0.532,0.557,0.329,0.184,0.218: // measure 1
1001
0000
0000
0000
1000
0000
0000
0010
0000
0000
0100
0000
0001
0000
1000
0000
,  // measure 2
0100
0000
0010
0000
0010
0000
0000
0100
0000
0000
0010
0000
0001
0000
0100
0000
,  // measure 3
0010
0000
0000
0000
0100
0000
0000
0001
0000
0000
1000
0000
0100
0000
0010
0000
,  // measure 4
0100
0000
0000
1000
0001
0000
0000
0100
0000
0000
0010
0000
1000
0000
0010
0000
,  // measure 5
1010
0000
0000
0000
0010
0000
0100
0000
0001
0100
0001
0000
0100
0000
0010
0000
,  // measure 6
1000
0100
0010
0100
1000
0001
0100
0010
,  // measure 7
1010
0000
0000
0000
1000
0000
0000
0001
0000
0000
1000
0000
0100
0000
0010
0000
,  // measure 8
0100
0000
0010
0001
0010
0000
0001
0000
1000
0001
1000
0000
0001
0000
0100
0000
,  // measure 9
0010
0000
1000
0000
0010
0000
0100
0001
1000
0000
0001
0000
1000
0000
0000
0000
,  // measure 10
0001
0010
0100
0000
0010
0000
0001
0000
0100
0000
0010
0000
1001
0000
0000
0000
,  // measure 11
1000
0000
0001
0100
0000
0010
1000
0000
0001
0000
0010
0000
0110
0000
0000
0000
,  // measure 12
0022
0000
0000
0000
0033
0000
0000
0000
1000
0001
1000
0001
1000
0000
0000
0000
,  // measure 13
0001
0010
0100
0000
0010
0000
0001
1000
0010
0000
1000
0000
0100
0000
0010
0000
,  // measure 14
0110
0000
0000
1001
0000
0000
1000
0001
1000
0000
0010
0100
0010
0000
0000
0000
,  // measure 15
0100
0000
0001
1000
0000
0001
1000
0000
0100
0000
0010
0000
0100
0000
1000
0000
,  // measure 16
0010
0100
0001
1000
0100
0110
1001
0000
,  // measure 17
0002
0000
0010
0020
0000
0000
0003
0000
,  // measure 18
0230
0000
0000
0000
1000
0000
1000
0000
0000
0000
0001
0000
0000
0010
0000
0000
,  // measure 19
2300
0000
0001
0002
0000
0000
3003
0000
,  // measure 20
0001
0000
0100
0000
0010
0000
1000
0001
0000
1000
0001
0000
1000
0000
0100
0000
,  // measure 21
0210
0000
0000
0000
1000
0000
2300
0000
0000
0000
0010
0000
0000
0001
0000
0000
,  // measure 22
3020
0000
0000
0200
0000
0000
0330
0000
,  // measure 23
0020
0000
0000
0000
1000
0000
2030
0000
0000
0000
0100
0000
0000
0010
0000
0000
,  // measure 24
3001
0000
1000
0000
0010
0000
0100
0000
0001
1000
0001
0000
0100
0010
0100
0000
,  // measure 25
1001
0000
1000
0100
0010
0100
1000
0001
,  // measure 26
0000
0100
0010
0100
0001
1000
0100
0010
,  // measure 27
0110
0000
0010
0001
0100
0010
0000
1001
,  // measure 28
0000
0100
0010
1000
0100
1000
0001
0100
,  // measure 29
0110
0000
0010
1000
0100
1000
0001
0010
,  // measure 30
0000
0010
0001
0100
0010
1000
0100
0010
,  // measure 31
0110
0000
1001
0000
1000
0010
0000
0202
,  // measure 32
0000
0303
0000
0001
1000
0010
0100
0001
,  // measure 33
0011
0000
1000
0100
0010
0100
1000
0010
,  // measure 34
0100
0000
0010
0100
0001
1000
1100
0000
,  // measure 35
0011
0000
0001
0100
0010
0010
1000
0100
,  // measure 36
0001
0000
0100
0010
0001
0100
0110
0000
,  // measure 37
1001
0000
1000
0010
0001
0001
0010
1000
,  // measure 38
0100
0100
0010
0001
0001
1000
1001
0000
,  // measure 39
0220
0000
0000
0330
,  // measure 40
1010
0000
0001
0100
0001
0100
0001
0000
1000
0100
1000
0100
1000
0100
1000
0000
,  // measure 41
0011
0000
1000
0010
0100
0001
0010
0100
,  // measure 42
0010
0000
0000
0001
0000
0000
0011
0000
0001
0000
0100
0000
0010
0000
1000
0000
,  // measure 43
1001
0000
0000
1000
0000
0000
0010
0000
0001
0000
0010
0000
1000
0000
0100
0000
,  // measure 44
0010
0000
0000
0100
0000
0000
1100
0000
0100
0000
0010
0000
0001
0000
1000
0000
,  // measure 45
2002
0000
3003
1000
0010
0100
0001
0010
,  // measure 46
0100
0000
0000
0010
0000
0000
1001
0000
1000
0000
0010
0000
0100
0000
0001
0000
,  // measure 47
0011
0000
0000
0001
0000
0000
1001
0000
1000
0000
0010
0000
0100
0000
0001
0000
,  // measure 48
0010
0000
0100
0010
0100
0010
0100
0000
1000
0001
1000
0001
1000
0001
1000
0001
,  // measure 49
0100
0000
0000
0000
;

//---------------dance-single - ----------------
#NOTES:
     dance-single:
     :
     Medium:
     6:
     0.400,0.371,0.164,0.193,0.024: // measure 1
1000
0000
0001
0100
0000
0100
0001
1000
,  // measure 2
0100
0000
0010
0000
0100
0010
0100
0000
,  // measure 3
0010
0000
0001
1000
0000
1000
0001
0100
,  // measure 4
0010
0000
0100
0000
0001
1000
0001
0000
,  // measure 5
1100
0000
0010
0001
0000
1000
0010
0100
,  // measure 6
0001
0001
1000
0000
0100
0100
0010
0001
,  // measure 7
2000
0000
0010
0010
0000
0100
3100
0000
,  // measure 8
2001
0000
3001
0002
0000
0103
0010
0100
,  // measure 9
0001
1000
0100
0000
0010
0001
0100
0010
,  // measure 10
0100
0000
0010
0000
1000
0001
1000
0000
,  // measure 11
0101
0000
0100
0010
1000
0100
0010
0000
,  // measure 12
0200
0000
0310
0010
0001
1000
0001
0000
,  // measure 13
1000
0010
0100
0000
0001
0010
0100
0000
,  // measure 14
0010
0000
0000
0001
0000
0000
1000
0000
0001
0000
0100
0000
0001
0000
0000
0000
,  // measure 15
1000
0000
0000
0001
0000
0000
1000
0000
0001
0000
0100
0000
0010
0000
0000
0000
,  // measure 16
0100
0010
1000
0001
1000
0000
0101
0000
,  // measure 17
0021
0000
0000
0200
0000
0000
0030
0000
,  // measure 18
2300
0000
0000
0000
0000
0000
3002
0000
0000
0000
0100
0000
0000
0100
0000
0000
,  // measure 19
0203
0000
0000
0020
0000
0000
0300
0000
,  // measure 20
1030
0010
1000
0001
0100
0000
0001
0000
,  // measure 21
2000
0000
0000
0000
0000
0000
3100
0000
0000
0000
1000
0000
0000
0001
0000
0000
,  // measure 22
0200
0000
0000
0002
0000
0000
0300
0000
,  // measure 23
2003
0000
0000
0000
0000
0000
3100
0000
0000
0000
1000
0000
0000
0100
0000
0000
,  // measure 24
0010
0001
0100
0010
1000
0000
0101
0000
,  // measure 25
1001
0000
1000
0100
0001
0000
0100
0010
,  // measure 26
0000
0010
0100
0000
0010
0001
0100
0000
,  // measure 27
0101
0000
0001
0000
1000
0100
0010
0000
,  // measure 28
0100
0010
0001
0100
,  // measure 29
0101
0000
0010
1000
0100
0000
0001
0100
,  // measure 30
0000
0100
1000
0000
0001
1000
0100
0000
,  // measure 31
0110
0000
0010
0001
0100
0001
1000
0000
,  // measure 32
0101
0000
0001
1000
0000
1000
0100
0010
,  // measure 33
0001
0000
1000
0010
1000
0001
0100
0000
,  // measure 34
0001
0000
0010
0000
0100
1000
0100
0000
,  // measure 35
0010
0000
0001
1000
0010
0100
0001
0000
,  // measure 36
0010
0001
0100
0000
0001
1000
0100
1000
,  // measure 37
0000
0001
0010
0001
0100
0010
0100
0000
,  // measure 38
0010
1000
0010
0000
1000
0001
1000
0200
,  // measure 39
0000
0001
0010
1300
,  // measure 40
1000
0000
0001
0100
0000
0100
0001
0001
,  // measure 41
2002
0000
3003
0000
1000
0001
1000
0001
,  // measure 42
0100
0000
0010
0000
0100
0010
0100
0000
,  // measure 43
0001
0000
1000
0000
0100
0010
0001
0010
,  // measure 44
0001
0000
0100
0000
0010
1000
0010
0000
,  // measure 45
0220
0000
0330
0000
0010
1000
0001
1000
,  // measure 46
0100
0000
0010
0000
0001
0010
0001
0000
,  // measure 47
2000
0000
3000
0000
0001
0100
0001
1000
,  // measure 48
1001
0000
0000
1100
0000
0000
0101
0000
,  // measure 49
1001
0000
0000
0000
;

//---------------dance-single - ----------------
#NOTES:
     dance-single:
     :
     Easy:
     4:
     0.268,0.278,0.184,0.145,0.000: // measure 1
1001
0000
1000
0010
,  // measure 2
0100
0001
0010
0000
,  // measure 3
0110
0000
0010
0001
,  // measure 4
0100
0001
1000
0000
,  // measure 5
1001
0000
1000
0000
,  // measure 6
0010
0100
0001
0010
,  // measure 7
0100
0000
0010
0000
,  // measure 8
1001
0000
1000
0001
,  // measure 9
1001
0000
1000
0010
,  // measure 10
0100
0010
0001
0010
,  // measure 11
0100
0001
0010
0100
,  // measure 12
0010
0001
1000
0001
,  // measure 13
1001
0000
0110
0000
,  // measure 14
0010
1000
0100
0110
,  // measure 15
1001
0000
0001
0100
,  // measure 16
0010
1000
0001
0001
,  // measure 17
2000
0000
0010
0001
,  // measure 18
3002
0000
0010
0000
,  // measure 19
0203
0000
0010
0001
,  // measure 20
0320
0000
1000
1000
,  // measure 21
2030
0000
0100
0001
,  // measure 22
3200
0000
0010
1000
,  // measure 23
0320
0000
0032
0100
,  // measure 24
0200
0000
0303
1001
,  // measure 25
0110
0000
0010
1000
,  // measure 26
0001
1000
0100
0010
,  // measure 27
0100
0010
0001
1000
,  // measure 28
0001
0000
1000
0010
,  // measure 29
0100
0010
1000
0100
,  // measure 30
0001
0100
0010
0001
,  // measure 31
0100
0010
1000
0001
,  // measure 32
1001
0000
1000
0001
,  // measure 33
1001
1000
0100
0001
,  // measure 34
0100
1000
0100
0010
,  // measure 35
0001
0010
0001
0100
,  // measure 36
0010
1000
0100
0010
,  // measure 37
0110
0100
0010
0001
,  // measure 38
0100
0010
1000
0001
,  // measure 39
0100
0001
1000
0010
,  // measure 40
0220
0000
0000
0330
,  // measure 41
2002
3003
1000
0010
,  // measure 42
0100
0001
0010
0100
,  // measure 43
0010
0000
0100
0010
,  // measure 44
0001
1000
0001
0100
,  // measure 45
0220
0330
0100
0001
,  // measure 46
0010
1000
0100
0001
,  // measure 47
1001
0000
1000
0010
,  // measure 48
0001
0100
1000
0001
,  // measure 49
1001
0000
0000
0000
;

//---------------dance-single - ----------------
#NOTES:
     dance-single:
     :
     Beginner:
     1:
     0.119,0.162,0.077,0.000,0.000: // measure 1
1000
0000
0000
0000
,  // measure 2
0001
0000
0000
0000
,  // measure 3
0100
0000
0000
0000
,  // measure 4
0010
0000
0000
0000
,  // measure 5
0110
0000
0100
0000
,  // measure 6
0001
0000
1000
0000
,  // measure 7
1001
0000
0000
0000
,  // measure 8
0110
0000
0000
0000
,  // measure 9
0010
0000
1000
0000
,  // measure 10
0001
0000
1000
0000
,  // measure 11
0001
0000
0000
0000
,  // measure 12
1000
0000
0100
0000
,  // measure 13
1000
0000
0001
0000
,  // measure 14
0010
0000
0100
0000
,  // measure 15
0010
0000
0010
0000
,  // measure 16
0100
0000
0010
0000
,  // measure 17
1001
0000
0000
0000
,  // measure 18
1000
0000
0000
0000
,  // measure 19
0010
0000
0000
0000
,  // measure 20
0100
0000
0001
0000
,  // measure 21
1000
0000
0000
0000
,  // measure 22
0001
0000
0000
0000
,  // measure 23
0010
0000
0000
0000
,  // measure 24
0100
0000
0010
0000
,  // measure 25
0001
0000
1000
0000
,  // measure 26
0001
0000
0000
0000
,  // measure 27
0100
0000
0010
0000
,  // measure 28
0100
0000
0000
0000
,  // measure 29
0010
0000
1000
0000
,  // measure 30
0001
0000
0000
0000
,  // measure 31
0010
0000
0001
0000
,  // measure 32
1000
0000
0000
0000
,  // measure 33
1001
0000
1000
0000
,  // measure 34
0010
0000
0100
0000
,  // measure 35
0001
0000
0010
0000
,  // measure 36
0100
0000
0010
0000
,  // measure 37
0110
0000
0100
0000
,  // measure 38
0010
0000
0001
0000
,  // measure 39
1000
0000
0010
0000
,  // measure 40
0100
0000
0001
0000
,  // measure 41
1001
0000
0000
0000
,  // measure 42
1000
0000
1000
0000
,  // measure 43
0001
0000
0100
0000
,  // measure 44
0010
0000
0010
0000
,  // measure 45
0100
0000
0000
0000
,  // measure 46
0001
0000
0001
0000
,  // measure 47
1000
0000
0100
0000
,  // measure 48
0010
0000
0001
0000
,  // measure 49
1001
0000
0000
0000
;
