#TITLE:COTON TIGE;
#SUBTITLE:;
#ARTIST:EXODE;
#TITLETRANSLIT:;
#SUBTITLETRANSLIT:;
#ARTISTTRANSLIT:;
#CREDIT:Nice try.;
#BANNER:COTON TIGE.png;
#BACKGROUND:COTON TIGE-bg.png;
#LYRICSPATH:;
#CDTITLE:;
#MUSIC:COTON TIGE.mp3;
#OFFSET:-8.960;
#SAMPLESTART:22.350;
#SAMPLELENGTH:8.930;
#SELECTABLE:YES;
#DISPLAYBPM:215.000;
#BPMS:0.000=215.000,40.000=430.000,56.000=215.000,144.000=430.000,148.000=215.000,149.000=430.000,153.000=215.000,155.000=430.000,157.000=215.000,188.000=430.000,190.000=215.000,214.000=107.500,218.000=215.000,251.000=430.000,255.000=215.000,282.000=430.000,284.000=215.000,292.000=430.000,318.000=215.000,319.000=430.000,321.000=215.000;
#STOPS:233.500=2.512
;
#BGCHANGES:;

//---------------dance-single - GOOD LUCK----------------
#NOTES:
     dance-single:
     GOOD LUCK:
     Hard:
     12:
     0.887,1.000,0.652,0.122,0.391: // measure 1
2002
0000
0000
0000
,  // measure 2
0000
0000
0000
0000
,  // measure 3
0000
0000
0000
0000
,  // measure 4
0000
0000
0000
3003
,  // measure 5
1000
1000
1000
0000
0001
0001
0001
0000
,  // measure 6
0100
0000
0010
1000
0001
0000
1001
0000
,  // measure 7
1000
0100
0010
0000
0100
0010
0001
0000
,  // measure 8
1000
0010
0100
0001
1000
0000
1001
0000
,  // measure 9
0001
0000
0010
0001
0000
0001
0100
0010
,  // measure 10
1000
0000
1000
0010
0000
0010
0100
0001
,  // measure 11
2000
0000
0000
0000
,  // measure 12
0000
0000
0000
0000
,  // measure 13
0000
0000
0000
0000
,  // measure 14
0000
0000
3000
0000
,  // measure 15
1001
1100
0011
1100
,  // measure 16
1001
1010
0101
1010
,  // measure 17
0001
0100
0010
1000
0001
1000
0100
0000
,  // measure 18
0010
0100
1000
0100
0010
0001
1000
0000
,  // measure 19
0011
0101
1100
0101
,  // measure 20
0011
1010
1100
1010
,  // measure 21
0001
0100
0000
0000
0100
1000
0000
0000
1000
0010
0000
0000
0010
0001
0000
0000
,  // measure 22
0002
0023
2030
3100
,  // measure 23
1001
1000
0001
1000
,  // measure 24
0100
0000
0000
0010
0000
0000
0001
0000
1000
0000
0000
0000
0001
0000
0000
0000
,  // measure 25
0100
0000
0000
0000
0010
0000
0000
0000
0100
0000
0000
0000
0010
0000
1000
0010
,  // measure 26
1000
0000
0001
1000
0001
1000
0001
0010
0100
0000
0010
0000
0000
0000
0000
0000
,  // measure 27
1001
1001
1001
0000
1000
0100
0010
0000
,  // measure 28
0001
0100
1000
0100
1000
0100
0001
0001
,  // measure 29
0010
0100
0010
0001
1000
0010
0100
0000
,  // measure 30
0001
0100
0010
1000
0001
0100
0110
0010
,  // measure 31
1000
0100
0001
0100
1000
0001
1000
0000
,  // measure 32
1100
0011
0101
1010
,  // measure 33
1000
0100
0010
0001
0010
0001
0100
0001
,  // measure 34
0100
0000
0010
0000
1000
0000
0010
0000
0100
0001
0100
0001
1000
0100
1000
0100
,  // measure 35
0010
0000
0001
0100
0001
1000
0010
0000
,  // measure 36
0100
0000
0010
1000
0100
0010
0100
0000
,  // measure 37
2002
0000
0000
0000
,  // measure 38
3003
0220
0000
0000
,  // measure 39
0000
0000
0330
0000
1001
1001
1001
0000
,  // measure 40
0000
0000
1000
0100
0001
0100
1000
0100
,  // measure 41
0010
0000
0100
0000
0010
0000
0001
0000
1000
0000
0001
0000
0100
0001
0100
0000
,  // measure 42
0010
1000
0010
0000
1000
0000
0100
0000
0010
0000
0001
0000
0100
0000
0010
0000
,  // measure 43
1000
0000
0001
0000
1000
0010
1000
0010
0100
0001
0100
0001
1000
0000
0100
0000
,  // measure 44
0010
0001
1001
1000
0100
0010
0100
1000
,  // measure 45
0001
0100
0110
0010
1000
0001
1000
0100
,  // measure 46
0010
0000
0000
0000
0001
0000
0010
0001
1000
0000
0000
0000
0001
0000
1000
0000
,  // measure 47
1001
0000
1010
0000
0101
0101
2002
0000
,  // measure 48
3003
0000
0000
0000
0000
0000
0000
0000
1000
0000
0100
1000
0100
0000
0010
0000
,  // measure 49
0001
0000
0100
0000
0010
0000
1000
0000
0001
0000
1000
0001
1000
0000
0001
0000
,  // measure 50
0010
0001
0101
0000
1010
0000
1100
0000
,  // measure 51
0011
0000
0101
0000
1000
0010
0100
0001
,  // measure 52
0010
0100
1001
0000
1010
0010
0100
0001
,  // measure 53
0010
0100
0010
0001
1001
1000
0100
0010
,  // measure 54
0100
0000
1000
0000
0001
0000
0000
0000
1000
0000
0001
0000
1000
0000
0001
1000
,  // measure 55
0001
0000
1000
0000
0001
0000
1001
0000
1100
0000
0100
0000
0010
0000
0001
0010
,  // measure 56
0100
0000
0010
0000
0001
0000
1000
0000
0001
0000
0100
0000
0010
0000
1000
0010
,  // measure 57
0100
0001
1000
0100
0110
0010
0011
0001
,  // measure 58
1001
1000
1010
0010
0110
0100
0001
0010
,  // measure 59
0100
0000
0010
0000
0001
0000
1000
0000
1001
0000
0000
0000
0100
0000
0010
0100
,  // measure 60
0010
0000
1000
0010
1010
0000
0001
1000
,  // measure 61
0100
0010
0011
0000
0101
0000
1010
0000
,  // measure 62
1100
0011
1001
0110
,  // measure 63
1001
0000
1000
0001
1000
0001
1000
0100
,  // measure 64
1000
0100
0010
0001
0010
0001
1000
0100
,  // measure 65
0010
0000
0001
0000
0011
0000
0000
0000
1000
0000
0001
0000
1000
0000
0010
0100
,  // measure 66
0010
0000
0100
0000
0001
0000
1000
0100
0010
0000
0100
0000
1000
0000
0001
0010
,  // measure 67
0001
0000
1000
0000
0010
1000
0010
0000
0100
0001
0100
0000
0001
0000
1000
0100
,  // measure 68
0010
0000
0100
0000
1000
0000
0001
0100
0010
0000
0100
0000
0010
0000
1000
0001
,  // measure 69
0010
0000
0100
0000
0110
0000
0010
0000
0011
0000
0001
0000
1001
0000
1000
0010
,  // measure 70
0100
0000
0001
0000
0010
0000
0001
0010
0100
0000
0010
0000
0001
0000
1000
0001
,  // measure 71
0100
0000
1000
0000
0100
0000
0010
1000
0200
0000
0000
0000
0000
0000
0000
0000
,  // measure 72
0310
0000
0100
0010
0100
0000
0010
0000
0001
0000
1000
0001
0100
0000
0001
0000
,  // measure 73
1000
0100
1100
0000
0001
0100
0101
0001
,  // measure 74
2000
0000
0000
0000
,  // measure 75
0000
0000
0000
0000
,  // measure 76
0000
0000
0000
0000
,  // measure 77
0000
0000
0000
0000
,  // measure 78
0000
0000
0000
0000
,  // measure 79
0000
0000
3000
0000
,  // measure 80
1001
0000
1001
0110
,  // measure 81
0000
0000
0000
0000
0010
0100
0010
0000
1001
0000
0001
0000
1000
0000
0100
0000
,  // measure 82
0010
0000
0100
1000
0100
0000
1000
0000
0001
0000
1000
0000
0100
0000
0010
0000
,  // measure 83
0001
0000
1000
0010
1000
0000
0100
0000
0010
0000
0001
0000
0100
0000
0001
0000
,  // measure 84
0100
0000
0010
0100
0010
0000
1000
0000
0100
0000
0010
0000
0001
0000
0100
0000
,  // measure 85
0010
0000
0100
0010
0100
0000
0001
0000
1000
0000
0100
0000
0001
0000
0100
0000
,  // measure 86
1000
0000
0100
0010
0001
0000
0010
0000
0001
0000
0100
0000
1000
0000
0100
0000
,  // measure 87
0001
0000
0100
0001
1000
0000
0100
0000
0010
0000
0001
0000
1000
0000
0001
0100
,  // measure 88
0001
0000
1000
0010
1000
0000
0001
0000
1000
0000
0100
0000
0010
0000
0100
1000
,  // measure 89
0100
0000
0010
0001
0010
0001
0010
0000
1000
0000
0100
1000
0100
0000
0010
0001
,  // measure 90
0010
0000
0001
0100
0001
0000
1000
0010
1000
0000
0010
0100
0010
0000
0100
0001
,  // measure 91
0100
0000
0001
1000
0001
1000
0001
0000
1000
0000
0000
1000
0010
0000
0000
0010
,  // measure 92
1000
0000
0000
1000
0100
0000
0010
0001
0100
0000
0010
0100
0001
1000
0001
1000
,  // measure 93
0001
0100
0010
1000
0100
0010
0100
1000
0001
0000
0100
0001
1000
0000
0001
1000
,  // measure 94
0100
0000
1000
0100
0010
0000
0100
0010
0001
0000
1000
0001
1000
0000
0001
0100
,  // measure 95
0010
0000
0100
0001
1000
0000
0001
0000
1000
0100
1000
0100
1000
0000
0000
0000
,  // measure 96
0001
0010
0001
0010
0001
0000
0000
0000
1000
0001
1000
0010
0100
0001
0010
0100
,  // measure 97
0010
0001
1000
0001
0100
0010
0100
0001
1000
0000
0000
0000
0000
0000
0000
0000
;

//---------------dance-single - Devilish----------------
#NOTES:
     dance-single:
     Devilish:
     Medium:
     9:
     0.590,0.713,0.217,0.148,0.004: // measure 1
2002
0000
0000
0000
,  // measure 2
0000
0000
3003
0000
,  // measure 3
0000
0000
0000
0000
,  // measure 4
0000
0000
0000
0000
,  // measure 5
1000
0100
1000
0000
0001
0100
0001
0000
,  // measure 6
1000
0001
1001
0000
,  // measure 7
0001
0010
0001
0000
1000
0010
1000
0000
,  // measure 8
0001
1000
1001
0000
,  // measure 9
1000
0100
0001
0010
,  // measure 10
1000
0010
0001
0100
,  // measure 11
2000
0000
0000
0000
,  // measure 12
0000
0000
0000
0000
,  // measure 13
0000
0000
0000
0000
,  // measure 14
0000
0000
3000
0000
,  // measure 15
1000
0100
1000
0100
,  // measure 16
0010
0001
0010
0001
,  // measure 17
1000
0010
1000
0000
0001
0100
0001
0000
,  // measure 18
1000
0001
1000
0001
0100
0010
0100
0000
,  // measure 19
0010
1000
0100
0001
,  // measure 20
0100
1000
0001
1000
,  // measure 21
0011
0011
1100
1100
,  // measure 22
0001
1000
0002
0103
,  // measure 23
0101
0001
1000
0100
,  // measure 24
0010
0100
1000
0001
,  // measure 25
0010
0000
0001
0000
1000
0000
0100
1000
,  // measure 26
0100
0010
0001
0100
0010
0010
0000
0000
,  // measure 27
1001
0000
0100
0000
0010
0100
0010
0000
,  // measure 28
1000
0000
0001
0000
1000
0001
1000
0100
,  // measure 29
0010
0000
0100
0000
0010
0001
0100
0000
,  // measure 30
0001
0000
1000
0000
0010
0100
0010
1000
,  // measure 31
0001
0101
0100
0110
,  // measure 32
0010
0000
1010
0000
1000
0001
1000
0000
,  // measure 33
0001
0010
0001
0010
0100
1000
0100
1000
,  // measure 34
0001
0100
0010
1000
0001
1000
0001
1000
,  // measure 35
0100
0110
0010
0011
,  // measure 36
0001
0000
1001
0000
1000
0001
0100
0000
,  // measure 37
0220
0000
0000
0000
,  // measure 38
0330
2002
0000
0000
,  // measure 39
0000
0000
3003
0000
1000
0001
1000
0000
,  // measure 40
0000
0000
1000
0100
1000
0000
0001
0010
,  // measure 41
0001
0000
1000
0010
0100
0001
0010
0010
,  // measure 42
0100
0000
0010
0001
0100
0000
0010
1000
,  // measure 43
0001
1000
0010
0100
,  // measure 44
0001
0000
1000
0010
1000
0000
0001
0010
,  // measure 45
0100
0010
0001
1000
0001
0000
0100
0010
,  // measure 46
0100
0010
1000
1000
1000
0000
0001
0001
,  // measure 47
0001
0000
1000
0000
0001
1000
0200
0000
,  // measure 48
0300
0000
1001
1000
,  // measure 49
0100
0000
0010
0000
0100
0010
0100
0000
,  // measure 50
0010
0001
0010
0000
0001
0000
0100
0000
,  // measure 51
1000
0000
0100
0000
0010
0100
0010
0100
,  // measure 52
0010
1000
0010
0000
1000
0000
0001
0000
,  // measure 53
1000
0100
1000
0000
0001
0010
0100
0000
,  // measure 54
0010
0000
0000
0000
0011
0000
0000
0000
0001
0000
1000
0000
1000
0000
0001
1000
,  // measure 55
0001
1000
0001
0001
1000
0100
1000
0100
,  // measure 56
0010
0001
0010
0000
0001
0100
0001
0100
,  // measure 57
0010
1000
0010
0000
0100
0000
0001
0000
,  // measure 58
0010
0001
0100
0000
0010
1000
0001
0000
,  // measure 59
1000
0001
0100
0001
1001
0000
0010
0100
,  // measure 60
0010
0000
0100
0001
0100
0000
0001
1000
,  // measure 61
0100
0010
0210
0000
0000
0000
2300
0000
,  // measure 62
0000
3002
0000
0203
,  // measure 63
0000
0000
0301
0100
0010
1000
0002
0000
,  // measure 64
0000
0000
0000
0000
0000
0000
1003
0100
,  // measure 65
0010
0001
0101
0000
1000
0001
1000
0100
,  // measure 66
0000
0010
0000
0100
0000
0010
0001
0100
,  // measure 67
0000
0010
0000
0100
0000
0010
1000
0001
,  // measure 68
0000
1000
0000
0001
0000
1000
0100
1000
,  // measure 69
0001
0000
0010
0001
0100
0000
0010
1000
,  // measure 70
0000
0010
0000
1000
0000
0001
1000
0000
,  // measure 71
0001
0010
0001
1000
0200
0000
0000
0000
,  // measure 72
0310
0001
0010
0000
0100
1000
0002
0000
,  // measure 73
0103
0100
0100
0000
0010
0010
0010
0020
,  // measure 74
0000
0000
0000
0000
,  // measure 75
0000
0000
0000
0000
,  // measure 76
0000
0000
0000
0000
,  // measure 77
0000
0000
0000
0000
,  // measure 78
0000
0000
0000
0000
,  // measure 79
0000
0000
0030
0000
,  // measure 80
0000
0000
1001
0000
,  // measure 81
0000
0110
1001
1000
,  // measure 82
0100
0010
0001
1000
,  // measure 83
0001
0100
0001
0000
0100
0000
0010
0000
,  // measure 84
1000
0000
0100
0000
0010
0100
0010
0000
,  // measure 85
0100
1000
0100
0000
1000
0000
0001
0000
,  // measure 86
0100
0000
1000
0000
0100
0010
0100
0000
,  // measure 87
0010
1000
0010
0000
1000
0000
0001
0000
,  // measure 88
0010
0001
0100
0001
0010
0000
0001
0000
,  // measure 89
1000
0000
0001
1000
0001
0010
0001
0010
,  // measure 90
0100
1000
0100
0000
1000
0001
1000
0010
,  // measure 91
0100
0001
0010
0000
0001
0010
0001
0100
,  // measure 92
1000
0100
0010
0000
0100
0010
1000
0001
,  // measure 93
1000
0100
0010
0000
0100
0010
0001
0010
,  // measure 94
0100
1000
0010
0100
0010
1000
0001
1000
,  // measure 95
0100
0010
0001
0010
0100
0100
0100
0010
,  // measure 96
0001
0100
1000
0100
0010
0100
1000
0001
,  // measure 97
0010
1000
0001
0100
1000
0000
0000
0000
;

//---------------dance-single - Difficult----------------
#NOTES:
     dance-single:
     Difficult:
     Easy:
     7:
     0.401,0.461,0.156,0.122,0.000: // measure 1
1001
0000
0000
0000
,  // measure 2
0000
0000
0000
0000
,  // measure 3
0000
0000
0000
0000
,  // measure 4
0000
0000
0000
0000
,  // measure 5
1000
0001
1000
0001
,  // measure 6
0100
0010
0100
0010
,  // measure 7
1000
0001
1000
0001
,  // measure 8
0010
0100
0010
0001
,  // measure 9
1001
0000
1000
0000
,  // measure 10
1001
0000
0001
0000
,  // measure 11
2002
0000
0000
0000
,  // measure 12
0000
0000
0000
0000
,  // measure 13
0000
0000
0000
0000
,  // measure 14
3003
0000
0000
0000
,  // measure 15
1000
0100
1000
0100
,  // measure 16
0010
0001
0010
0000
,  // measure 17
0001
0000
0100
0000
,  // measure 18
1000
0000
0100
0000
,  // measure 19
0010
0100
0010
0100
,  // measure 20
0010
1000
0010
0000
,  // measure 21
1000
1000
1000
1000
,  // measure 22
0001
0001
1000
0000
,  // measure 23
0001
0001
1000
1000
,  // measure 24
0010
0010
0100
0100
,  // measure 25
0010
0100
0010
0100
,  // measure 26
2002
0000
3003
0000
,  // measure 27
1000
0100
1000
0100
,  // measure 28
0010
0100
0010
0100
,  // measure 29
0010
0001
0010
0001
,  // measure 30
1000
0010
0200
0300
,  // measure 31
0010
1000
0100
1000
,  // measure 32
0001
1000
0100
0000
,  // measure 33
0010
0001
0100
0001
,  // measure 34
1000
0001
0200
0300
,  // measure 35
0010
0100
0010
1000
,  // measure 36
0001
1000
0100
0010
,  // measure 37
0110
0000
0000
0000
,  // measure 38
0000
1001
0000
0000
,  // measure 39
0000
0000
0000
0000
0010
0100
0010
0000
,  // measure 40
0000
0100
0001
0100
,  // measure 41
0001
1000
0001
1000
,  // measure 42
0000
0001
0000
1000
,  // measure 43
0000
0100
1000
1100
,  // measure 44
0000
0100
0010
0001
,  // measure 45
0100
1000
0100
0010
,  // measure 46
0000
0000
0100
0010
0100
0000
0001
1000
,  // measure 47
0001
1000
0001
2002
,  // measure 48
3003
0000
1000
0100
,  // measure 49
0010
0001
1000
1000
,  // measure 50
0001
0100
0010
0010
,  // measure 51
0100
0001
1000
0100
,  // measure 52
0010
0000
0100
0010
,  // measure 53
0001
1000
0001
0001
,  // measure 54
1000
0001
0100
0010
,  // measure 55
1000
0002
2000
3003
1000
0000
0100
0000
,  // measure 56
1000
0000
0001
0100
,  // measure 57
0001
0000
1000
0100
,  // measure 58
0010
0001
0100
0010
,  // measure 59
1000
0001
1001
0000
,  // measure 60
0110
0000
1000
0001
,  // measure 61
1000
1001
0000
1001
,  // measure 62
0000
0110
0000
0110
,  // measure 63
0000
0010
1000
0002
,  // measure 64
0000
0000
0000
1003
,  // measure 65
0100
0010
0000
1000
,  // measure 66
0001
1000
0010
0100
,  // measure 67
0010
0100
0001
1000
,  // measure 68
0100
0010
0001
0100
,  // measure 69
1000
0100
0010
1000
,  // measure 70
0001
1000
0100
0010
,  // measure 71
0001
1000
0002
0000
,  // measure 72
0003
1000
0100
0010
,  // measure 73
0001
1000
0001
0000
1000
0001
1000
0002
,  // measure 74
0000
0000
0000
0000
,  // measure 75
0000
0000
0000
0000
,  // measure 76
0000
0000
0000
0000
,  // measure 77
0000
0000
0000
0000
,  // measure 78
0000
0000
0000
0000
,  // measure 79
0000
0000
0003
0000
,  // measure 80
0000
0000
1001
0000
,  // measure 81
0000
0110
1001
0100
,  // measure 82
1000
0001
0100
0001
,  // measure 83
0010
0010
0100
0010
,  // measure 84
0001
1000
0010
0100
,  // measure 85
0001
0001
1000
0100
,  // measure 86
1000
0001
0010
0100
,  // measure 87
1000
1000
0001
1000
,  // measure 88
0010
0100
0001
0010
,  // measure 89
0200
0300
0010
0001
,  // measure 90
0100
1000
0100
0010
,  // measure 91
0100
0010
0100
0000
0010
0000
1000
0000
,  // measure 92
0100
0010
0001
1000
,  // measure 93
0001
1000
0001
0000
1000
0000
0010
0000
,  // measure 94
0100
0001
0010
0100
,  // measure 95
0010
0100
0010
0000
0001
0000
1000
0000
,  // measure 96
0001
1000
0010
0100
,  // measure 97
0001
0000
1000
0001
1000
0000
0000
0000
;

//---------------dance-single - Simple----------------
#NOTES:
     dance-single:
     Simple:
     Beginner:
     3:
     0.175,0.336,0.226,0.000,0.000: // measure 1
1001
0000
0000
0000
,  // measure 2
0000
0000
0000
0000
,  // measure 3
0000
0000
0000
0000
,  // measure 4
0000
0000
0000
0000
,  // measure 5
1000
0000
0000
0000
,  // measure 6
0001
0000
0000
0000
,  // measure 7
0100
0000
0000
0000
,  // measure 8
0010
0000
0000
0000
,  // measure 9
0110
0000
0000
0000
,  // measure 10
0110
0000
0000
0000
,  // measure 11
1001
0000
0000
0000
,  // measure 12
0000
0000
0000
0000
,  // measure 13
0000
0000
0000
0000
,  // measure 14
0000
0000
0000
0000
,  // measure 15
1000
0000
0000
0000
,  // measure 16
1000
0000
0000
0000
,  // measure 17
0001
0000
0010
0000
,  // measure 18
0001
0000
0000
0000
,  // measure 19
0100
0000
0000
0000
,  // measure 20
0100
0000
0000
0000
,  // measure 21
1001
0000
0000
0000
,  // measure 22
0000
0000
0000
0000
,  // measure 23
1000
0000
0000
0000
,  // measure 24
0001
0000
0000
0000
,  // measure 25
1000
0000
0000
0000
,  // measure 26
0100
0000
0000
0000
,  // measure 27
0110
0000
0000
0000
,  // measure 28
0010
0000
0000
0000
,  // measure 29
0001
0000
0000
0000
,  // measure 30
1000
0000
0000
0000
,  // measure 31
0001
0000
0000
0000
,  // measure 32
0100
0000
0000
0000
,  // measure 33
0010
0000
1000
0000
,  // measure 34
0010
0000
1000
0000
,  // measure 35
0001
0000
0000
0000
,  // measure 36
1000
0000
0000
0000
,  // measure 37
1001
0000
0000
0000
,  // measure 38
0000
0000
0000
0000
,  // measure 39
0000
0000
0000
0000
,  // measure 40
0000
1001
0000
0000
,  // measure 41
0000
1000
0000
0100
,  // measure 42
0000
1000
0000
0001
,  // measure 43
0000
0100
0000
0010
,  // measure 44
0000
0100
0000
0000
,  // measure 45
0000
0010
0000
0000
,  // measure 46
0000
0100
0000
0010
,  // measure 47
0000
1001
0000
0000
,  // measure 48
0000
0000
1001
0000
,  // measure 49
0000
0000
1000
0000
,  // measure 50
0100
0000
0010
0000
,  // measure 51
0001
0000
0100
0000
,  // measure 52
0000
0000
0110
0000
,  // measure 53
0000
0000
0010
0000
,  // measure 54
1000
0000
1001
0000
,  // measure 55
0000
0000
1001
0000
,  // measure 56
0001
0000
0100
0000
,  // measure 57
0001
0000
1000
0000
,  // measure 58
0100
0000
0010
0000
,  // measure 59
0100
0000
0000
0000
,  // measure 60
0000
0000
0000
0000
,  // measure 61
0000
1001
0000
1001
,  // measure 62
0000
1001
0000
1001
,  // measure 63
0000
1001
0000
1001
,  // measure 64
0000
0000
0000
1001
,  // measure 65
0000
1001
0000
0110
,  // measure 66
0000
0010
0000
0100
,  // measure 67
0000
0001
0000
1000
,  // measure 68
0000
0100
0000
0010
,  // measure 69
0000
0001
0000
1000
,  // measure 70
0000
0001
0000
1000
,  // measure 71
0000
0010
0000
0000
,  // measure 72
0000
0000
0000
0000
,  // measure 73
1001
0000
1001
0000
,  // measure 74
0000
0000
0000
0000
,  // measure 75
0000
0000
0000
0000
,  // measure 76
0000
0000
0000
0000
,  // measure 77
0000
0000
0000
0000
,  // measure 78
0000
0000
0000
0000
,  // measure 79
0000
0000
0000
0000
,  // measure 80
0000
0000
0000
0000
,  // measure 81
0000
0000
1001
0000
,  // measure 82
0001
0000
0100
0000
,  // measure 83
0001
0000
1000
0000
,  // measure 84
0100
0000
0010
0000
,  // measure 85
0000
0000
0100
0000
,  // measure 86
0010
0000
0001
0000
,  // measure 87
1000
0000
0001
0000
,  // measure 88
0100
0000
0010
0000
,  // measure 89
0000
0000
0100
0000
,  // measure 90
0010
0000
1000
0000
,  // measure 91
0010
0000
0100
0000
,  // measure 92
0001
0000
1000
0000
,  // measure 93
0000
0000
0001
0000
,  // measure 94
0010
0000
0001
0000
,  // measure 95
1000
0000
0100
0000
,  // measure 96
0010
0000
0100
0000
,  // measure 97
1000
0000
1001
0000
;
