#TITLE:CITY ANGEL;
#SUBTITLE:;
#ARTIST:PINK PONG;
#TITLETRANSLIT:;
#SUBTITLETRANSLIT:;
#ARTISTTRANSLIT:;
#CREDIT:;
#BANNER:;
#BACKGROUND:;
#LYRICSPATH:;
#CDTITLE:;
#MUSIC:CITY ANGEL.mp3;
#OFFSET:-6.650;
#SAMPLESTART:26.480;
#SAMPLELENGTH:13.240;
#SELECTABLE:YES;
#BPMS:0.000=145.000;
#STOPS:;
#BGCHANGES:;

//---------------dance-single - ----------------
#NOTES:
     dance-single:
     :
     Hard:
     7:
     0.501,0.500,0.086,0.144,0.105: // measure 1
0000
1000
0100
1000
0200
0000
0000
0310
,  // measure 2
0000
0010
0001
0010
0002
0000
0000
1003
,  // measure 3
0000
1000
0001
1000
0002
0000
0000
0103
,  // measure 4
0000
0100
0010
1000
0002
0000
0000
0103
,  // measure 5
0101
0000
0100
0000
0010
1000
0100
0000
,  // measure 6
0010
0100
0010
0000
0100
1000
0100
0000
,  // measure 7
0010
0000
0001
0000
0100
0010
1000
0000
,  // measure 8
0100
0010
0001
0000
1000
0001
1000
0000
,  // measure 9
0001
0100
0001
1000
0010
0000
0000
1000
,  // measure 10
0100
0010
0001
1000
0010
0000
0000
1000
,  // measure 11
0001
0010
0001
1000
0010
0000
0000
0100
,  // measure 12
0002
0000
2000
3003
,  // measure 13
1000
0100
1000
0001
0010
0001
0000
1000
,  // measure 14
0100
0001
0100
1000
0010
0100
0000
0010
,  // measure 15
0100
0001
1000
0001
1000
0100
0000
0010
,  // measure 16
0001
1000
0100
0010
0100
1000
0000
1000
,  // measure 17
0001
0100
0000
0010
1000
0001
0000
1000
,  // measure 18
0001
0010
0000
0001
1000
0100
0000
0010
,  // measure 19
0100
1000
0000
0010
0100
0001
0000
1000
,  // measure 20
0001
0100
0000
0001
1000
0100
0000
0010
,  // measure 21
0001
0010
0001
0100
0010
0100
0010
1000
,  // measure 22
0100
1000
0100
0010
0001
0010
0001
1000
,  // measure 23
0001
0100
0000
0000
0100
0010
0000
0000
0010
1000
0000
0000
2000
0002
0000
0000
,  // measure 24
0000
0000
0000
3003
,  // measure 25
1000
0100
0010
0001
0000
1000
0001
1000
,  // measure 26
0000
0001
0100
0001
0000
1001
0000
1010
,  // measure 27
0000
0001
0100
0001
0000
1000
0100
1000
,  // measure 28
0000
0001
0010
0100
0000
0011
0000
1001
,  // measure 29
0000
1000
0010
0001
0010
1000
0100
0010
,  // measure 30
0000
0001
1000
0001
0000
1010
0000
0101
,  // measure 31
0000
1000
0010
1000
0001
0010
0001
0100
,  // measure 32
0010
0100
0001
1000
0100
0010
0001
1000
,  // measure 33
2002
0000
0000
0000
,  // measure 34
0000
0000
0000
0003
,  // measure 35
0020
0000
0000
0000
,  // measure 36
0000
0000
0000
3000
,  // measure 37
0100
0000
0000
0100
0000
0000
0200
0000
0000
0000
0000
0000
0000
0000
0000
0000
,  // measure 38
0000
0000
0000
0000
0000
0000
0000
0000
0000
0000
0000
0000
0330
0000
0000
0010
,  // measure 39
1000
0001
0100
0001
1000
0100
0010
0001
,  // measure 40
1000
0010
1000
0100
0010
0100
0010
0001
,  // measure 41
0001
1000
0000
0000
1000
0010
0000
0000
0100
0001
0000
0000
2000
0002
0000
0000
,  // measure 42
3003
0000
0000
0000
,  // measure 43
0001
1000
0100
0010
0001
0100
0001
0001
,  // measure 44
0001
1000
0010
0100
0001
1000
0100
0100
,  // measure 45
0100
0010
0001
0100
0010
1000
0010
0010
,  // measure 46
0010
1000
0001
0100
0010
1000
0100
0010
,  // measure 47
0100
1000
0010
0001
0010
1000
0100
0010
,  // measure 48
0100
0010
0001
0100
0010
0001
0010
1000
,  // measure 49
0100
0010
0001
0100
1000
0100
0001
0010
,  // measure 50
0001
0100
0010
1000
0001
1000
1001
0000
,  // measure 51
0010
0000
1000
0000
0001
0000
0000
1000
0000
0000
0001
0000
1000
0000
0000
0100
,  // measure 52
0010
0000
0001
0000
0010
0000
0000
0001
0000
0000
0100
0000
0010
0000
1000
0010
,  // measure 53
0000
0000
1000
0000
0001
0000
1000
0000
0100
0000
0010
0000
0001
0000
0000
1000
,  // measure 54
0002
0010
1000
0100
,  // measure 55
1003
0000
0100
0000
1000
0000
0010
0000
0100
0000
0001
0000
1000
0000
0001
0100
,  // measure 56
0000
0000
0001
0000
1000
0000
0100
0000
0010
0000
0001
0000
0100
0000
0010
0100
,  // measure 57
0000
0000
0010
0000
1000
0000
0100
0000
0010
0000
0001
0000
1000
0000
0001
0100
,  // measure 58
0000
0100
0001
0000
1000
0000
0100
1000
0000
1000
0100
0000
0010
0000
0001
0010
;

//---------------dance-single - ----------------
#NOTES:
     dance-single:
     :
     Beginner:
     1:
     0.133,0.166,0.029,0.000,0.000:
0000
0000
0000
0000
,
0000
0000
0000
0000
,
0000
0000
0000
0000
,
0000
0000
0000
0000
,
1000
0000
0001
0000
,
0100
0000
0001
0000
,
0010
0000
0100
0000
,
0110
0000
0000
0000
,
0001
0000
1000
0000
,
0010
0000
0100
0000
,
0001
0000
1000
0000
,
0100
0000
0000
0000
,
0010
0000
0010
0000
,
0001
0000
0001
0000
,
0100
0000
0100
0000
,
0010
0000
0010
0000
,
1000
0000
0010
0000
,
1000
0000
0010
0000
,
0100
0000
0001
0000
,
0100
0000
0001
0000
,
1000
0000
0100
0000
,
0010
0000
0001
0000
,
1000
1000
1000
1000
,
0000
0000
0000
0000
,
1000
0000
0000
0000
,
0010
0000
0100
0000
,
0001
0000
0000
0000
,
1000
0000
0100
0000
,
1000
0000
0000
0000
,
0001
0000
0010
0000
,
0100
0000
0000
0000
,
0010
0000
0001
0000
,
1001
0000
0000
0000
,
0000
0000
0000
0000
,
1000
0000
0000
0000
,
0000
0000
0000
0000
,
0110
0000
0000
0000
,
0000
0000
0000
0000
,
0100
0000
0001
0000
,
1000
0000
0100
0000
,
0010
0010
0010
0010
,
0000
0000
0000
0000
,
0001
0000
1000
0000
,
0100
0000
0010
0000
,
0100
0000
1000
0000
,
0001
0000
1000
0000
,
0010
0000
0100
0000
,
0001
0000
0010
0000
,
0100
0000
0010
0000
,
0001
0000
0000
0000
,
1000
0000
0010
0000
,
1000
0000
0010
0000
,
0100
0000
0001
0000
,
0100
0000
0001
0000
,
1000
0000
0100
0000
,
0010
0000
0001
0000
,
1000
0000
0010
0000
,
0100
0100
0100
0100
;

//---------------dance-single - ----------------
#NOTES:
     dance-single:
     :
     Easy:
     4:
     0.286,0.360,0.077,0.163,0.000:
0000
0000
1000
0000
2000
0000
0000
3000
,
0000
0000
0010
0000
0020
0000
0000
0030
,
0000
0000
0100
0000
0200
0000
0000
0300
,
0000
0001
0002
0000
,
1003
0100
0010
0100
,
1000
0010
0100
0001
,
0010
0001
1000
0100
,
0010
0001
0100
0000
,
0010
0100
0001
0010
,
0001
1000
0100
0010
,
0001
0100
0010
1000
,
2200
3300
2002
3003
,
0001
0100
0001
0000
,
1000
0100
1000
0000
,
0001
0010
0100
0000
,
0010
0001
0100
0000
,
0010
1000
0100
0000
,
0010
0001
1000
0000
,
0001
0100
0001
0000
,
1000
0010
1000
0010
,
0100
0001
0010
0100
,
0010
0001
1000
0001
,
0100
1000
0010
0002
,
0000
0000
0000
0003
,
1000
0001
1000
0010
,
0100
0001
0010
0010
,
0010
0100
0010
0001
,
0100
0010
0100
0100
,
0100
0010
1000
0100
,
0010
0100
1000
1000
,
1000
0001
0100
0010
,
1000
0100
0010
0001
,
2002
0000
0000
0000
,
0000
0000
3000
0000
,
0200
0000
0000
0000
,
0000
0000
0003
0000
,
0020
0000
0000
0000
,
0000
0000
0000
0330
,
0010
1000
0100
0010
,
0001
0100
0010
1000
,
1001
1001
0110
0220
,
0330
0000
0000
0000
,
0010
1000
0100
0001
,
0100
1000
0010
0100
,
0001
0010
1000
0100
,
1000
0010
0100
0001
,
0010
1000
0100
0001
,
1000
0100
0010
0001
,
0100
1000
0010
0001
,
1000
0010
0220
0330
,
0010
1000
0100
0010
,
0001
0100
0010
1000
,
0010
0100
0010
0001
,
0010
1000
0100
0010
,
0100
1000
0001
0010
,
0001
0100
1000
0100
,
0010
0100
1000
0100
,
0001
0010
0100
1000
;

//---------------dance-single - ----------------
#NOTES:
     dance-single:
     :
     Medium:
     4:
     0.351,0.361,0.067,0.153,0.005: // measure 1
0000
0000
0001
0100
0002
0000
0000
0003
,  // measure 2
0000
0000
1000
0010
2000
0000
0000
3000
,  // measure 3
0000
0000
0001
1000
0002
0000
0000
0003
,  // measure 4
0000
0000
0100
0010
0200
0000
0000
0000
,  // measure 5
0310
0000
1000
0000
0100
0000
0010
0100
,  // measure 6
0010
0000
0001
0000
0100
0000
0010
1000
,  // measure 7
0010
0000
0100
0000
0001
0000
0010
0001
,  // measure 8
0100
0010
1000
0101
,  // measure 9
1001
0000
1000
0000
0100
0000
0010
0001
,  // measure 10
0010
0000
0001
0000
0100
0000
0010
1000
,  // measure 11
0010
0000
1000
0000
0001
0000
0100
0010
,  // measure 12
0200
0000
0302
1003
,  // measure 13
1000
0100
0000
0010
0001
0000
0100
0000
,  // measure 14
0010
1000
0000
0001
0100
0000
0001
0000
,  // measure 15
1000
0100
0000
0010
0001
0000
0100
0000
,  // measure 16
0010
0100
0000
0100
0020
0000
0030
0000
,  // measure 17
1000
0001
0000
1000
0001
0000
0100
0000
,  // measure 18
0010
0100
0000
0010
0100
0000
0001
0000
,  // measure 19
0010
0001
0000
1000
0100
0000
0010
0000
,  // measure 20
0001
0100
0000
0010
1000
0000
0001
0000
,  // measure 21
1000
0100
1000
0000
0001
0100
0001
0000
,  // measure 22
1000
0010
1000
0000
0001
0010
0001
0000
,  // measure 23
2000
0100
0010
0002
,  // measure 24
0000
0000
0000
3003
,  // measure 25
1000
0100
0010
0001
,  // measure 26
0100
0000
0010
0000
0100
0000
0001
1000
,  // measure 27
0000
0001
0010
0100
,  // measure 28
0010
0000
0001
0000
0100
0000
0010
1000
,  // measure 29
0000
0100
0010
0001
,  // measure 30
0100
0000
0010
0000
0100
0000
0001
1000
,  // measure 31
0100
0010
0001
0100
,  // measure 32
1000
0000
0100
0000
0001
0000
1000
0100
,  // measure 33
2000
0000
0000
0000
,  // measure 34
0000
0000
0000
0000
,  // measure 35
0200
0000
0000
0000
,  // measure 36
0000
0000
0000
3000
,  // measure 37
0010
0000
0000
0010
0000
0000
0020
0000
0000
0000
0000
0000
0000
0000
0000
0000
,  // measure 38
0000
0000
0000
0330
,  // measure 39
1000
0001
1000
0001
,  // measure 40
0100
0010
0100
0010
,  // measure 41
1010
0101
0110
2002
,  // measure 42
3003
0000
0000
0000
,  // measure 43
1000
0000
0100
0000
0010
0000
0001
0010
,  // measure 44
0001
0000
0100
0000
0010
0000
1000
0010
,  // measure 45
1000
0000
0001
0000
0100
0000
0010
0100
,  // measure 46
0010
1000
0100
0010
,  // measure 47
0001
0000
1000
0000
0010
0000
0100
0010
,  // measure 48
1000
0000
0100
0000
0010
0000
0001
0010
,  // measure 49
0100
0000
0010
0000
0001
0000
0100
0010
,  // measure 50
1000
0001
0202
0303
,  // measure 51
0001
0100
0001
0000
1000
0000
0100
0000
,  // measure 52
0001
0000
0100
0000
1000
0000
0010
0100
,  // measure 53
0010
0100
0001
1000
,  // measure 54
0001
0010
0001
0000
1000
0010
1000
0000
,  // measure 55
0010
0100
0010
0000
0100
0000
0001
0000
,  // measure 56
1000
0000
0100
0000
0010
0000
0001
0010
,  // measure 57
0001
0100
0010
1000
,  // measure 58
0001
0100
0001
0000
1000
0100
1000
0100
;

//---------------dance-single - ----------------
#NOTES:
     dance-single:
     :
     Challenge:
     9:
     0.611,0.583,0.067,0.134,0.460: // measure 1
0000
1000
0010
0100
0002
0000
0000
0013
,  // measure 2
0000
0001
0010
0100
2000
0000
0000
3001
,  // measure 3
0000
0001
0100
0010
0200
0000
0000
0301
,  // measure 4
0000
0100
0010
0100
2000
0000
0000
3100
,  // measure 5
0110
0000
0010
1000
0001
0000
1000
0100
,  // measure 6
0010
0001
0100
0010
0100
0000
0010
1000
,  // measure 7
0000
0001
0010
0001
0100
0000
0010
0100
,  // measure 8
0010
0001
0010
1000
0200
0000
0010
0010
,  // measure 9
0310
0000
0100
1000
0001
0000
0100
0001
,  // measure 10
0000
1000
0010
0100
0001
0000
0010
0001
,  // measure 11
0000
1000
0100
0001
0100
1000
0010
0100
,  // measure 12
0001
0100
0002
0000
0000
0000
1003
0000
0100
0010
0100
0000
1001
0000
0000
0000
,  // measure 13
1000
0000
0100
0000
0010
0000
0001
0000
0010
0000
0100
0000
0000
0010
0001
0000
,  // measure 14
0100
0000
0010
0000
1000
0000
0010
0000
0100
0000
0001
0000
0000
1000
0010
0000
,  // measure 15
1000
0000
0100
0000
0001
0000
0100
0000
1000
0000
0010
0000
0000
0100
0010
0000
,  // measure 16
0100
0000
0001
0000
0010
0000
0100
0000
0010
0000
0001
0000
0000
1000
0001
0000
,  // measure 17
1000
0010
1000
0000
0000
0001
0100
0000
0001
0000
0010
0000
0000
0010
0001
0000
,  // measure 18
1000
0000
0100
0000
0000
0010
0100
0000
0010
0000
0001
0000
0000
1000
0010
0000
,  // measure 19
0100
0001
0100
0000
0000
0010
1000
0000
0001
0010
0001
0000
0000
1000
0100
0000
,  // measure 20
0010
0001
0100
0000
0000
0010
0100
0000
0010
1000
0100
0000
0000
0010
0100
0000
,  // measure 21
0010
0001
0010
0000
0001
0000
1000
0000
0010
0100
0010
0000
0100
0000
0001
0000
,  // measure 22
1000
0010
1000
0000
0001
0000
0100
0000
0001
0010
0001
0000
1000
0000
0100
0000
,  // measure 23
0010
0001
0000
0000
0001
1000
0000
0000
1000
0010
0000
0000
0020
0200
0000
0000
,  // measure 24
0000
0000
0000
0330
,  // measure 25
0001
0100
0001
0000
1000
0000
0100
0000
0010
0000
0100
0000
1000
0000
0001
0000
,  // measure 26
0000
1000
0100
0000
0010
0000
0001
0000
0100
0000
0001
0000
0000
0001
1000
0000
,  // measure 27
0001
0010
0100
0000
0010
0000
0001
0000
1000
0000
0010
0000
0100
0000
0001
0000
,  // measure 28
0000
1000
0100
0000
0010
0000
0100
0000
0010
0000
0011
0000
0000
0001
1000
0000
,  // measure 29
0001
0100
0010
0000
0100
0000
0001
0000
1000
0100
0000
1000
0000
0100
1000
0000
,  // measure 30
0001
0010
0100
0000
0010
0000
0001
0000
1000
0000
0010
0000
0000
0100
0001
0000
,  // measure 31
1000
0010
0100
0000
0001
0000
0010
0100
0000
0010
0000
0001
0000
1000
0010
0000
,  // measure 32
0100
0001
1000
0000
0100
0000
0010
0000
0000
0000
0011
0000
0000
0001
1000
0000
,  // measure 33
2002
0000
0000
0000
,  // measure 34
0000
0000
0000
3000
,  // measure 35
0200
0000
0000
0000
,  // measure 36
0000
0000
0000
0003
,  // measure 37
0010
0000
0000
0010
0000
0000
0020
0000
0000
0000
0000
0000
0000
0000
0000
0000
,  // measure 38
0000
0000
0000
0330
,  // measure 39
1000
0100
0010
0001
1000
0010
0100
0001
,  // measure 40
1000
0100
1000
0000
0001
0010
0001
0000
1000
0010
1000
0000
0001
0100
0001
0000
,  // measure 41
1000
0100
0000
0000
0010
0001
0000
0000
1000
0010
0000
0000
0100
0001
2000
0002
,  // measure 42
0000
0000
0000
3003
,  // measure 43
1001
0000
0001
0000
0100
0000
0010
0000
0100
0000
0001
0000
1000
0000
0100
0010
,  // measure 44
0000
0010
0100
0000
0010
0000
0001
0000
0100
0000
1000
0000
0100
0000
0010
0100
,  // measure 45
0000
0100
0010
0000
1000
0000
0100
0000
0010
0000
0001
0000
1000
0000
0001
0010
,  // measure 46
0000
0010
0001
0000
0100
0000
0010
0000
1000
0000
0001
0000
0100
0000
0001
1000
,  // measure 47
0000
0001
1000
0000
0100
0000
0010
0000
0001
0000
0100
0000
0010
0000
1000
0010
,  // measure 48
0000
1000
0001
0000
0100
0000
0001
0000
1000
0000
0100
0000
0010
0000
0001
0010
,  // measure 49
0000
0100
1000
0000
0100
0000
0010
0000
0001
0000
0100
0000
0010
0000
1000
0010
,  // measure 50
0000
0100
0001
0000
1000
0000
0100
0010
0000
0100
0010
0000
1001
0000
0000
0000
,  // measure 51
1000
0010
1000
0000
0001
0000
0010
0000
0100
0000
0010
0000
0001
0000
0100
0001
,  // measure 52
0000
0001
0100
0000
0010
0000
1000
0000
0100
0000
0010
0000
0100
0000
1000
0001
,  // measure 53
0000
0001
1000
0000
0010
0000
0100
0000
0001
0000
0010
0000
0100
0000
0010
0001
,  // measure 54
0000
0001
1000
0000
0010
0000
0100
0000
0001
0000
1000
0000
0100
0000
0010
0000
,  // measure 55
0001
1000
0001
0000
1000
0000
0010
0100
0000
0100
0001
0000
1000
0000
0100
0010
,  // measure 56
0000
0100
0010
0000
0001
0000
1000
0010
0000
0010
1000
0000
0001
0000
0100
0001
,  // measure 57
0000
0001
1000
0000
0100
0000
0010
0001
0000
0001
0100
0000
0010
0000
1000
0001
,  // measure 58
0000
0001
1000
0000
0100
0000
0010
0001
0000
1000
0100
0000
0010
0001
1000
0001
;
