#TITLE:C'est dans l'air;
#SUBTITLE:(Tiësto Remix);
#ARTIST:Mylène Farmer;
#TITLETRANSLIT:;
#SUBTITLETRANSLIT:;
#ARTISTTRANSLIT:;
#GENRE:;
#CREDIT:;
#MENUCOLOR:;
#METERTYPE:DDR;
#BANNER:;
#BACKGROUND:;
#LYRICSPATH:;
#CDTITLE:;
#MUSIC:C'est dans l'air (Tiesto Remix).mp3;
#OFFSET:-7.310;
#SAMPLESTART:35.900;
#SAMPLELENGTH:14.550;
#SELECTABLE:YES;
#LISTSORT:;
#BPMS:0.000=132.000;
#STOPS:;
#BGCHANGES:;
#ATTACKS:;

//---------------dance-single - ----------------
#NOTES:
     dance-single:
     :
     Hard:
     7:
     0.443,0.407,0.133,0.133,0.104: // measure 1
1000
0001
0010
0001
0100
0000
0010
0000
,  // measure 2
0100
0001
0000
0001
1000
0000
0100
0000
,  // measure 3
0010
0001
0100
0010
1000
0000
0010
0000
,  // measure 4
0100
0001
0000
0001
1000
0000
0100
0000
,  // measure 5
0010
0001
1000
0100
0001
0000
0100
0000
,  // measure 6
1000
0010
0000
0100
0001
0000
1000
0000
,  // measure 7
0010
0001
0010
1000
0100
0000
0010
0000
,  // measure 8
0001
0100
0010
1000
2000
0000
3000
0000
,  // measure 9
0001
0000
0100
0000
0001
0000
0000
1000
0000
0000
0010
0000
0100
0000
0010
0000
,  // measure 10
1000
1100
0000
0022
0000
0000
0033
0000
,  // measure 11
1000
0000
0100
0000
0010
0000
0000
0100
0000
0000
0010
0000
0100
0000
1000
0000
,  // measure 12
0001
1001
0000
0220
0000
0000
0330
0000
,  // measure 13
1000
0000
0100
0000
0010
0000
0001
1000
0000
0000
0001
0000
0100
0000
0001
0000
,  // measure 14
1000
1010
0000
0202
0000
0000
0303
0000
,  // measure 15
1000
0000
0100
0000
0010
0000
0100
0010
0000
0000
0100
0000
0010
0000
0001
0000
,  // measure 16
1000
0000
1010
0000
0000
0000
0202
0000
0000
0000
0000
0000
0000
0000
0003
0300
,  // measure 17
0000
0000
0010
0000
1000
0000
0000
0001
0000
0000
0001
0000
0010
0000
0000
0001
,  // measure 18
0000
0000
1000
0000
0100
0000
0000
1000
0000
0000
0100
0000
0010
0000
0001
0000
,  // measure 19
0002
0000
0010
0010
0010
0000
1000
1000
,  // measure 20
1000
0000
0100
0100
0103
0000
1010
0000
,  // measure 21
0001
0000
1000
0000
0001
0000
0100
0010
0000
0000
1000
0000
0001
0000
0010
0100
,  // measure 22
0000
0000
0010
0000
0001
0000
1000
0100
0000
0000
1000
0000
0010
0000
0100
0000
,  // measure 23
0002
0000
0100
0100
0100
0000
1000
1000
,  // measure 24
1000
0000
0010
0010
0013
0000
1100
0000
,  // measure 25
1000
0100
0010
0001
1000
0010
0100
0001
,  // measure 26
0010
0000
0100
0010
0100
0000
0011
0000
,  // measure 27
0001
1000
0100
0010
0001
1000
0010
0100
,  // measure 28
0001
0000
1000
0100
1000
0000
0110
0000
,  // measure 29
0010
0001
1000
0010
0001
0010
1000
0100
,  // measure 30
1000
0100
0010
0001
0100
0010
0100
0001
,  // measure 31
0010
0100
0010
1000
0010
0001
0100
0010
,  // measure 32
2000
0010
0002
3003
,  // measure 33
1000
0000
1000
0010
0000
0010
0100
0000
,  // measure 34
0100
0001
0000
0001
1000
0000
0001
0100
,  // measure 35
0001
0000
1000
0000
0010
1000
0000
1000
,  // measure 36
0100
0000
0100
0010
0000
0010
0100
0010
,  // measure 37
0001
0000
1000
0010
0000
0100
0001
0000
,  // measure 38
1000
0100
0000
0010
0001
0000
1000
0010
,  // measure 39
1000
0000
0100
0000
0010
0000
0001
0100
,  // measure 40
0002
0010
2000
3003
,  // measure 41
1000
0000
0010
0000
1000
0000
0000
0001
0000
0000
0100
0000
0010
0000
0000
1000
,  // measure 42
0000
0000
0100
0000
0010
0000
0000
0001
0000
0000
1000
0000
0100
0000
1000
0000
,  // measure 43
0001
0000
0010
0100
1000
0000
1000
0010
,  // measure 44
0100
0000
0100
0001
1000
0000
1001
0000
,  // measure 45
1000
0000
0010
0000
0100
0000
0100
0001
0000
0000
0100
0000
0010
0000
0010
1000
,  // measure 46
0000
0000
0100
0000
1000
0000
1000
0001
0000
0000
0010
0000
0001
0000
0100
0000
,  // measure 47
0010
0000
0100
0001
1000
0000
0100
1000
,  // measure 48
0001
0000
0010
0001
1000
0000
1010
0000
,  // measure 49
0101
0000
0010
0000
1000
0100
1000
0001
,  // measure 50
0010
0000
0001
0000
1000
0010
1000
0000
,  // measure 51
0001
0000
1000
0000
0100
0010
0100
1000
,  // measure 52
0100
0000
0000
0000
0010
0000
0000
0000
0001
0000
0010
0000
0001
0000
1000
0002
,  // measure 53
0000
0000
0010
0000
1003
0000
0001
0100
,  // measure 54
0001
0000
1000
0000
0100
0000
0010
0100
,  // measure 55
1000
0000
0100
0000
0010
0001
0100
0001
,  // measure 56
1000
0001
0010
0001
0010
0100
1100
0000
,  // measure 57
0010
0001
0000
0010
0000
0001
0000
0000
0010
0000
0000
0000
0001
1000
0001
0000
,  // measure 58
1000
0100
0000
1000
0000
0100
0000
1000
0000
0000
0000
0000
0000
0000
0000
0000
;

//---------------dance-single - ----------------
#NOTES:
     dance-single:
     :
     Medium:
     5:
     0.330,0.327,0.092,0.150,0.000: // measure 1
1000
0000
0000
0001
0000
0000
1000
0000
,  // measure 2
0010
0100
0001
1000
,  // measure 3
0100
0000
0000
0010
0000
0000
0100
0000
,  // measure 4
1000
0100
0010
0001
,  // measure 5
1000
0000
0000
0001
0000
0000
1000
0000
,  // measure 6
0010
0100
0001
1000
,  // measure 7
0100
0000
0000
0010
0000
0000
0001
0000
,  // measure 8
1000
0001
1000
0000
1001
0000
0000
0000
,  // measure 9
1100
0000
0010
0001
0100
0000
0010
0000
,  // measure 10
1000
0001
0000
0001
0100
0000
0010
0000
,  // measure 11
1000
0000
0100
1000
0100
0000
0010
0000
,  // measure 12
0001
0100
0000
0100
0010
0000
1000
0000
,  // measure 13
0001
0000
0010
0001
0010
0000
0001
0000
,  // measure 14
1000
0100
0000
0100
0010
0000
0100
0000
,  // measure 15
1000
0000
0010
1000
0001
0000
0010
0000
,  // measure 16
0001
0100
0000
0100
0010
0000
1000
0001
,  // measure 17
1001
1000
0001
0100
,  // measure 18
0010
0000
1000
0000
0100
0000
0010
0001
,  // measure 19
0010
0000
0001
0000
0100
0000
0001
0100
,  // measure 20
0001
0000
1000
0000
0010
0100
0010
0000
,  // measure 21
0100
0000
0001
0100
0001
0000
1000
0100
,  // measure 22
1000
0000
0001
0010
0001
0000
1000
0000
,  // measure 23
0010
0000
0100
0001
0100
0000
0001
0000
,  // measure 24
0010
0000
0100
1000
0100
0000
1000
0000
,  // measure 25
0002
0000
0010
1000
,  // measure 26
0200
0003
1000
0010
,  // measure 27
0302
0000
0010
1000
,  // measure 28
0200
0000
0000
0303
,  // measure 29
1000
0010
1000
0000
0010
0000
1010
0000
,  // measure 30
1000
0001
1000
0000
0001
0000
1001
0000
,  // measure 31
0001
0010
0001
0000
0010
0000
0011
0000
,  // measure 32
0001
0100
0110
1001
,  // measure 33
2000
0000
0000
3200
0000
0000
0320
0000
,  // measure 34
0000
0032
0000
0000
1000
0000
0100
0100
,  // measure 35
0003
0000
2000
0000
0000
3020
0000
0000
,  // measure 36
0230
0000
0000
0302
0000
0010
0010
0000
,  // measure 37
0103
0000
0010
0010
0000
1000
1000
0000
,  // measure 38
0001
0001
0000
0010
0010
0000
0001
0001
,  // measure 39
0001
1000
0010
0100
,  // measure 40
0002
1000
2000
3003
,  // measure 41
1010
0000
1000
0001
1000
0000
0001
1000
,  // measure 42
0001
0000
0100
0010
0100
0000
0010
0100
,  // measure 43
0010
0000
1000
0000
0100
0000
0010
0001
,  // measure 44
0010
0000
0001
0000
0100
0000
0010
1000
,  // measure 45
0010
0000
1000
0100
1000
0000
0001
0100
,  // measure 46
0001
0000
1000
0010
1000
0000
0001
0010
,  // measure 47
0001
1000
0100
0010
,  // measure 48
0001
0100
0010
1000
,  // measure 49
0002
0000
0000
0000
1003
0001
1000
0000
,  // measure 50
0020
0000
0000
0000
1030
0010
1000
0000
,  // measure 51
0200
0000
0000
0000
0310
0100
0010
0000
,  // measure 52
0002
0000
0000
0000
1003
0001
1000
0000
,  // measure 53
0001
0000
0100
0000
0010
1000
0010
0000
,  // measure 54
1000
0000
0100
0000
0010
0001
0010
0000
,  // measure 55
0001
1000
0100
0000
1000
0001
0100
0000
,  // measure 56
0010
1000
0100
0110
,  // measure 57
1001
0000
0000
0000
;

//---------------dance-single - ----------------
#NOTES:
     dance-single:
     :
     Beginner:
     1:
     0.105,0.140,0.033,0.000,0.000: // measure 1
1000
0000
0001
0000
,  // measure 2
1000
0000
0000
0000
,  // measure 3
0010
0000
0100
0000
,  // measure 4
0010
0000
0000
0000
,  // measure 5
1000
0000
0100
0000
,  // measure 6
0010
0000
0001
0000
,  // measure 7
0100
0000
0010
0000
,  // measure 8
0110
0000
0000
0000
,  // measure 9
0010
0000
1000
0000
,  // measure 10
0001
0000
0001
0000
,  // measure 11
1000
0000
0100
0000
,  // measure 12
0010
0000
0010
0000
,  // measure 13
0100
0000
1000
0000
,  // measure 14
0001
0000
0001
0000
,  // measure 15
1000
0000
0001
0000
,  // measure 16
0100
0000
0010
0000
,  // measure 17
0110
0000
0000
0000
,  // measure 18
0010
0000
1000
0000
,  // measure 19
0001
0000
0000
0000
,  // measure 20
1000
0000
0001
0000
,  // measure 21
0010
0000
0000
0000
,  // measure 22
0001
0000
0010
0000
,  // measure 23
0100
0000
0000
0000
,  // measure 24
0010
0000
0100
0000
,  // measure 25
0010
0000
0000
0000
,  // measure 26
0001
0000
0000
0000
,  // measure 27
0100
0000
0000
0000
,  // measure 28
0010
0000
0000
0000
,  // measure 29
1000
0000
0000
0000
,  // measure 30
0100
0000
0000
0000
,  // measure 31
0010
0000
0000
0000
,  // measure 32
0001
0000
0000
0000
,  // measure 33
1000
0000
0001
0000
,  // measure 34
1000
0000
0000
0000
,  // measure 35
0010
0000
0100
0000
,  // measure 36
0010
0000
0000
0000
,  // measure 37
0100
0000
0001
0000
,  // measure 38
0100
0000
0001
0000
,  // measure 39
1000
0000
0010
0000
,  // measure 40
1000
0000
0001
0000
,  // measure 41
1001
0000
0000
0000
,  // measure 42
0001
0000
0100
0000
,  // measure 43
0001
0000
0000
0000
,  // measure 44
1000
0000
0100
0000
,  // measure 45
1000
0000
0000
0000
,  // measure 46
0001
0000
0010
0000
,  // measure 47
0001
0000
0000
0000
,  // measure 48
1000
0000
0010
0000
,  // measure 49
1000
0000
0000
0000
,  // measure 50
0100
0000
0000
0000
,  // measure 51
0010
0000
0000
0000
,  // measure 52
0001
0000
0000
0000
,  // measure 53
0010
0000
0000
0000
,  // measure 54
0100
0000
0000
0000
,  // measure 55
1000
0000
0000
0000
,  // measure 56
0010
0000
0000
0000
,  // measure 57
0110
0000
0000
0000
;

//---------------dance-single - ----------------
#NOTES:
     dance-single:
     :
     Easy:
     3:
     0.200,0.233,0.033,0.133,0.000: // measure 1
1000
0001
1000
0000
,  // measure 2
0000
0001
0000
1000
0000
0000
0000
0000
,  // measure 3
0010
0100
0010
0000
,  // measure 4
0000
0100
0000
0010
0000
0000
0000
0000
,  // measure 5
1000
0010
1000
0000
,  // measure 6
0000
0001
0000
0100
0000
0000
0000
0000
,  // measure 7
0001
0010
0001
0000
,  // measure 8
1000
0100
1000
0000
,  // measure 9
0001
0100
0010
0100
,  // measure 10
0001
1000
1001
0000
,  // measure 11
1000
0010
0100
0001
,  // measure 12
0010
0100
0110
0000
,  // measure 13
0010
0001
1000
0100
,  // measure 14
1000
0001
0010
0000
,  // measure 15
0001
0100
0010
1000
,  // measure 16
0001
0100
0010
0100
,  // measure 17
0110
0000
0010
1000
,  // measure 18
0001
0000
0010
0001
,  // measure 19
0100
0010
1000
0100
,  // measure 20
1000
0001
0010
0100
,  // measure 21
0010
0010
0010
0000
,  // measure 22
1000
1000
1000
0000
,  // measure 23
0001
0100
0001
1000
,  // measure 24
0010
0100
0001
0010
,  // measure 25
0002
0000
0000
0000
,  // measure 26
2003
0000
0000
0000
,  // measure 27
3020
0000
0000
0000
,  // measure 28
0230
0000
0000
0000
,  // measure 29
0302
0000
0000
0000
,  // measure 30
0023
0000
0000
0000
,  // measure 31
0230
0000
0000
0000
,  // measure 32
2300
0000
0000
3000
,  // measure 33
1000
0100
0010
0001
,  // measure 34
0100
0010
0100
0000
,  // measure 35
0001
0100
0010
1000
,  // measure 36
0100
0010
0100
0000
,  // measure 37
1000
0100
1000
0100
,  // measure 38
0010
0001
0010
0000
,  // measure 39
0001
0100
0010
1000
,  // measure 40
0010
0100
0001
0000
,  // measure 41
0001
1000
0001
1000
,  // measure 42
0100
0010
0100
0010
,  // measure 43
0001
0000
0100
0000
,  // measure 44
0010
0000
1000
0000
,  // measure 45
0001
0100
0001
0100
,  // measure 46
0010
1000
0010
1000
,  // measure 47
0100
0000
0010
0000
,  // measure 48
0001
0000
1000
0000
,  // measure 49
0002
0000
0000
0000
,  // measure 50
0023
0000
0000
0000
,  // measure 51
0230
0000
0000
0000
,  // measure 52
2300
0000
0000
0000
,  // measure 53
3020
0000
0000
0000
,  // measure 54
0230
0000
0000
0000
,  // measure 55
0302
0000
0000
0000
,  // measure 56
2003
0000
0000
3001
,  // measure 57
1001
0000
0000
0000
;
