#TITLE:Breaking the ground;
#SUBTITLE:;
#ARTIST:Art of Fighters;
#TITLETRANSLIT:;
#SUBTITLETRANSLIT:;
#ARTISTTRANSLIT:;
#CREDIT:;
#BANNER:;
#BACKGROUND:;
#LYRICSPATH:;
#CDTITLE:;
#MUSIC:Breaking the ground.mp3;
#OFFSET:-6.530;
#SAMPLESTART:58.580;
#SAMPLELENGTH:11.560;
#SELECTABLE:YES;
#BPMS:0.000=166.000;
#STOPS:;
#BGCHANGES:;

//---------------dance-single - ----------------
#NOTES:
     dance-single:
     :
     Hard:
     9:
     0.617,0.684,0.712,0.311,0.029:
1000
0100
0000
0110
0000
0011
0000
0001
,
0100
1000
0000
1100
0000
0101
0000
0001
,
1000
0100
0010
0001
0010
0100
1000
0001
,
2002
0000
3003
0000
,
1010
0000
0101
0000
0011
0000
1100
1000
,
1001
0000
0110
0000
0010
1000
0100
0010
,
0110
0000
1001
0000
1100
0000
0011
0001
,
1001
0000
1000
0010
0001
0010
1000
0001
,
0000
1001
1001
0000
1100
0000
0011
0001
,
0101
0000
0000
0000
1010
0000
0000
0000
1001
0000
1001
0000
0000
1000
0001
0000
,
0011
0000
1000
0100
0000
1100
0000
1000
,
1002
0100
2000
3003
,
1000
0001
0000
1000
0100
0010
0000
0010
,
0001
1000
0000
0010
1000
0100
0001
0100
,
1000
0010
0000
0100
0001
0010
0000
0100
,
1000
0001
0000
0100
1000
0100
0001
0100
,
0110
0010
0000
0100
0001
0010
0000
0100
,
1000
0010
0000
1000
0001
0010
0100
1000
,
0001
0101
0000
0100
0110
0000
1001
0000
,
2010
0010
0000
0001
0002
0000
3003
0000
,
0220
0000
0000
0000
,
0000
0000
0000
0030
,
0002
0000
0000
0003
,
0020
0030
0002
0303
,
2002
0000
0000
0000
,
0000
0000
0000
3000
,
0200
0000
0000
0300
,
2000
3000
0200
0303
,
1001
0000
1000
0010
0000
0100
0000
0001
,
0100
0000
0010
1000
0000
0100
0000
0010
,
0001
1000
0001
0100
0000
0110
0000
0010
,
1000
0100
0000
0010
0001
1000
0010
0100
,
0110
1010
0101
0011
,
1100
1001
0110
1001
,
2002
0000
0000
0000
,
0000
0000
0000
3003
,
1000
0100
0010
0001
1000
0001
1000
0001
,
0100
0010
1000
0001
0010
0100
0010
0001
,
1000
0010
0100
0001
1000
0010
1000
0010
,
0100
1000
0100
0010
1000
0000
0001
1000
,
0010
0100
0001
1000
0100
0001
0100
0010
,
0001
0010
0001
0100
0010
1000
0010
0001
,
1000
0001
0010
0100
0010
0100
0001
0010
,
0100
0000
0000
0010
0000
0000
0001
0000
1000
0000
0000
0001
0000
0000
1000
0000
,
0010
0100
0001
0100
0010
1000
0010
0100
,
0001
0010
0100
0010
0001
0002
0000
1003
,
0001
0010
0100
0010
0001
1000
0010
0001
,
0010
0100
0010
1000
0001
1000
0020
0000
,
1030
0100
0001
0100
1000
0010
0100
0001
,
0010
1000
0001
0100
1000
0001
1000
1000
,
2002
0000
0000
0000
3003
0000
0001
0000
0101
0000
0101
0000
0001
1000
0000
0000
,
1100
0000
0011
0001
0202
0000
0303
0000
,
1002
0000
0000
1000
0000
1000
0000
1000
,
2003
0000
0000
0010
0000
0010
0000
0010
,
3020
0000
0000
0100
0000
0100
0000
0100
,
0230
0000
0000
0000
0000
0000
0010
0000
0000
0000
0310
0000
0000
0100
0010
0000
,
1000
0010
1000
0010
0100
0001
0100
0001
,
0010
0001
0010
0001
1000
0100
1000
0100
,
0010
0001
0100
1000
0100
0001
1000
0010
,
0220
0000
0000
0330
,
1010
0101
0011
1100
,
0101
0000
0110
0000
0011
0001
0100
1000
,
1100
0000
0101
0000
1001
0000
0011
0001
,
1000
0010
0100
0001
0020
0000
0031
1000
,
1001
0101
1010
1100
,
0110
0000
0000
0000
1001
0000
0000
0000
0011
0000
0000
0000
1000
0100
1000
0000
,
1001
0000
0011
0000
1010
0000
0011
0001
,
1000
0010
0100
0001
0010
0100
0000
0220
,
0000
0330
0110
0100
1000
0100
0010
0001
,
0100
1000
0100
0010
1000
0001
0010
0100
,
1100
1000
0010
0001
0010
0100
0001
0010
,
0100
0010
0001
1000
0002
0000
1003
0001
,
0101
0000
0001
1001
0000
1100
0000
0100
,
0110
0000
0000
0000
0010
0000
0011
0000
0000
0000
1001
0000
0001
1000
0001
0000
,
1000
0010
0100
0001
0000
2002
0000
3003
,
1000
0100
0000
0010
0220
0000
0330
0000
,
1001
0000
0000
0000
;

//---------------dance-single - ----------------
#NOTES:
     dance-single:
     :
     Medium:
     6:
     0.455,0.560,0.344,0.311,0.004:
1000
0000
0000
0001
0000
0100
0000
0001
,
1000
0000
0000
0001
0000
0010
0000
0001
,
0010
0000
0001
1000
0000
1001
0000
0000
,
0220
0000
0330
0000
,
1001
1000
0001
0100
,
0010
0000
0100
0000
0001
0000
1000
0100
,
1000
0001
0100
0010
,
0100
0000
0001
0000
1000
0001
1000
0002
,
0000
0100
0103
0000
0010
0000
1000
0000
,
0100
0000
0001
0000
0100
0010
0000
0010
,
0001
0000
1000
0001
0000
0100
0000
0001
,
2000
0001
0002
3003
,
1000
0100
0000
1000
0001
1000
0000
0001
,
0100
0001
0000
0100
0010
0100
0000
0010
,
1000
0010
0000
1000
0001
1000
0000
0001
,
0010
0001
0000
1000
0100
0000
0010
0000
,
1001
0000
0000
1000
0010
0100
0000
0010
,
0100
0001
0000
0100
0001
1000
0000
0001
,
1000
0100
0000
1000
0100
0010
0000
0100
,
0010
0200
0000
1000
2000
0000
3300
0000
,
2002
0000
0000
0000
,
0000
0000
0000
0003
,
0020
0000
0000
0030
,
0200
0300
0002
3003
,
0220
0000
0000
0000
,
0000
0000
0000
0300
,
2000
0000
0000
3000
,
0200
0300
2000
3030
,
1001
0000
0000
1000
0000
0100
0000
1000
,
0100
0000
0000
0010
0000
0001
0000
0010
,
0001
0000
1000
0001
0000
0101
0000
0100
,
0001
1000
0000
1000
0200
0000
0300
0000
,
0110
0110
0011
0011
,
1001
1001
1010
1010
,
0220
0000
0000
0000
,
0000
0000
0000
0330
,
1001
0000
1000
0000
0100
0010
0100
0000
,
0010
0000
0001
0000
1000
0001
2000
0000
,
3010
0000
0100
0000
0010
0100
0010
0000
,
1000
0010
1000
0000
0002
0000
1000
1000
,
1003
0000
0001
0000
0100
0010
1000
0000
,
0001
0000
1000
0000
0100
0010
0001
0000
,
0100
0000
0010
0000
1000
0001
0100
0001
,
0100
0000
0000
0001
0000
0000
2000
0000
0002
0000
0000
0000
3003
0000
0000
0000
,
1000
0000
1100
0000
0100
0000
0010
0001
,
1000
0000
1001
0000
0001
0000
0100
0010
,
0100
0000
0110
0000
0010
0000
1000
0100
,
0010
0000
0100
1000
0001
0000
1001
0000
,
0110
0000
0100
0000
0001
0000
1000
0100
,
1000
0000
0001
0000
0010
0100
0010
0000
,
0110
0000
0000
1000
0001
1000
0001
0000
,
1001
1001
0220
0330
,
1001
1000
0100
0001
,
0100
1000
0010
0001
,
0010
1000
0100
0010
,
0001
0000
0100
0000
0010
1000
0010
1000
,
0002
0010
1000
0100
,
2003
0010
0001
3100
,
1000
0000
0001
0100
0000
0100
0001
0000
,
2002
0000
0000
3003
,
1001
0001
0100
0001
,
1000
0000
0100
0000
1000
0100
1000
0001
,
0100
0000
0010
0000
0100
0000
0001
1000
,
0010
0000
0100
0001
1000
0000
0100
0100
,
0010
0001
1000
0010
,
0100
0000
0001
0000
1000
0000
0001
0001
,
0001
0000
1000
0000
0010
0000
0100
0010
,
1000
0000
0001
0000
1000
0001
0000
2002
,
0000
3003
1001
0000
1010
0000
0110
0000
,
0100
0000
0001
0000
1000
0100
1000
0000
,
0001
0011
0110
1100
,
1000
0000
0001
0100
0001
1000
0100
0000
,
0110
0000
0010
0000
0001
0000
1000
0001
,
1000
0001
0100
0010
,
0220
0000
0000
0330
,
0202
0303
2020
3030
,
1001
0000
0000
0000
;

//---------------dance-single - ----------------
#NOTES:
     dance-single:
     :
     Easy:
     4:
     0.330,0.497,0.172,0.262,0.000: // measure 1
1000
0000
0001
0010
,  // measure 2
0001
0000
1000
0010
,  // measure 3
0100
0001
1000
0001
,  // measure 4
2002
0000
3003
0000
,  // measure 5
1001
0000
1000
0100
,  // measure 6
1000
0000
0001
0100
,  // measure 7
0001
0000
1000
0010
,  // measure 8
0100
0001
0010
0100
,  // measure 9
0010
0000
0001
1000
,  // measure 10
0100
0000
0010
0100
,  // measure 11
1000
0000
0001
1000
,  // measure 12
0010
0010
0020
0030
,  // measure 13
1001
0000
0001
0000
,  // measure 14
0100
0010
0100
0001
,  // measure 15
1000
0000
0001
0000
,  // measure 16
1000
0100
0010
0001
,  // measure 17
1000
0000
0001
0000
,  // measure 18
0100
0010
0100
0001
,  // measure 19
1000
0000
0001
1000
,  // measure 20
2002
0000
3003
0000
,  // measure 21
0220
0000
0000
0000
,  // measure 22
0000
0000
0300
0000
,  // measure 23
2000
0000
0030
0000
,  // measure 24
0002
0000
3000
0000
,  // measure 25
0020
0000
0000
0000
,  // measure 26
0000
0000
0003
0000
,  // measure 27
0200
0000
0030
0000
,  // measure 28
2000
0000
0000
3300
,  // measure 29
1001
0000
1000
0001
,  // measure 30
1000
0000
0001
0010
,  // measure 31
0001
0000
1000
0100
,  // measure 32
1000
0001
0010
0001
,  // measure 33
1000
1000
1000
1000
,  // measure 34
0001
0001
0001
0001
,  // measure 35
2002
0000
0000
0000
,  // measure 36
0000
0000
0000
3003
,  // measure 37
1000
0100
0010
0001
,  // measure 38
1000
0001
1000
0001
,  // measure 39
0100
0010
1000
0001
,  // measure 40
0010
1000
0020
0000
,  // measure 41
0031
1000
0001
0100
,  // measure 42
1000
0100
0010
1000
,  // measure 43
0100
0010
0001
1000
,  // measure 44
2002
0000
0000
3003
,  // measure 45
0110
0100
0001
1000
,  // measure 46
0100
0010
0001
1000
,  // measure 47
0001
0100
1000
0100
,  // measure 48
0001
1000
0002
0003
,  // measure 49
1000
0100
0010
0100
,  // measure 50
0010
0001
1000
0001
,  // measure 51
2002
3003
0110
0110
,  // measure 52
0010
1000
2002
3003
,  // measure 53
1001
0001
0001
0001
,  // measure 54
0100
0100
0100
0100
,  // measure 55
0010
0010
0010
0010
,  // measure 56
1000
1000
1000
1000
,  // measure 57
0001
0010
0100
1000
,  // measure 58
0001
0010
0100
1000
,  // measure 59
0001
0100
1000
0100
,  // measure 60
0220
0000
0000
0330
,  // measure 61
1001
0001
1000
0001
,  // measure 62
1000
0100
0010
0100
,  // measure 63
0010
0001
1000
0001
,  // measure 64
0100
0010
2000
3000
,  // measure 65
0001
1000
0001
0010
,  // measure 66
0100
1000
0001
1000
,  // measure 67
0010
0100
0010
1000
,  // measure 68
0001
1000
0002
2000
,  // measure 69
3003
0110
0100
0001
,  // measure 70
1000
0100
0010
0100
,  // measure 71
1000
0001
0010
0100
,  // measure 72
1000
0010
2000
3000
,  // measure 73
1001
0001
0100
0100
,  // measure 74
0010
0010
1000
1000
,  // measure 75
2002
0000
3003
0000
,  // measure 76
0120
0000
0200
0330
,  // measure 77
1001
0000
0000
0000
;

//---------------dance-single - ----------------
#NOTES:
     dance-single:
     :
     Beginner:
     2:
     0.157,0.187,0.123,0.000,0.000: // measure 1
1000
0000
0000
0000
,  // measure 2
0001
0000
0000
0000
,  // measure 3
0010
0000
0100
0000
,  // measure 4
0110
0000
0000
0000
,  // measure 5
1001
0000
0001
0000
,  // measure 6
0100
0000
0100
0000
,  // measure 7
0010
0000
0010
0000
,  // measure 8
1000
0000
1000
0000
,  // measure 9
0001
0000
1000
0000
,  // measure 10
0100
0000
0010
0000
,  // measure 11
0100
0000
1000
0000
,  // measure 12
0001
0000
0000
0000
,  // measure 13
1001
0000
1000
0000
,  // measure 14
0100
0000
0100
0000
,  // measure 15
0010
0000
0010
0000
,  // measure 16
0001
0000
0001
0000
,  // measure 17
1000
0000
0010
0000
,  // measure 18
0100
0000
0001
0000
,  // measure 19
1000
0000
0100
0000
,  // measure 20
0010
0000
0000
0000
,  // measure 21
1001
0000
0000
0000
,  // measure 22
0000
0000
0000
0000
,  // measure 23
1000
0000
0000
0000
,  // measure 24
0010
0000
0000
0000
,  // measure 25
0100
0000
0000
0000
,  // measure 26
0000
0000
0000
0000
,  // measure 27
0001
0000
0000
0000
,  // measure 28
1000
0000
0000
0000
,  // measure 29
1001
0000
0000
0000
,  // measure 30
0001
0000
0000
0000
,  // measure 31
0010
0000
0000
0000
,  // measure 32
0001
0000
0000
0000
,  // measure 33
1000
0000
1000
0000
,  // measure 34
0010
0000
0010
0000
,  // measure 35
0110
0000
0000
0000
,  // measure 36
0000
0000
0000
0000
,  // measure 37
1001
0000
1000
0000
,  // measure 38
0001
0000
0100
0000
,  // measure 39
0010
0000
0100
0000
,  // measure 40
0001
0000
0000
0000
,  // measure 41
0100
0000
0010
0000
,  // measure 42
0100
0000
0001
0000
,  // measure 43
0010
0000
0100
0000
,  // measure 44
1000
0000
0001
0000
,  // measure 45
1001
0000
1000
0000
,  // measure 46
0001
0000
0100
0000
,  // measure 47
1000
0000
0100
0000
,  // measure 48
0010
0000
1000
0000
,  // measure 49
0001
0000
0010
0000
,  // measure 50
0001
0000
0100
0000
,  // measure 51
0110
0000
0000
0000
,  // measure 52
1001
0000
0000
0000
,  // measure 53
0110
0000
0000
0000
,  // measure 54
0100
0000
0000
0000
,  // measure 55
0001
0000
0000
0000
,  // measure 56
1000
0000
0000
0000
,  // measure 57
1001
0000
0001
0000
,  // measure 58
0001
0000
0100
0000
,  // measure 59
0100
0000
0010
0000
,  // measure 60
0110
0000
0000
0000
,  // measure 61
1001
0000
0001
0000
,  // measure 62
1000
0000
0100
0000
,  // measure 63
0001
0000
0100
0000
,  // measure 64
1000
0000
0001
0000
,  // measure 65
1000
0000
0010
0000
,  // measure 66
0001
0000
0010
0000
,  // measure 67
1000
0000
0001
0000
,  // measure 68
1000
0000
0001
0000
,  // measure 69
0000
0000
0001
0000
,  // measure 70
1000
0000
0100
0000
,  // measure 71
0010
0000
0100
0000
,  // measure 72
1000
0000
0001
0000
,  // measure 73
1000
0000
0000
0000
,  // measure 74
0001
0000
0000
0000
,  // measure 75
0100
0000
0000
0000
,  // measure 76
0010
0000
0100
0000
,  // measure 77
0110
0000
0000
0000
;
