#TITLE:Bicycle Race;
#SUBTITLE:(PLUS-TECH SQUEEZE BOX remix);
#ARTIST:Naivepop or Petitfool;
#TITLETRANSLIT:;
#SUBTITLETRANSLIT:;
#ARTISTTRANSLIT:;
#CREDIT:;
#BANNER:Bicycle Race (PLUS-TECH SQUEEZE BOX remix).png;
#BACKGROUND:Bicycle Race (PLUS-TECH SQUEEZE BOX remix)-bg.png;
#LYRICSPATH:;
#CDTITLE:;
#MUSIC:Bicycle Race (PLUS-TECH SQUEEZE BOX remix).mp3;
#OFFSET:-5.030;
#SAMPLESTART:45.030;
#SAMPLELENGTH:10.000;
#SELECTABLE:YES;
#BPMS:0.000=240.000,144.000=120.000,152.000=240.000,256.000=120.000,288.000=240.000;
#STOPS:;
#BGCHANGES:;

//---------------dance-single - ----------------
#NOTES:
     dance-single:
     :
     Hard:
     9:
     0.771,1.000,0.560,0.140,0.093: // measure 1
1000
0000
0001
0000
0100
0010
0100
0001
,  // measure 2
1000
0000
0000
0100
0000
0000
0010
0000
,  // measure 3
0001
0000
0100
0000
0010
0100
0001
1000
,  // measure 4
0100
0000
0010
0001
0000
0001
1000
0000
,  // measure 5
0220
0000
0000
0000
,  // measure 6
0000
0000
0000
0330
,  // measure 7
0010
0000
1000
0100
0000
0011
0000
1100
,  // measure 8
0000
1010
0000
0010
0100
0001
0010
0100
,  // measure 9
0010
0000
0001
1000
0001
0000
1000
0010
,  // measure 10
1000
0010
0100
0001
,  // measure 11
0010
0000
0100
0010
0001
1000
0000
1010
,  // measure 12
0000
0010
0100
0001
2000
0000
3001
0000
,  // measure 13
0101
0000
0001
0000
1000
0100
1000
0000
,  // measure 14
0001
0010
0000
0100
0000
0010
0001
0001
,  // measure 15
1000
0000
0010
0000
0100
0010
0100
0000
,  // measure 16
0001
0010
0000
0001
0000
1000
0100
1000
,  // measure 17
0001
0010
0001
0010
0100
1000
0100
1000
,  // measure 18
0010
1000
0010
1000
0001
0100
0001
0100
,  // measure 19
0010
1000
0100
0010
0001
0100
0010
1000
,  // measure 20
1100
0011
1001
0110
,  // measure 21
1001
0000
0001
0000
1000
0100
0001
0000
,  // measure 22
0100
0000
1000
0000
0001
0010
1000
0000
,  // measure 23
0010
0000
0100
0000
0010
0001
0100
0000
,  // measure 24
0001
0000
1000
0000
0010
1000
0100
0010
,  // measure 25
0001
0000
0100
0000
0010
0100
0001
0000
,  // measure 26
1000
0000
0100
0000
0010
0100
0010
0010
,  // measure 27
0001
0000
0100
0000
0010
1000
0010
0000
,  // measure 28
0100
0001
0010
0100
0010
0001
1000
1000
,  // measure 29
0002
0010
1000
0100
,  // measure 30
1003
0000
0100
0010
0000
0010
0100
0000
,  // measure 31
0020
0001
0100
1000
,  // measure 32
0031
0000
1000
0010
0000
0010
1000
0000
,  // measure 33
0020
0001
1000
0001
,  // measure 34
0130
0000
0001
1000
0000
1000
0100
0000
,  // measure 35
0011
1100
1010
0101
,  // measure 36
0001
1000
0001
1000
0010
0000
0110
0000
,  // measure 37
1001
0000
0001
0000
1000
0010
0000
0100
0000
0001
0000
0010
0001
0000
1000
0000
,  // measure 38
0100
0010
0100
1000
0000
0001
0100
1000
0000
0100
0001
0010
0001
1000
0010
1000
,  // measure 39
0001
0100
0001
0100
0001
0100
0001
0100
,  // measure 40
0001
0000
1000
0100
0000
0100
1000
0000
,  // measure 41
0010
0100
0010
0100
0001
0100
0001
0100
,  // measure 42
0001
0000
1000
0100
0000
0100
0010
0000
,  // measure 43
0001
0010
0001
0010
0100
1000
0100
1000
,  // measure 44
0010
1000
0010
1000
0001
0100
0010
1000
,  // measure 45
2002
0000
0000
0000
,  // measure 46
0000
0000
3003
0000
0100
0010
0100
0020
,  // measure 47
0200
0000
0000
0000
,  // measure 48
0000
0000
0330
0000
0100
0002
0000
0000
,  // measure 49
1003
0100
0001
0010
,  // measure 50
1000
0000
0001
0100
0000
0100
0001
1000
,  // measure 51
0100
0000
0010
0001
0000
0001
1000
0000
,  // measure 52
0001
0100
0001
0000
1000
0100
1000
0001
,  // measure 53
0100
0010
0001
0010
,  // measure 54
1000
0000
0100
0001
0000
0001
0100
1000
,  // measure 55
0010
0000
0100
0001
0000
0001
0010
0001
,  // measure 56
1100
1010
0101
1001
,  // measure 57
1000
0000
0001
0100
1000
0000
0100
0000
,  // measure 58
0001
1000
0100
0010
,  // measure 59
0001
0100
1000
0100
0001
0000
1000
0000
,  // measure 60
0010
0000
0000
0100
0000
0000
0001
1000
0001
1000
0000
0000
,  // measure 61
1000
0000
0100
0010
0100
0010
0001
0000
,  // measure 62
0100
0000
0010
1000
0010
1000
0100
0000
,  // measure 63
0110
0110
1001
1001
,  // measure 64
1000
0100
0010
0001
1000
0100
0010
0001
,  // measure 65
1001
0101
0011
1100
,  // measure 66
1001
0000
0101
0000
0001
1000
0100
0010
,  // measure 67
0110
0000
0011
0000
1100
0000
1010
0010
,  // measure 68
0110
0000
0101
0000
0011
0001
1000
0010
,  // measure 69
0110
0000
0000
0000
1010
0000
0000
0000
0001
0100
0000
0001
0000
0000
1000
0000
,  // measure 70
1100
0000
0000
0000
0011
0000
0000
0000
1000
0100
0000
0010
0000
0000
0001
0000
,  // measure 71
1001
0000
1000
0000
1010
0000
0000
0000
0001
0100
0000
0001
0000
0000
1000
0000
,  // measure 72
1100
0110
0011
0110
1001
0001
0100
0010
,  // measure 73
1000
0010
1000
0010
0100
0001
0100
0001
,  // measure 74
0010
0100
0010
0002
0000
0000
1003
0000
,  // measure 75
1000
0010
0100
0010
0000
0100
0010
0100
,  // measure 76
0101
1001
1100
0011
,  // measure 77
0001
1000
0001
1000
0100
0010
0001
0100
,  // measure 78
0010
1000
0001
0200
0000
0000
0301
0000
,  // measure 79
1000
0100
0010
0001
0100
0010
0100
0001
,  // measure 80
1010
0101
0011
1100
,  // measure 81
1000
0100
0010
0100
1000
0100
0010
0100
,  // measure 82
1000
0010
0100
0010
1000
0010
0100
0010
,  // measure 83
1000
0001
0010
0001
1000
0001
0010
0001
,  // measure 84
0100
0010
0010
1000
0100
0100
0010
0001
,  // measure 85
1000
0100
0010
0001
0010
0100
0010
0001
,  // measure 86
0100
0010
1000
0001
0100
0010
0100
1000
,  // measure 87
0100
0001
1000
0100
0010
0001
1000
0100
,  // measure 88
0001
0000
0101
0000
0100
0010
0000
0022
,  // measure 89
0000
0000
0000
0000
,  // measure 90
0033
0000
0000
0000
;

//---------------dance-single - ----------------
#NOTES:
     dance-single:
     :
     Medium:
     7:
     0.460,0.624,0.140,0.112,0.000:
1000
0010
0100
0001
,
1000
0000
0000
1000
0000
0000
1000
0000
,
0001
0010
0100
1000
,
0001
0000
0000
0001
0000
0000
0001
0000
,
2002
0000
0000
0000
,
0000
0000
0000
3003
,
1000
0100
0010
0001
,
1000
0010
1000
0010
,
0100
0000
0001
0010
,
0100
0000
0010
0001
,
0100
0010
0100
0001
,
1000
0100
1000
0100
1000
0000
0000
0000
,
0001
0010
0100
1000
,
0001
0100
0001
0000
,
1000
0010
0100
0001
,
0010
0001
0010
0000
,
0001
1000
0001
0100
,
0010
0100
1000
0100
,
0001
0010
0100
0010
,
0001
1000
0001
0100
,
0110
0000
0010
1000
,
0100
0000
0010
0000
0100
0000
0010
0001
,
0010
0000
0001
1000
,
0010
0100
0001
0100
,
0010
0000
0100
0010
,
1000
0000
0100
0000
0010
0000
0100
0010
,
0100
0000
1000
0001
,
0100
0000
0001
1000
0000
0000
1000
0100
,
0010
0001
1000
0100
,
0010
0000
0000
0001
0000
0000
0100
0000
,
0010
1000
0001
0100
,
0010
0000
0000
0100
0000
0000
0010
0000
,
1000
0100
0001
0100
,
1000
0000
0000
0001
0000
0000
1000
0000
,
0010
0100
0001
0100
,
0010
0000
0100
0001
,
1001
0000
1000
0000
0010
0100
0010
0000
,
0100
0001
0100
0001
0010
0100
0010
0001
,
1000
0000
0001
0100
,
0010
1000
0100
0000
,
0010
0000
0100
0010
,
0001
0100
0010
0100
,
0001
0000
1000
0010
,
0100
0001
0010
0000
,
0220
0000
0000
0000
,
0330
0000
0000
0000
,
2002
0000
0000
0000
,
3003
0000
0000
0000
,
1000
0100
0010
0001
,
0100
1000
0100
0001
,
2000
0000
0010
0000
,
0001
0000
0100
0000
,
3001
1000
0001
0010
,
0100
1000
0010
0100
,
0020
0000
0001
0000
,
1000
0000
0031
0000
,
1000
0100
0010
0100
,
0010
0001
1001
0000
,
1000
0100
0010
0001
,
0100
0100
0110
0000
,
0010
1000
0100
0010
,
0100
0010
0011
0000
,
0001
1000
0010
0001
,
0010
1000
0001
0100
,
0101
0000
0001
0000
1000
0000
0010
0001
,
0200
0000
0010
0000
1000
0000
0310
0100
,
0101
0000
0001
0000
1000
0000
0100
0010
,
0002
0000
0100
0000
1000
0000
0013
0001
,
0101
0000
0100
0000
1010
0000
0100
0001
,
1001
0000
0100
0000
1001
0000
0100
0001
,
1000
0000
0100
0000
0010
0001
0010
0000
,
0001
0100
0001
0100
0001
0000
1000
0100
,
1000
0001
0100
0010
,
0100
0000
0000
0010
0000
0000
0100
0000
,
0001
1000
0100
0010
,
0001
0000
0000
1000
0000
0000
0001
0000
,
0010
0100
0010
0001
,
1000
0000
0000
0010
0000
0000
0100
0000
,
0001
0010
0100
0010
,
0001
0100
0010
1000
,
0001
0010
0001
0100
,
0001
1000
0001
0010
,
0001
0100
0010
0100
,
1000
0100
0010
0100
,
0010
1000
0100
0010
,
0001
0100
1000
0100
,
0001
0010
0001
1000
,
0100
0000
0010
0000
0100
1000
2002
0000
,
0000
0000
0000
0000
,
3003
0000
0000
0000
;

//---------------dance-single - ----------------
#NOTES:
     dance-single:
     :
     Easy:
     6:
     0.316,0.374,0.075,0.065,0.000:
1000
0000
0001
0100
,
0001
0000
1000
0000
,
0100
0000
0010
0100
,
0010
0001
1000
0001
,
0100
0000
0000
0000
,
0000
0000
0000
0000
,
0110
0000
0100
0000
,
0001
0000
1000
0100
,
1000
0000
0001
0000
,
0010
0000
0100
0000
,
0010
0000
0001
0000
,
0100
0000
0000
0000
,
0010
0000
1000
0000
,
0001
0000
1000
0100
,
1000
0000
0001
0000
,
0010
0000
0100
0010
,
0100
0000
0010
0000
,
0001
0000
1000
0000
,
0010
1000
0001
0100
,
0001
0010
0100
0000
,
0110
0000
0010
0001
,
1000
0000
1000
0001
,
0100
0000
0010
0000
,
0100
0000
0001
0000
,
1000
0000
0100
0010
,
0100
0000
0010
0001
,
0010
0000
0001
0000
,
1000
0000
0010
0000
,
0100
0010
0100
0000
,
0001
0100
0001
0000
,
1000
0000
0100
0000
,
0010
0100
0010
0000
,
0100
0000
0010
0000
,
0001
1000
0001
0000
,
1000
0010
1000
0001
,
0100
0000
0001
1000
,
0001
1000
0100
0010
,
0100
0010
0001
1000
,
0001
0000
0001
0000
,
0100
0001
0100
0000
,
0010
0000
0010
0000
,
0100
0010
0100
0000
,
0010
0000
1000
0000
,
0001
0100
0001
0000
,
2002
0000
0000
0000
,
3003
0000
0000
0000
,
0220
0000
0000
0000
,
0330
0000
0000
0000
,
0001
0000
0100
0000
,
0001
0000
1000
0100
,
1000
0000
0100
0000
,
0010
0000
0100
0000
,
0010
0000
0001
0000
,
1000
0000
0010
1000
,
0010
0000
0100
0000
,
0001
0000
1000
0000
,
0001
0100
0001
0000
,
1000
0100
1000
0000
,
0001
0000
0010
0000
,
0100
0010
0001
0000
,
1000
0010
0100
0000
,
0010
0100
0001
0000
,
1000
0000
0001
0000
,
2002
0000
0000
3003
,
1001
0000
0001
0100
,
0010
1000
0001
0000
,
1001
0000
1000
0100
,
0010
0001
0100
0000
,
0110
0000
0010
0000
,
1000
0001
1000
0000
,
0001
0000
1000
0000
,
0100
0010
0100
0010
,
0001
0000
1000
0001
,
1000
0000
0010
0000
,
0100
0000
0010
0100
,
0010
0000
0100
0001
,
0100
0000
0001
1000
,
0001
0000
1000
0000
,
0100
0000
0010
0100
,
0010
0000
0001
0000
,
1000
0000
0010
1000
,
0010
0100
0001
0000
,
0010
0000
0001
0010
,
0001
1000
0100
0000
,
0010
0000
0100
0010
,
0100
0010
0001
0000
,
1000
0001
1000
0001
,
0100
0010
0100
0002
,
0000
0000
0000
0000
,
0003
0000
0000
0000
;

//---------------dance-single - ----------------
#NOTES:
     dance-single:
     :
     Beginner:
     3:
     0.164,0.247,0.047,0.000,0.000:
1000
0000
0000
0000
,
0001
0000
0100
0000
,
0001
0000
0000
0000
,
1000
0000
0100
0000
,
1000
0000
0000
0000
,
0000
0000
0000
0000
,
0010
0000
0000
0000
,
0100
0000
0000
0000
,
0001
0000
0000
0000
,
0000
0000
0000
0000
,
1000
0000
0000
0000
,
0100
0000
0000
0000
,
1000
0000
0000
0000
,
0001
0000
0000
0000
,
0100
0000
0000
0000
,
0010
0000
0000
0000
,
0100
0000
0010
0000
,
0100
0000
0001
0000
,
1000
0000
0001
0000
,
1000
0000
0000
0000
,
0001
0000
0000
0000
,
0100
0000
0001
0000
,
0100
0000
0000
0000
,
0001
0000
0000
0000
,
1000
0000
0000
0000
,
0100
0000
1000
0000
,
0100
0000
0000
0000
,
0010
0000
0000
0000
,
0100
0000
0100
0000
,
0010
0000
0000
0000
,
0001
0000
0001
0000
,
0010
0000
0000
0000
,
0001
0000
0000
0000
,
1000
0000
0000
0000
,
0010
0000
1000
0000
,
0010
0000
1000
0000
,
0001
0000
0000
0000
,
0000
0000
0000
0000
,
1000
0000
0000
0000
,
0100
0000
0000
0000
,
0010
0000
0000
0000
,
0001
0000
0000
0000
,
0100
0000
0010
0000
,
0100
0000
0010
0000
,
0110
0000
0000
0000
,
0000
0000
0000
0000
,
1001
0000
0000
0000
,
0000
0000
0000
0000
,
0110
0000
0000
0000
,
0100
0000
0100
0000
,
0010
0000
0000
0000
,
1000
0000
0000
0000
,
0001
0000
0000
0000
,
1000
0000
1000
0000
,
0100
0000
0000
0000
,
0010
0000
0000
0000
,
0001
0000
0010
0000
,
0001
0000
0000
0000
,
1000
0000
0100
0000
,
1000
0000
0000
0000
,
0001
0000
0100
0000
,
0001
0000
1000
0000
,
0010
0000
0000
0000
,
0100
0000
0000
0000
,
1001
0000
1000
0000
,
0010
0000
0100
0000
,
0010
0000
0100
0000
,
0110
0000
0000
0000
,
0100
0000
0001
0000
,
1000
0000
0100
0000
,
1000
0000
0100
0000
,
0010
0000
0001
0000
,
1000
0000
0000
0000
,
0001
0000
0000
0000
,
0100
0000
0000
0000
,
0010
0000
0100
0000
,
0001
0000
0000
0000
,
1000
0000
0000
0000
,
0001
0000
0000
0000
,
1000
0000
0100
0000
,
1000
0000
0000
0000
,
0001
0000
0010
0000
,
0001
0000
0000
0000
,
0100
0000
0010
0000
,
0100
0000
0001
0000
,
0100
0000
0001
0000
,
1000
0000
0010
0000
,
1000
0000
0001
0000
,
1000
0000
0000
0000
;
