#TITLE:Beach-Side-Bunny;
#SUBTITLE:;
#ARTIST:DJ Mass MAD Izm*;
#TITLETRANSLIT:;
#SUBTITLETRANSLIT:;
#ARTISTTRANSLIT:;
#CREDIT:;
#BANNER:Beach-side-bunny.png;
#BACKGROUND:Beach-side-bunny-bg.png;
#LYRICSPATH:;
#CDTITLE:;
#MUSIC:Beach-side-bunny.mp3;
#OFFSET:-6.300;
#SAMPLESTART:37.670;
#SAMPLELENGTH:12.540;
#SELECTABLE:YES;
#BPMS:0.000=153.000;
#STOPS:;
#BGCHANGES:;

//---------------dance-single - ----------------
#NOTES:
     dance-single:
     :
     Hard:
     9:
     0.633,0.617,0.353,0.129,0.366: // measure 1
1001
0000
0000
1000
0100
0000
0000
0100
,  // measure 2
0010
0000
0000
0010
0001
0000
0000
0001
,  // measure 3
0100
0000
0000
0100
1000
0000
0000
1000
,  // measure 4
0100
0000
0000
0100
0002
0000
0003
0000
,  // measure 5
1001
0000
0000
0000
1001
0000
0000
0000
0001
0000
0000
1000
0000
0000
0100
0000
,  // measure 6
0010
0000
0000
0000
0001
0000
0000
0000
1000
0000
0000
0010
0000
0000
1000
0000
,  // measure 7
0001
0000
0000
0000
0010
0000
0000
0000
0100
0000
0000
0010
0000
0000
0100
0000
,  // measure 8
1000
0000
0000
0000
0010
0000
0000
0000
1000
0000
0000
0001
0000
0000
1000
0000
,  // measure 9
0001
0000
0100
0000
1000
0000
0000
0000
0100
0000
0000
0001
0000
0000
1000
0000
,  // measure 10
0001
0000
0010
0000
1000
0000
0000
0000
0010
0000
0000
0001
0000
0000
1000
0000
,  // measure 11
0001
0100
0001
0100
0000
0000
0010
1000
0010
1000
0000
0000
,  // measure 12
0001
1000
0001
1000
0100
0010
0100
0010
0001
1000
0000
0000
,  // measure 13
1001
0000
0000
0000
1001
0000
0000
0000
1002
0000
0000
1000
0000
0000
1003
0000
,  // measure 14
0101
0000
0000
0000
0101
0000
0000
0000
0102
0000
0000
0100
0000
0000
0103
0000
,  // measure 15
0110
0000
0000
0000
0110
0000
0000
0000
0210
0000
0000
0010
0000
0000
0310
0000
,  // measure 16
1010
0000
0000
0000
1001
0000
0001
0000
0021
0000
0000
0001
0000
0000
0031
0000
,  // measure 17
0010
0000
0001
0000
1000
0000
0001
0000
0100
0000
0000
0100
0000
0000
0100
0000
,  // measure 18
0010
0000
0100
0000
0001
0000
1000
0000
0100
0000
0000
0100
0000
0000
0100
0000
,  // measure 19
0010
0000
0001
0000
1000
0000
0010
0000
1000
0000
0000
1000
0000
0000
1000
0000
,  // measure 20
0010
0000
0100
0000
0001
0000
0010
0000
0001
0000
0000
0001
0000
0000
0001
0000
,  // measure 21
1000
0000
0010
0000
0000
0100
0000
0000
0010
0000
0000
0100
0000
0000
0001
0000
,  // measure 22
1000
0000
0001
0000
0000
0100
0000
0000
0001
0000
0000
0100
0000
0000
0001
0000
,  // measure 23
1000
0000
0100
0000
0000
0010
0000
0000
0100
0000
0000
1000
0000
0000
0001
0000
,  // measure 24
1000
0000
0010
0000
0000
0001
0000
0000
0010
0000
0000
1000
0000
0000
0100
0000
,  // measure 25
0010
0000
0001
0000
0100
0000
1000
0000
0100
0000
0000
0001
0000
0000
1000
0000
,  // measure 26
0100
0000
0001
0000
0100
0000
1000
0000
0010
0000
0000
0100
0000
0000
0001
0000
,  // measure 27
0010
0000
1000
0000
0010
0000
0001
0000
0100
0000
0000
0010
0000
0000
1000
0000
,  // measure 28
0001
0010
0100
1000
1100
0000
1001
0000
,  // measure 29
0001
0100
0010
0100
0001
1000
1100
0000
,  // measure 30
0010
0001
0100
1000
0100
0001
0011
0000
,  // measure 31
0001
0100
0010
1010
1000
0100
0110
0000
,  // measure 32
0010
0001
1000
0001
0100
0010
0110
0000
,  // measure 33
0100
0100
0001
1000
0100
0010
0011
0000
,  // measure 34
0001
1000
0001
0000
1000
0000
0010
0000
0100
0000
0001
0000
0011
0000
0000
0000
,  // measure 35
0001
0100
1000
0100
0001
1000
1001
0000
,  // measure 36
1000
0000
0001
0000
1000
0000
0001
0000
0100
0010
0100
0010
0200
0000
0000
0000
,  // measure 37
0010
0000
0000
0000
0010
0000
0000
0000
0010
0000
0000
0010
0000
0000
0320
0000
,  // measure 38
1000
0000
0000
0000
1000
0000
0000
0000
1000
0000
0000
1000
0000
0000
2030
0000
,  // measure 39
0001
0000
0000
0000
0001
0000
0000
0000
0001
0000
0000
0001
0000
0000
3002
0000
,  // measure 40
0100
0000
0000
0000
0100
0000
0100
0000
0100
0000
0000
0100
0000
0000
0203
0000
,  // measure 41
0001
0000
0001
0000
0001
0000
0001
0000
0301
0000
0000
0100
0000
0000
0001
0000
,  // measure 42
0101
0000
0000
0000
0101
0000
0000
0000
0001
0000
0000
1000
0000
0000
0001
0000
,  // measure 43
1000
0000
0100
0000
1000
0000
0100
0000
1000
0000
0000
0001
0000
0000
0100
0000
,  // measure 44
0010
0000
1000
0000
0100
0000
0010
0000
0100
0010
0100
0010
0001
0000
0000
0000
,  // measure 45
0001
0100
0001
0100
0010
1000
0010
1000
,  // measure 46
0100
0010
0100
0010
0001
1000
0001
1000
,  // measure 47
0010
0100
0001
1000
0010
0100
0001
0010
,  // measure 48
0001
0010
0100
1000
0001
0010
0001
0100
,  // measure 49
0001
0100
1000
0100
0001
0010
1000
0010
,  // measure 50
0001
0100
0010
1000
0100
0001
0100
1000
,  // measure 51
0001
0010
0100
0010
0001
0010
1000
0010
,  // measure 52
0001
0000
0100
0000
1000
0000
0100
0000
0010
0100
0010
0100
0010
0000
0000
0000
,  // measure 53
1001
0000
0000
0000
0101
0000
0000
0000
0001
0000
1000
0100
0000
0100
1000
0000
,  // measure 54
1100
0000
0000
0000
1001
0000
0000
0000
0001
0000
0100
0001
0000
0001
0100
0000
,  // measure 55
0110
0000
0000
0000
1001
0000
0000
0000
0001
0000
0010
0100
0000
0100
0010
0000
,  // measure 56
0011
0000
0000
0000
1001
0000
1000
0000
0010
0000
0100
0001
0000
0001
1000
0000
,  // measure 57
1100
0000
0000
0000
0010
0000
0001
0000
0100
0000
0010
0100
0000
0100
0010
0000
,  // measure 58
1001
0000
0000
0000
0001
0000
0100
0000
0010
0000
1000
0001
0000
0001
1000
0000
,  // measure 59
1001
0000
0000
0000
0001
0000
0010
0000
0100
0000
0010
0001
0000
0001
1000
0000
,  // measure 60
0101
0000
0000
0000
0001
0000
1000
0000
1010
0000
0000
0010
0100
0000
0000
0000
,  // measure 61
0110
0000
0100
0000
0001
0000
0010
0000
0100
0000
0010
0001
0000
0010
0000
0001
,  // measure 62
0010
0000
0001
0000
0100
0000
0010
0000
1000
0000
0010
0100
0000
0001
0000
0100
,  // measure 63
0010
0000
1000
0000
0100
0000
0010
0000
0100
0000
1000
0100
0000
0010
0000
0100
,  // measure 64
1000
0000
0001
0000
0100
0000
1000
0000
0100
0000
0001
1000
0000
0100
0000
0010
,  // measure 65
0200
0000
0000
0000
0001
0000
0000
0000
1300
0000
0000
1000
0000
1000
0000
1000
,  // measure 66
0002
0000
0000
0000
0010
0000
0000
0000
0103
0000
0000
0100
0000
0000
0100
0000
,  // measure 67
0020
0000
0000
0000
0001
0000
0000
0000
0130
0000
0000
1000
0000
1000
0001
1000
,  // measure 68
0001
0000
1000
0000
0100
0000
0010
0000
0001
1000
0002
2000
0000
0000
0000
0000
,  // measure 69
0000
3003
0000
0000
;

//---------------dance-single - ----------------
#NOTES:
     dance-single:
     :
     Medium:
     6:
     0.490,0.470,0.525,0.155,0.004:
1001
0000
0000
0001
0001
0000
0000
1000
,
1000
0000
0000
0010
0010
0000
0000
0100
,
0100
0000
0000
0010
0010
0000
0000
1000
,
1000
0001
2002
3003
,
0001
0100
0110
0101
,
0001
0010
0110
0011
,
0001
1000
1010
1100
,
0010
0100
0110
1100
,
1000
0001
0100
0000
0001
0000
0010
0000
,
0100
0010
0001
0000
1000
0000
0010
0000
,
1000
0010
1000
0000
0001
0100
0001
0000
,
0101
1010
2002
3003
,
1001
1001
1001
1001
,
1000
0100
0001
0100
,
0110
0110
0110
0110
,
0010
0001
0100
1000
,
1100
1100
1100
1100
,
0100
0001
1000
0100
,
0011
0011
0011
0011
,
0001
0100
0010
1001
,
1000
0100
1000
0000
0001
0100
0001
0000
,
1000
0100
0110
1001
,
0001
0100
1000
0000
1000
0100
0001
0000
,
1000
0001
1001
0110
,
0010
1000
0100
0000
0010
0001
0100
0000
,
0001
0100
1010
0101
,
0001
1000
0100
0000
0010
0100
1000
0000
,
0001
1000
2200
3300
,
0010
0000
0001
0000
0100
0100
0100
0000
,
0010
1000
0010
0000
1000
0001
1000
0000
,
0001
0000
0010
0000
0100
0100
0100
0000
,
0010
0001
0010
0000
0001
1000
0001
0000
,
1000
0000
0010
0000
0100
0100
0100
0000
,
0001
1000
0001
1000
0100
0000
0010
0000
,
0100
0000
1000
0000
0001
0001
0001
0000
,
1000
0100
0010
0100
2000
0000
3001
0000
,
0102
0100
0100
0100
,
0203
0010
0010
0010
,
0320
1000
1000
1000
,
2030
0001
0001
3002
,
1003
0001
1000
0001
1000
0000
0001
0000
,
0100
0010
0110
1010
,
1000
0000
0100
0010
0100
0000
0010
0000
,
0001
0000
1000
0001
2000
0000
3000
0000
,
0001
0010
0001
0000
1000
0100
1000
0000
,
0010
1000
0010
0000
0100
0001
0100
0000
,
0001
1000
0001
0000
0100
0010
0100
0000
,
0010
1000
0100
0000
0010
0001
0100
0000
,
0001
0000
1000
0000
0100
0010
0100
1000
,
0100
0000
0010
0000
0001
0010
0001
0100
,
0001
0000
1000
0000
0010
0100
0010
1000
,
0010
0000
1000
0000
0001
1000
0001
0000
,
1001
1001
0001
0100
,
0110
0110
0010
1000
,
1010
1010
0010
0100
,
0110
0110
0010
1000
,
1100
0000
1001
0000
0001
0100
0001
0000
,
0011
0000
0110
0000
0100
1000
0001
0000
,
1001
0000
0101
0000
0100
0010
1000
0000
,
1100
0000
0011
0000
0001
1000
0100
0000
,
0010
0100
1000
0000
0100
0000
0110
0000
,
0010
0001
0100
0000
0010
0000
1001
0000
,
0100
0001
0010
0000
0100
0000
1100
0000
,
1000
0001
0100
0000
0010
0000
0110
0000
,
0200
0010
0001
0010
,
0302
0010
1000
0100
,
2003
0010
0001
0010
,
3100
0000
0000
0000
1000
0000
0000
0000
0001
0000
0000
2002
0000
0000
0000
0000
,
0000
3003
0000
0000
;

//---------------dance-single - ----------------
#NOTES:
     dance-single:
     :
     Easy:
     3:
     0.260,0.291,0.069,0.129,0.000:
1000
0000
0001
0000
,
0100
0000
1000
0000
,
0100
0000
0001
0000
,
1000
0001
1001
0000
,
1000
0100
1000
0000
,
0001
0100
0001
0000
,
1000
0001
1000
0000
,
0001
1000
0001
0000
,
1000
0100
0010
0100
,
1000
0001
1000
0001
,
0100
0000
0010
0000
,
1000
0001
2002
3003
,
1001
0000
0001
0000
,
0100
0001
0100
0010
,
0100
0000
0010
0000
,
0100
0010
1000
0010
,
1000
0000
0001
0000
,
1000
0100
0010
0001
,
1000
0000
0001
0000
,
0100
0001
0100
0000
,
0110
0000
0010
0000
,
0100
0010
1000
0000
,
0001
0000
1000
0000
,
0001
0010
0100
0000
,
0010
0000
0001
0000
,
1000
0001
0100
0000
,
0010
0000
0100
0000
,
0010
1000
0001
1000
,
0100
0000
0010
0000
,
0100
0000
1000
0000
,
0001
0000
0100
0000
,
1000
0000
0100
0000
,
0001
0100
0001
0000
,
1000
0100
1000
0000
,
0001
0010
0001
0000
,
0010
0100
0020
0030
,
1001
0000
0001
0000
,
0001
1000
0001
1000
,
0100
0000
0100
0000
,
0010
0100
0010
0100
,
1000
0000
1000
0000
,
0001
1000
0001
1000
,
0010
0000
0010
0000
,
0100
0001
2002
3003
,
1000
0000
0001
0100
,
0001
0100
0010
1000
,
0010
0000
0100
0001
,
0100
0001
0010
0001
,
0010
0000
0100
1000
,
0100
1000
0001
1000
,
0001
0000
0100
0010
,
0100
0001
2000
3000
,
1001
0000
0001
0100
,
0001
0000
1000
0000
,
0100
0000
0010
0100
,
0010
0000
0001
1000
,
0001
0000
0100
0010
,
0100
0000
0010
0000
,
1000
0000
0010
1000
,
0010
0100
0002
0003
,
1001
0000
1000
0000
,
0001
0000
0100
0010
,
0100
0000
0010
0000
,
1000
0000
0001
1000
,
0002
0000
2003
0000
,
3200
0000
0320
0000
,
0230
0000
2300
0000
,
3002
0000
0000
0000
0000
0000
0000
0000
0203
0000
0000
0300
0000
0000
0000
0000
;

//---------------dance-single - ----------------
#NOTES:
     dance-single:
     :
     Beginner:
     1:
     0.145,0.174,0.086,0.000,0.000:
1000
0000
0000
0000
,
0001
0000
0000
0000
,
1000
0000
0000
0000
,
0010
0000
0000
0000
,
0110
0000
0100
0000
,
0010
0000
0000
0000
,
0100
0000
0001
0000
,
1000
0000
0000
0000
,
0001
0000
0010
0000
,
0001
0000
1000
0000
,
0010
0000
0100
0000
,
0010
0000
0000
0000
,
1001
0000
0000
0000
,
0001
0000
0000
0000
,
1001
0000
0000
0000
,
1000
0000
0000
0000
,
0110
0000
0000
0000
,
0100
0000
0000
0000
,
0110
0000
0000
0000
,
0010
0000
0000
0000
,
0100
0000
0001
0000
,
1000
0000
0100
0000
,
0010
0000
0100
0000
,
1000
0000
0001
0000
,
1000
0000
0001
0000
,
0100
0000
0010
0000
,
0100
0000
0001
0000
,
0010
0000
0100
0000
,
0010
0000
0000
0000
,
0001
0000
1000
0000
,
0001
0000
0000
0000
,
0100
0000
0010
0000
,
0100
0000
0000
0000
,
0010
0000
1000
0000
,
0001
0000
0000
0000
,
1001
0000
0000
0000
,
0110
0000
0000
0000
,
0100
0000
0001
0000
,
1001
0000
0000
0000
,
1000
0000
0001
0000
,
1000
1000
1000
0000
,
0001
0000
0001
0000
,
0001
0000
0100
0000
,
0010
0000
0100
0000
,
0001
0000
1000
0000
,
0001
0000
1000
0000
,
0010
0000
1000
0000
,
0010
0000
1000
0000
,
0100
0000
1000
0000
,
0100
0000
1000
0000
,
0100
0000
0010
0000
,
0100
0000
0010
0000
,
0110
0000
0000
0000
,
0010
0000
0001
0000
,
1000
0000
0001
0000
,
0100
0000
0010
0000
,
0110
0000
0000
0000
,
0100
0000
0010
0000
,
1000
0000
0010
0000
,
1000
0000
0100
0000
,
1000
0000
0000
0000
,
0001
0000
0100
0000
,
0001
0000
0000
0000
,
1000
0000
0001
0000
,
1000
0000
0000
0000
,
0100
0000
0000
0000
,
0010
0000
0000
0000
,
0001
0000
1000
0000
;
