#TITLE:Around The Galaxy;
#SUBTITLE:;
#ARTIST:NISH;
#TITLETRANSLIT:;
#SUBTITLETRANSLIT:;
#ARTISTTRANSLIT:;
#CREDIT:;
#BANNER:;
#BACKGROUND:;
#LYRICSPATH:;
#CDTITLE:;
#MUSIC:Around The Galaxy.mp3;
#OFFSET:-7.910;
#SAMPLESTART:82.370;
#SAMPLELENGTH:13.240;
#SELECTABLE:YES;
#BPMS:0.000=145.000;
#STOPS:140.000=2.483
;
#BGCHANGES:;

//---------------dance-single - ----------------
#NOTES:
     dance-single:
     :
     Hard:
     7:
     0.450,0.515,0.190,0.260,0.078:
1000
0001
0100
1000
,
0100
0001
1000
0100
,
0010
0100
0001
0100
,
0220
0000
0000
0330
,
0010
0000
0001
0000
1000
0000
0000
0001
0000
0000
1000
0000
0100
0000
0000
0000
,
0010
0001
0100
1000
,
0100
0000
0001
0000
0100
0000
0000
1000
0000
0000
0100
0000
0001
0000
0000
0000
,
0010
1000
0010
0001
,
1000
0000
0010
0000
0100
0000
0000
0001
0000
0000
0010
0000
0100
0000
0000
0000
,
1000
0100
0010
0001
,
2002
0000
0000
0000
,
0000
0000
0000
3003
,
0110
0000
0100
0001
0000
0001
0010
0000
,
0100
0000
0010
0100
0000
0100
1000
0000
,
0020
0000
1030
0100
0000
1000
0100
0000
,
0010
0000
0001
0000
0100
0000
0000
0001
0000
0000
0100
0000
0010
0000
1000
0000
,
0200
0000
0310
0100
0000
0100
0010
0000
,
0001
1000
0010
0100
0000
0010
0100
0000
,
0020
0000
1030
0100
0000
0010
0001
0001
,
2000
0000
0000
3001
,
0110
0000
0010
1000
0000
1000
0100
0000
,
0010
0001
1000
0001
0000
1000
0010
0100
,
0001
0000
0010
0001
0000
0001
0100
0000
,
0010
0000
1000
0000
0100
0000
0000
0010
0000
0000
0001
0000
1000
0000
0001
0000
,
1000
0000
0001
0100
0000
0100
1000
0000
,
0100
0001
1000
0100
0000
0001
0100
0010
,
0001
0000
0001
1000
0000
0001
0100
0000
,
1010
0000
0000
0000
0010
0000
0000
0100
0000
0000
0001
0000
1001
0000
0000
0000
,
0220
0300
2000
0030
,
0200
3000
0020
0300
,
0002
0030
2000
0003
,
0002
3000
0200
0003
,
0320
2030
3200
0302
,
0203
2300
3002
0203
,
0301
0100
0010
1000
0100
0001
0100
1000
,
2002
0000
0000
0000
3003
0000
0000
0000
1000
0100
0000
0000
1100
0000
0000
0000
,
0010
0001
0000
0000
0011
0000
0000
0000
0001
0100
0000
0000
0101
0000
0000
0000
,
0010
1000
0000
0000
1010
0000
0000
0000
1000
0000
0001
0000
0100
0000
0000
0000
,
0001
1000
0100
0000
0010
0100
1000
0000
,
0010
0100
0101
0000
1000
0001
0100
0000
,
0010
0100
0001
0010
0100
0010
0001
0000
,
1000
0010
0100
0001
0010
1000
0010
0000
,
0100
0010
0001
1000
1002
0000
0000
0010
,
0000
0000
0103
0000
0110
0000
0010
1000
,
0001
1000
0100
0000
0010
0000
0100
1000
,
0001
1000
0010
0000
0100
0001
0010
0000
,
0100
1000
0001
0000
1000
0001
0010
0100
,
1000
0000
0000
0001
0000
0000
0100
0000
0010
0000
0000
0000
1001
0000
0000
0000
,
0100
0010
1000
0100
0010
0000
0001
1000
,
0000
1000
0001
0100
1000
0100
0001
1000
,
0001
0000
0000
0000
0000
0000
0000
0000
0000
0100
0000
0000
0000
0000
0000
0000
0000
0000
0010
0000
0000
0000
0000
0000
1010
0000
0000
0000
0000
0000
0000
0000
1010
0000
0000
0000
0000
0000
0000
0000
0101
0000
0000
0000
0000
0000
0000
0000
,
0101
0000
0000
0000
2002
0000
0000
0000
3003
0000
0000
0000
1001
0000
0000
0000
0000
0000
1000
0000
0000
0010
0000
0000
,
1000
0001
0010
0100
0010
0000
0100
0010
,
0001
1000
0001
0000
1000
0000
0010
0100
,
0001
1000
0100
0010
0100
0000
1000
0001
,
0100
0000
0000
0001
0000
0000
1000
0000
0010
0000
0100
0000
0010
0000
0100
0000
,
0001
1000
0001
1000
0100
0010
0001
0100
,
0010
1000
0001
0100
1000
0100
0001
1000
,
0100
0001
0100
1000
0001
1000
0001
1000
,
0010
0000
0000
0100
0000
0000
0010
0100
0010
0000
0000
0000
0000
0000
0000
0000
;

//---------------dance-single - ----------------
#NOTES:
     dance-single:
     :
     Medium:
     5:
     0.341,0.361,0.104,0.130,0.035: // measure 1
1000
0100
0001
0100
,  // measure 2
1000
0001
0100
1000
,  // measure 3
0100
0010
0100
0001
,  // measure 4
2002
0000
0000
3003
,  // measure 5
1000
0100
1000
0000
0001
0000
0100
0000
,  // measure 6
0010
0000
1000
0000
0001
1000
0001
0000
,  // measure 7
0100
0010
0100
0000
0001
0000
1000
0000
,  // measure 8
0100
0001
0100
1000
,  // measure 9
0001
1000
0100
0000
0001
0000
1000
0000
,  // measure 10
0001
0100
1000
0100
,  // measure 11
2002
0000
0000
0000
,  // measure 12
0000
0000
0000
3003
,  // measure 13
0001
0000
0000
1000
0000
0000
0100
0000
,  // measure 14
0010
0100
1000
0100
,  // measure 15
0010
0000
0000
0001
0000
0000
0100
0000
,  // measure 16
1000
0100
0001
1000
,  // measure 17
0010
0000
0000
0100
0000
0000
0001
0000
,  // measure 18
1000
0100
0010
0100
,  // measure 19
1000
0000
0000
0001
0000
0000
1000
0000
,  // measure 20
0020
0000
0000
0130
,  // measure 21
0110
0000
0000
0100
0000
0100
0010
0000
,  // measure 22
1000
0001
1000
0100
,  // measure 23
0010
0000
0000
0001
0000
0001
1000
0000
,  // measure 24
0001
0100
1000
0100
,  // measure 25
0001
0000
0000
1000
0000
1000
0010
0000
,  // measure 26
0100
0000
0001
0000
1000
0000
0100
0010
,  // measure 27
0001
0000
0000
1000
0000
1000
0100
0000
,  // measure 28
0001
0000
1000
0001
0000
0000
0110
0000
,  // measure 29
2001
0000
0010
0000
,  // measure 30
0100
0000
0010
0000
,  // measure 31
3002
0000
0010
0000
,  // measure 32
1000
0000
0100
0000
,  // measure 33
0203
0010
0302
0100
,  // measure 34
2003
0010
3002
0013
,  // measure 35
0001
0010
0100
0010
,  // measure 36
2002
0000
3003
0000
0001
0100
0010
0000
,  // measure 37
1000
0100
0010
0000
0100
0000
1000
0000
,  // measure 38
0001
0000
0100
0000
1000
0100
0001
0000
,  // measure 39
0001
0100
1000
0000
0001
0000
1000
0000
,  // measure 40
0100
0000
0010
0000
0001
0010
0100
0000
,  // measure 41
0010
0001
0100
0000
0010
0000
1000
0000
,  // measure 42
0001
0000
0100
0000
0010
1000
0100
0000
,  // measure 43
0010
0100
1000
0000
1002
0000
0000
0010
,  // measure 44
0000
0000
0000
0000
1003
0000
0000
0000
0001
0000
1000
0000
0100
0000
0000
0010
,  // measure 45
0000
0001
0100
0000
0010
0000
1000
0000
,  // measure 46
0100
0000
0000
0000
0010
0000
0000
0000
0100
0000
0010
0000
0001
0000
0000
1000
,  // measure 47
0000
0001
1000
0010
0100
0000
0010
0000
,  // measure 48
0100
0000
0000
0000
0001
0000
0000
0000
1000
0000
0100
0000
0010
0000
0000
0001
,  // measure 49
0000
0010
0100
1000
0001
0000
1000
0000
,  // measure 50
0010
0000
0100
0000
0001
1000
0001
1000
,  // measure 51
0010
0000
0000
0000
0000
0000
0000
0000
0000
0100
0000
0000
0000
0000
0000
0000
0000
0000
0010
0000
0000
0000
0000
0000
0100
0000
0000
0000
0000
0000
0000
0000
0100
0000
0000
0000
0000
0000
0000
0000
0100
0000
0000
0000
0000
0000
0000
0000
,  // measure 52
0100
0000
0200
0000
0300
0000
0110
0000
0000
0010
0000
0000
,  // measure 53
1000
0001
1000
0000
0001
0000
0010
0100
,  // measure 54
0010
0001
1000
0000
0001
0000
1000
0000
,  // measure 55
0010
0100
0001
0000
0010
0000
0100
0010
,  // measure 56
0001
0000
0000
1000
0000
0000
0001
0000
0100
0000
0010
0000
0100
0000
0000
0000
,  // measure 57
0001
1000
0001
0000
1000
0100
0010
0000
,  // measure 58
0010
0100
1000
0000
0010
0100
0010
0100
,  // measure 59
0010
0000
1000
0000
1001
0000
0000
0110
,  // measure 60
0000
1010
0101
0000
;

//---------------dance-single - ----------------
#NOTES:
     dance-single:
     :
     Easy:
     4:
     0.256,0.283,0.104,0.113,0.000: // measure 1
1000
0001
1000
0001
,  // measure 2
0100
0010
0100
0010
,  // measure 3
1000
0001
0100
0001
,  // measure 4
2002
0000
0000
3003
,  // measure 5
1001
0000
0001
0100
,  // measure 6
0010
0100
0001
1000
,  // measure 7
0100
0000
0010
0100
,  // measure 8
1000
0001
1000
0010
,  // measure 9
0100
0000
0010
0100
,  // measure 10
0010
1000
0001
1000
,  // measure 11
0220
0000
0000
0000
,  // measure 12
0000
0000
0000
0330
,  // measure 13
1001
0000
1000
0000
,  // measure 14
0001
1000
0001
0100
,  // measure 15
0010
0000
0100
0000
,  // measure 16
0010
0100
0001
1000
,  // measure 17
0100
0000
0010
0000
,  // measure 18
0100
0010
0001
1000
,  // measure 19
0001
0000
0100
0000
,  // measure 20
0002
0000
0000
1003
,  // measure 21
1001
0000
1000
0000
,  // measure 22
0001
1000
0010
0100
,  // measure 23
0001
0000
1000
0000
,  // measure 24
0100
0010
0100
1000
,  // measure 25
0001
0000
1000
0000
,  // measure 26
0001
0100
0010
0100
,  // measure 27
0001
0000
0010
0000
,  // measure 28
0110
0000
0000
0010
0000
0000
0100
0000
,  // measure 29
2002
0000
0000
0000
,  // measure 30
0000
0000
0000
0000
,  // measure 31
0000
0000
0000
0000
,  // measure 32
0000
0000
0000
3003
,  // measure 33
0001
1000
0001
1000
,  // measure 34
0001
1000
0001
1000
,  // measure 35
0010
0100
0010
0100
,  // measure 36
0220
0330
0010
1000
,  // measure 37
0100
0010
0100
0010
,  // measure 38
0001
0001
0100
1000
,  // measure 39
0100
0001
1000
0100
,  // measure 40
0010
0010
0100
0010
,  // measure 41
0001
0100
0010
1000
,  // measure 42
0001
0001
1000
0010
,  // measure 43
0100
0001
2002
0000
,  // measure 44
0000
3003
1000
0100
,  // measure 45
0010
0100
1000
0001
,  // measure 46
0100
0010
0100
0001
,  // measure 47
1000
0001
0100
0010
,  // measure 48
1000
0100
0010
0010
,  // measure 49
0100
0010
0001
0001
,  // measure 50
1000
0010
0100
0100
,  // measure 51
0010
1000
2002
0000
,  // measure 52
0000
3003
1001
0000
,  // measure 53
0001
0100
0001
1000
,  // measure 54
0010
0100
0010
0000
,  // measure 55
0100
0001
0010
0100
,  // measure 56
0010
0001
1000
0000
,  // measure 57
0001
1000
0100
0010
,  // measure 58
0001
0100
0010
1000
,  // measure 59
0100
0010
0001
1000
,  // measure 60
0001
0100
0110
0000
;

//---------------dance-single - ----------------
#NOTES:
     dance-single:
     :
     Beginner:
     1:
     0.124,0.155,0.121,0.017,0.000: // measure 1
1000
0000
0001
0000
,  // measure 2
1000
0000
0001
0000
,  // measure 3
0100
0000
0010
0000
,  // measure 4
0110
0000
0000
0000
,  // measure 5
0010
0000
1000
0000
,  // measure 6
0100
0000
0010
0000
,  // measure 7
0100
0000
0010
0000
,  // measure 8
0001
0000
0000
0000
,  // measure 9
1000
0000
0001
0000
,  // measure 10
1000
0000
0010
0000
,  // measure 11
0110
0000
0000
0000
,  // measure 12
0000
0000
0000
0000
,  // measure 13
1001
0000
0000
0000
,  // measure 14
0001
0000
1000
0000
,  // measure 15
0100
0000
0000
0000
,  // measure 16
0010
0000
0100
0000
,  // measure 17
0010
0000
0000
0000
,  // measure 18
0001
0000
1000
0000
,  // measure 19
0010
0000
0000
0000
,  // measure 20
0110
0000
0000
0000
,  // measure 21
1001
0000
0000
0000
,  // measure 22
0001
0000
0000
0000
,  // measure 23
0100
0000
0000
0000
,  // measure 24
0010
0000
1000
0000
,  // measure 25
0001
0000
0000
0000
,  // measure 26
1000
0000
0000
0000
,  // measure 27
0100
0000
0000
0000
,  // measure 28
0110
0000
0000
0000
,  // measure 29
2002
0000
0000
0000
,  // measure 30
0000
0000
0000
0000
,  // measure 31
0000
0000
0000
0000
,  // measure 32
0000
0000
0000
0000
,  // measure 33
0000
0000
0000
0000
,  // measure 34
0000
0000
0000
0000
,  // measure 35
3003
0000
0000
0000
,  // measure 36
0110
0000
0010
0000
,  // measure 37
0100
0000
0010
0000
,  // measure 38
1000
0000
0001
0000
,  // measure 39
1000
0000
0100
0000
,  // measure 40
0010
0000
0001
0000
,  // measure 41
1000
0000
0001
0000
,  // measure 42
0100
0000
0010
0000
,  // measure 43
0100
0000
0110
0000
,  // measure 44
0000
0000
1001
0000
,  // measure 45
1000
0000
0100
0000
,  // measure 46
0010
0000
0100
0000
,  // measure 47
0010
0000
0001
0000
,  // measure 48
0100
0000
0010
0000
,  // measure 49
1000
0000
0001
0000
,  // measure 50
1000
0000
0010
0000
,  // measure 51
0000
0000
1001
0000
,  // measure 52
0000
0000
1001
0000
,  // measure 53
0001
0000
0100
0000
,  // measure 54
0010
0000
1000
0000
,  // measure 55
0000
0000
0100
0000
,  // measure 56
0010
0000
0100
0000
,  // measure 57
0000
0000
0010
0000
,  // measure 58
0001
0000
1000
0000
,  // measure 59
0001
0000
1001
0000
,  // measure 60
0000
0000
0110
0000
;
