#TITLE:Ain't it Good;
#SUBTITLE:-2001 SOUTH LONDON MIX-;
#ARTIST:Tomoki Hirata;
#TITLETRANSLIT:;
#SUBTITLETRANSLIT:;
#ARTISTTRANSLIT:;
#GENRE:;
#CREDIT:;
#MENUCOLOR:;
#METERTYPE:DDR;
#BANNER:Ain't it Good -2001 SOUTH LONDON MIX-.png;
#BACKGROUND:Ain't it Good -2001 SOUTH LONDON MIX--bg.png;
#LYRICSPATH:;
#CDTITLE:CDTitle.PNG;
#MUSIC:Ain't it Good -2001 SOUTH LONDON MIX-.mp3;
#OFFSET:-2.720;
#SAMPLESTART:17.050;
#SAMPLELENGTH:14.330;
#SELECTABLE:YES;
#LISTSORT:;
#BPMS:0.000=134.000;
#STOPS:;
#BGCHANGES:;
#ATTACKS:;

//---------------dance-single - ----------------
#NOTES:
     dance-single:
     :
     Hard:
     6:
     0.426,0.386,0.064,0.139,0.054:
1000
0000
0001
0100
0000
0100
0001
0000
,
1000
0000
0000
0000
0010
0000
0000
0000
0100
0000
0000
0100
0000
0000
0100
0000
,
1000
0000
0100
1000
0000
0100
1000
0000
,
0010
0000
0001
0000
0100
0000
0000
0000
0010
0000
0000
0001
0000
0000
0010
0000
,
0001
0000
0100
0001
0000
0001
0100
0000
,
0010
0000
1000
0000
0100
0000
0000
0000
1000
0000
0000
1000
0000
0000
0010
0000
,
0010
0000
0001
0100
0000
0100
0010
0000
,
1000
0000
1000
0000
1000
0000
0000
0000
2002
0000
0000
0003
0000
0000
3000
0000
,
0001
0010
0100
0000
1000
0100
0010
0000
,
0010
0001
0100
0010
0000
0010
1000
0100
,
1000
0000
0001
0000
0010
0001
0100
0000
,
1000
0001
0100
0010
0000
1000
0100
0000
,
1000
0001
0010
0000
0001
1000
0010
0000
,
0100
0001
0010
0001
0000
1000
0010
0100
,
0010
0000
1000
0000
0100
1000
0100
0000
,
0010
0001
0100
0002
0000
0000
0000
1003
,
0001
1000
0010
0100
0020
0000
0030
0000
,
1000
0100
0010
0001
,
0100
0001
0100
0010
2000
0000
3000
0000
,
0100
0001
0010
0100
,
1000
0100
0010
0001
2000
0000
3000
0000
,
0100
0010
1000
0001
,
1000
0100
0010
0100
1000
0000
0000
0000
,
0001
0100
0010
0000
0200
0000
0301
0000
,
1000
0001
0000
0000
1000
0000
0000
0001
0000
0000
1000
0000
0100
0000
0000
0000
,
0010
0001
0100
0000
0010
0000
1000
0000
,
0001
1000
0000
0000
0001
0000
0000
1000
0000
0000
0001
0000
0100
0000
0000
0000
,
0010
1000
0100
0000
0010
0001
0100
0000
,
2001
0000
0000
0000
0001
0000
0000
0002
0000
0000
0000
0000
3003
0000
0000
0000
,
0010
0001
0100
0000
0010
1000
0100
0000
,
0120
0000
0000
0000
0100
0000
0000
0200
0000
0000
0000
0000
0330
0000
0000
0000
,
1000
0000
0001
0000
0100
0000
0000
0000
1000
0000
0000
0001
0000
0000
1000
0000
,
1001
0000
1000
0100
0000
0010
0001
0000
,
1000
1000
0001
0001
0100
0100
0010
0010
,
0100
0001
0000
0100
0002
0000
0003
0000
,
0000
1000
1000
0100
0100
0010
0010
0001
,
0001
0000
1000
0100
1000
0000
0001
0000
,
0010
0001
0010
0000
0001
0000
0101
0000
,
0100
0010
1000
0100
0010
0000
0001
0010
,
0000
0010
0001
0010
0001
1000
0100
1000
,
0100
0000
0010
0000
0001
0001
0100
0000
,
0010
1000
0100
1000
0001
0000
0000
0000
,
0010
0001
0010
0000
1000
0100
1000
0000
,
0010
1000
0001
0100
0010
0000
0000
0000
,
1000
0001
1000
0001
0100
0010
0100
0010
,
1000
0001
1000
0001
0100
0000
0010
0000
,
1000
0100
0010
0002
0000
0000
0003
0000
,
1000
0001
1000
0000
0010
0000
0100
0000
,
1001
0000
0000
0000
;

//---------------dance-single - ----------------
#NOTES:
     dance-single:
     :
     Medium:
     4:
     0.328,0.335,0.161,0.021,0.005:
1001
0000
0000
0001
0000
1000
0100
0000
,
0010
0001
0100
0010
,
0100
0000
0000
0010
0000
1000
0100
0000
,
0010
0001
1000
0001
,
0100
0000
0000
0100
0000
0100
0010
0000
,
1000
0001
1000
0100
,
0010
0000
0000
0010
0000
0010
0001
0000
,
0010
0001
0200
0300
,
0001
0100
0010
1000
,
0100
1000
0100
1000
0000
0000
0001
0000
,
0010
0001
0100
0010
,
1000
0100
0010
0000
,
0010
0001
0100
0010
,
1000
0010
1000
0010
0000
0000
0100
0000
,
0001
0010
0001
1000
,
0100
0010
0001
0000
,
1000
0000
0100
1000
0100
0000
0000
0000
,
0001
0010
0001
0100
,
0010
0000
0100
0010
0100
0000
0000
0000
,
0001
1000
0100
0010
,
0001
0000
1000
0001
1000
0000
0000
0000
,
0001
0100
0010
1000
,
0100
0001
0100
0000
0001
0000
0000
0000
,
1000
0100
0010
0100
,
0110
1001
0110
0000
,
1000
0100
1000
0000
0001
0000
0100
0000
,
0101
1010
1001
0000
,
0001
0010
0001
0000
1000
0000
0010
0000
,
0110
1001
0101
0000
,
0001
1000
0100
0000
0010
0000
0100
0000
,
0110
1010
1100
0000
,
0001
0000
0010
0000
0001
0000
0000
0000
1000
0000
0000
1000
0000
0000
1000
0000
,
0001
1000
0100
0010
,
0001
0010
0001
0000
0100
0000
0010
1000
,
0010
0000
0100
0001
0100
0000
0010
0000
,
1000
0000
0100
0000
1000
0000
0010
1000
,
0010
0100
0001
0010
,
0001
0000
0100
0000
0010
0000
1000
0100
,
1000
0000
0001
0100
0001
0000
0010
0000
,
0002
0000
0000
0003
,
1001
1000
0100
0010
,
0001
0000
0010
0010
0010
0000
0000
0000
,
0001
0100
0010
1000
,
0001
0000
0100
0100
0100
0000
0000
0000
,
0010
1000
0100
0001
,
0100
0000
1000
1000
1000
0000
0000
0000
,
0010
0100
0001
0010
,
0001
0000
1000
0000
0001
1000
0001
0000
,
1001
0000
0000
0000
;

//---------------dance-single - ----------------
#NOTES:
     dance-single:
     :
     Easy:
     2:
     0.161,0.180,0.107,0.011,0.000: // measure 1
1001
0000
0000
0000
,  // measure 2
0001
0000
1000
0000
,  // measure 3
0100
0000
0000
0000
,  // measure 4
0010
0000
0001
0000
,  // measure 5
0100
0000
0000
0000
,  // measure 6
0010
0000
1000
0000
,  // measure 7
0100
0000
0000
0000
,  // measure 8
1000
0000
0001
0000
,  // measure 9
1001
0000
0001
0000
,  // measure 10
0100
0000
0010
0000
,  // measure 11
1000
0000
0100
0000
,  // measure 12
0010
0010
0010
0000
,  // measure 13
0100
0000
0010
0000
,  // measure 14
0001
0000
0100
0000
,  // measure 15
0010
0000
1000
0000
,  // measure 16
0100
0100
0100
0000
,  // measure 17
0110
0000
0001
0000
,  // measure 18
0100
0000
0010
0000
,  // measure 19
1000
0000
0100
0000
,  // measure 20
0010
0000
0001
0001
,  // measure 21
0001
0000
0100
0000
,  // measure 22
0010
0000
1000
0000
,  // measure 23
0001
0000
0010
0000
,  // measure 24
0100
0000
1000
1000
,  // measure 25
1000
0000
0001
0000
,  // measure 26
1001
0000
0000
0000
,  // measure 27
0010
0000
0100
0000
,  // measure 28
0110
0000
0000
0000
,  // measure 29
1000
0000
0100
0000
,  // measure 30
0110
0000
0000
0000
,  // measure 31
0001
0000
0100
0000
,  // measure 32
0110
0000
0000
0000
,  // measure 33
1001
0000
0000
0000
,  // measure 34
0001
0000
1000
0000
,  // measure 35
0100
0000
0000
0000
,  // measure 36
0010
0000
0001
0000
,  // measure 37
0100
0000
0010
0000
,  // measure 38
1000
0000
0100
0000
,  // measure 39
1000
0000
0001
0000
,  // measure 40
0200
0000
0300
0000
,  // measure 41
0110
0000
0010
0000
,  // measure 42
1000
1000
1000
0000
,  // measure 43
0001
0000
0100
0000
,  // measure 44
0001
0001
0001
0000
,  // measure 45
1000
0000
0100
0000
,  // measure 46
0010
0010
0010
0000
,  // measure 47
0001
0000
0100
0000
,  // measure 48
0010
0010
0010
0000
,  // measure 49
0110
0000
0000
0000
;

//---------------dance-single - ----------------
#NOTES:
     dance-single:
     :
     Beginner:
     1:
     0.120,0.154,0.054,0.000,0.000:
1001
0000
0000
0000
,
0100
0000
0000
0000
,
0010
0000
0000
0000
,
1000
0000
0000
0000
,
0100
0000
0000
0000
,
0010
0000
0000
0000
,
0001
0000
0000
0000
,
0100
0000
0000
0000
,
0010
0000
0010
0000
,
0010
0000
1000
0000
,
0100
0000
0000
0000
,
0010
0000
0001
0000
,
0100
0000
0100
0000
,
0100
0000
0010
0000
,
1000
0000
0000
0000
,
0001
0000
0000
0000
,
1001
0000
0000
0000
,
0010
0000
1000
0000
,
0001
0000
0000
0000
,
0010
0000
0001
0000
,
1000
0000
0000
0000
,
0100
0000
1000
0000
,
0001
0000
0000
0000
,
0100
0000
0001
0000
,
0010
0000
0000
0000
,
0001
0000
0100
0000
,
0010
0000
0000
0000
,
1000
0000
0100
0000
,
0010
0000
0000
0000
,
0001
0000
1000
0000
,
0100
0000
0000
0000
,
1001
0000
0000
0000
,
0110
0000
0000
0000
,
0100
0000
0010
0000
,
0100
0000
0000
0000
,
1000
0000
0001
0000
,
0100
0000
0000
0000
,
0001
0000
1000
0000
,
0100
0000
0010
0000
,
0100
0000
0000
0000
,
0010
0000
0001
0000
,
1000
0000
0100
0000
,
1000
0000
0010
0000
,
0100
0000
0001
0000
,
1000
0000
0001
0000
,
1000
0000
0001
0000
,
0100
0000
0010
0000
,
0100
0000
0010
0000
,
0110
0000
0000
0000
;
