#TITLE:ASHITA HE NO CHIKAI;
#SUBTITLE:;
#ARTIST:Yoko Shimamura feat. Zantetsu Kyoudai;
#TITLETRANSLIT:;
#SUBTITLETRANSLIT:;
#ARTISTTRANSLIT:;
#CREDIT:;
#BANNER:;
#BACKGROUND:;
#LYRICSPATH:;
#CDTITLE:;
#MUSIC:Ashita he no chikai.mp3;
#OFFSET:-7.440;
#SAMPLESTART:53.650;
#SAMPLELENGTH:11.160;
#SELECTABLE:YES;
#DISPLAYBPM:162.000:172.000;
#BPMS:0.000=162.000,16.000=172.000;
#STOPS:;
#BGCHANGES:;

//---------------dance-single - ----------------
#NOTES:
     dance-single:
     :
     Hard:
     8:
     0.616,0.522,0.472,0.236,0.041:
1001
0000
1000
0000
0100
0000
0010
0011
,
0000
0001
0100
0000
1000
0100
0001
1000
,
1001
0000
0001
0010
0100
0000
0010
0001
,
0100
0000
0010
1000
0001
1000
0100
0000
,
0011
0000
0001
0000
1000
0000
0001
0100
,
0000
0100
0001
0000
1000
0100
1000
0000
,
0001
0000
0010
0000
1000
0000
0010
0001
,
0000
0001
1000
0000
0001
0000
0100
0000
,
0110
0000
0010
0010
1000
0000
0001
0010
,
0000
0100
0010
0000
0001
1000
0010
0000
,
0101
0010
1000
0100
,
0010
0001
0011
0000
1000
0001
0100
0101
,
0000
0000
0001
0000
1000
0000
0100
0010
,
0000
0100
1000
0000
0001
0100
0010
1000
,
0010
0000
0000
0100
0001
0000
0010
0000
,
0100
0010
0001
1000
,
1001
0000
0001
0100
1000
0000
0100
0001
,
0000
0001
1000
0000
0001
0010
1000
0010
,
0110
0000
0100
1000
0000
1010
0000
0201
,
0000
0001
0001
0000
0010
0000
0310
0000
,
1001
0000
1000
0100
0000
0010
0001
0000
,
0100
0000
1000
1000
0100
0000
0001
0000
,
1000
0000
0001
0100
0000
0100
0001
0000
,
1000
0100
0010
0001
0100
0010
1000
1001
,
0000
0001
0100
0010
0100
0000
0010
1000
,
0000
1000
0100
0000
0010
0100
0010
0000
,
0012
0000
0000
0100
0103
0000
0010
0000
,
2010
0000
0000
0100
3100
0000
0010
0000
,
1001
0000
0100
0000
0010
0000
1000
0100
,
0000
1000
0100
0000
0010
0001
0100
0000
,
0001
0100
0010
1000
0100
0001
0100
2000
,
0000
3001
0100
1000
0100
0001
2002
0000
,
0000
0000
0000
3003
,
0110
0000
0001
1000
0100
0010
0100
2000
,
0000
3002
0000
0013
0100
1000
1001
0000
,
0101
0000
0010
1000
0100
0020
0000
0230
,
0000
2300
0000
3001
0100
0001
1000
0000
,
0011
0000
1000
0100
0000
0010
0001
0010
,
0100
0010
0001
1000
0000
1000
0001
0000
,
0110
0000
0100
0001
0000
0101
0000
1001
,
0000
1000
0100
0010
0001
0100
0110
0000
,
1001
0000
1100
0000
0010
0001
0100
0020
,
0000
2030
0000
3100
0010
0100
1000
0001
,
0101
0000
1000
0010
1000
0200
0000
0320
,
0000
0032
0000
1003
0001
0100
0010
0000
,
1001
0000
0001
1000
0010
0200
0000
0302
,
0000
0023
0000
0130
0010
0001
1000
0010
,
0110
0000
0010
1000
0000
1000
0100
0000
,
0010
0001
0100
0000
0110
0000
1000
1002
,
0000
0010
0100
1003
,
2001
0010
0100
3010
,
0210
1000
0010
0301
,
1001
0000
0000
0110
0000
0000
1000
0100
0010
0001
0000
0000
,
1002
0000
0010
0000
0100
0103
0000
1010
,
0000
1000
0100
0000
0010
0001
0010
0001
,
1001
0000
0000
1000
0001
0000
0001
0101
,
0000
0100
0001
1000
0100
0010
0001
0101
,
0000
0001
0100
0001
0100
0010
1000
0010
,
1000
0100
0001
0100
1000
0001
0101
0000
,
1001
0000
1000
0100
0010
0100
0010
0001
,
0000
0010
0001
0100
0010
0000
1001
0000
,
0110
0000
0010
0100
0001
0010
0100
0010
,
0000
0001
1000
0010
0100
0000
1010
0000
,
1001
0000
0001
0010
0000
0100
1000
0000
,
1000
0010
1000
0000
0001
0010
0001
0000
,
0101
0000
0100
0010
0000
0010
1000
0100
,
0010
0000
0001
0000
0000
0010
0000
0000
0001
0000
1000
0000
0010
0000
0100
0000
,
0110
0000
0010
1000
0100
0010
0100
1000
,
0001
0100
0010
1000
0100
0000
0110
0000
,
1001
0000
0001
0010
0100
1000
0100
0010
,
0100
1000
0010
0100
0001
0000
1000
0010
,
0100
0001
0010
0100
0010
0001
1000
0010
,
0100
0010
1000
0100
0010
0001
0100
0010
,
1000
0000
1000
0001
0000
0001
0100
0000
,
0010
0100
0001
0000
1001
0000
1000
1200
,
0000
0000
0010
0000
0010
0310
0000
1002
,
0000
1000
1003
0000
0100
0010
0001
0000
,
2001
0000
0000
0001
0002
0000
3003
0000
,
0102
0000
0000
0100
0200
0000
0303
0000
,
0000
0000
1000
0100
0010
0001
0010
0100
1000
0100
0010
0001
,
0000
1001
0000
0000
;

//---------------dance-single - ----------------
#NOTES:
     dance-single:
     :
     Medium:
     6:
     0.461,0.522,0.317,0.276,0.004: // measure 1
1000
0000
0001
0000
1000
0000
0000
1001
,  // measure 2
0000
0001
0010
0100
,  // measure 3
0110
0000
0000
0010
0001
0000
0000
0000
,  // measure 4
1001
0000
0000
1000
0010
0000
0000
0000
,  // measure 5
1001
0000
0000
0000
0100
0000
0010
0100
,  // measure 6
0000
0100
0010
0000
1000
0000
0001
0000
,  // measure 7
2001
0000
3020
0000
,  // measure 8
0230
0000
0302
0000
,  // measure 9
1003
0000
0000
0000
0001
0000
0100
0001
,  // measure 10
0000
0001
0100
0000
0001
0000
1000
0000
,  // measure 11
0200
0000
0320
0000
,  // measure 12
0030
0001
0010
0000
0001
0000
0100
0002
,  // measure 13
0000
1003
0001
0100
,  // measure 14
0010
0100
0010
1000
,  // measure 15
0200
0000
0310
0001
,  // measure 16
0100
0010
1000
0001
,  // measure 17
0201
0000
0310
0100
,  // measure 18
0001
1000
0100
0010
,  // measure 19
0200
0000
0000
0010
0000
1300
0000
2002
,  // measure 20
0000
0000
0000
3003
,  // measure 21
0001
0000
0000
1000
0000
0000
0001
0000
,  // measure 22
0101
0000
0110
0000
,  // measure 23
2001
0000
3002
0000
,  // measure 24
0103
0000
0010
0000
1000
0000
0010
1000
,  // measure 25
0000
0000
0001
0000
1000
0000
0100
0010
,  // measure 26
0000
0100
0010
0001
,  // measure 27
1000
0000
0001
0000
0100
0000
0010
1000
,  // measure 28
0000
0010
1000
0001
,  // measure 29
1001
0000
1000
0000
0100
0000
0010
0100
,  // measure 30
0000
0010
0001
1000
,  // measure 31
1020
0000
0000
0130
0000
0000
0100
0002
,  // measure 32
0000
1000
1000
2000
,  // measure 33
0000
0000
0000
3003
,  // measure 34
1000
0000
0001
0000
0100
0010
0000
0100
,  // measure 35
0000
0010
0000
1000
0100
0000
0010
0000
,  // measure 36
0100
0000
0010
0000
0001
1000
0000
0001
,  // measure 37
0000
0100
0000
0010
0100
0010
0100
0000
,  // measure 38
1001
0000
1000
0100
0000
0010
0001
0000
,  // measure 39
1000
0000
0010
1000
0000
1000
0010
0000
,  // measure 40
0100
0000
0001
0100
0000
0010
1000
0010
,  // measure 41
0000
0100
0001
0000
1000
0000
1001
0000
,  // measure 42
0110
0000
0100
0000
0001
1000
0000
0001
,  // measure 43
0000
0010
0000
0100
0010
0000
0001
0000
,  // measure 44
1000
0000
0010
0000
0100
0001
0000
1000
,  // measure 45
0000
0100
0000
0010
0100
0000
0110
0000
,  // measure 46
1001
0000
0001
0000
0100
0010
0000
1000
,  // measure 47
0000
0010
0000
0100
0001
0000
1001
0000
,  // measure 48
1100
0000
0010
0001
0000
0001
1000
0000
,  // measure 49
0001
0000
0100
0000
0010
0000
1000
0002
,  // measure 50
0000
0010
1000
0000
,  // measure 51
2003
0010
0001
0001
,  // measure 52
3002
0010
2000
3003
,  // measure 53
1010
1010
0101
0101
,  // measure 54
2001
0000
0001
0000
0200
3300
0000
1001
,  // measure 55
0000
1000
0001
0000
0100
0010
0100
0000
,  // measure 56
2010
0000
0000
0001
3002
0000
0000
0023
,  // measure 57
0000
0000
0000
0100
0200
0000
0000
0330
,  // measure 58
0000
0010
0001
0000
1000
0001
1000
0000
,  // measure 59
0001
0100
0001
0000
1000
0010
1000
0010
,  // measure 60
0100
0000
0001
0000
1000
0001
1000
0001
,  // measure 61
0000
1000
0000
0100
0010
0000
0110
0000
,  // measure 62
1001
0000
0001
0000
0100
0001
0100
0001
,  // measure 63
0000
1000
0000
0010
0100
0000
0110
0000
,  // measure 64
1001
0000
1000
0100
0000
0010
0001
0000
,  // measure 65
1000
0001
1000
0000
0001
0100
0001
0000
,  // measure 66
1010
0000
1000
0100
0000
0010
0001
1000
,  // measure 67
0000
0000
0001
0000
0000
1000
0000
0000
0002
0000
0000
0000
0103
0000
0000
0000
,  // measure 68
0100
0001
1000
0000
0001
1000
0001
1000
,  // measure 69
0000
0001
0000
0100
0001
0000
1001
0000
,  // measure 70
1000
0100
1000
0000
0001
0010
0001
0010
,  // measure 71
0000
0110
0000
0100
1000
0000
1001
0000
,  // measure 72
0101
0000
1000
0000
0010
1000
0010
1000
,  // measure 73
0000
0001
0000
0100
0001
0000
0011
0000
,  // measure 74
1001
0000
1000
0001
0000
0001
1000
0000
,  // measure 75
0010
0100
0001
0000
0010
0000
0100
0020
,  // measure 76
0000
0000
0001
0000
0001
0031
0000
1002
,  // measure 77
0000
1000
1003
0000
1000
0100
1000
0001
,  // measure 78
0200
0000
0000
0010
0320
0000
0000
0000
,  // measure 79
2030
0000
0000
0001
0002
0000
0000
0000
,  // measure 80
0000
0000
0000
0000
,  // measure 81
3003
1001
0000
0000
;

//---------------dance-single - ----------------
#NOTES:
     dance-single:
     :
     Easy:
     4:
     0.334,0.359,0.179,0.179,0.000: // measure 1
2002
0000
0000
0000
3003
0000
0000
0220
,  // measure 2
0000
0000
0330
0000
,  // measure 3
2002
0000
0000
3003
,  // measure 4
0220
0000
0000
0330
,  // measure 5
1000
0010
1000
0000
,  // measure 6
0001
0010
0001
0000
,  // measure 7
1000
0000
0001
0000
,  // measure 8
0100
0000
0010
0000
,  // measure 9
0100
0010
1000
0000
,  // measure 10
0010
1000
0001
0000
,  // measure 11
1001
0000
1000
0000
,  // measure 12
0001
0010
0100
1000
,  // measure 13
1001
0000
0001
0000
,  // measure 14
0100
0001
0100
0010
,  // measure 15
0100
0000
0001
0000
,  // measure 16
1000
0100
1000
0001
,  // measure 17
1001
0000
1000
0100
,  // measure 18
1000
0000
0001
0100
,  // measure 19
0001
1000
0001
0100
,  // measure 20
0010
0100
0001
0000
,  // measure 21
1000
1000
0001
0001
,  // measure 22
0100
0100
0010
0010
,  // measure 23
1000
0000
0001
0000
,  // measure 24
1000
0100
0010
0001
,  // measure 25
1001
0000
0001
0100
,  // measure 26
0001
0001
1000
0100
,  // measure 27
1000
0000
0001
0000
,  // measure 28
0100
0000
0010
0000
,  // measure 29
0110
0000
0100
0010
,  // measure 30
1000
1000
0100
0010
,  // measure 31
0100
0000
0010
0000
,  // measure 32
0001
1000
0002
2000
,  // measure 33
0000
0000
0000
3003
,  // measure 34
0110
0010
0100
0001
,  // measure 35
0010
0100
0010
0000
,  // measure 36
0011
0001
1000
0001
,  // measure 37
0100
0010
1000
0000
,  // measure 38
0100
1000
0100
0010
,  // measure 39
0001
0000
0010
0001
,  // measure 40
0100
1000
0100
0001
,  // measure 41
1000
0001
0100
0000
,  // measure 42
0001
0100
0010
0100
,  // measure 43
0001
1000
1001
0000
,  // measure 44
1000
0010
0100
0010
,  // measure 45
1000
0001
1001
0000
,  // measure 46
1000
0001
0100
0100
,  // measure 47
0001
1000
0100
0100
,  // measure 48
0010
0000
0000
0001
0000
0000
1000
0000
,  // measure 49
0001
0000
0100
0000
0001
0000
0000
1001
,  // measure 50
0000
1000
0001
0000
,  // measure 51
0101
0100
0020
0030
,  // measure 52
0110
0010
1000
0001
,  // measure 53
1000
0100
0020
0030
,  // measure 54
0100
0010
0001
1000
,  // measure 55
0001
0100
0010
0000
,  // measure 56
0200
0000
0000
0000
0320
0000
0000
0200
,  // measure 57
0030
0000
0302
0000
,  // measure 58
0003
1000
0100
0010
,  // measure 59
0100
0010
0022
0033
,  // measure 60
0001
0100
1000
0100
,  // measure 61
0001
1000
0001
0000
,  // measure 62
1000
0100
0001
0100
,  // measure 63
1000
0001
1000
0000
,  // measure 64
0001
0100
0001
0100
,  // measure 65
0010
1000
0010
1000
,  // measure 66
0100
0010
0001
1000
,  // measure 67
0110
0000
1001
0000
,  // measure 68
0110
0100
0010
1000
,  // measure 69
0100
0010
0100
0000
,  // measure 70
0010
0001
0100
0010
,  // measure 71
0100
0001
1000
0000
,  // measure 72
0001
0100
0010
0100
,  // measure 73
0001
1000
0100
0010
,  // measure 74
0001
0000
0000
0100
0000
0000
0010
0000
,  // measure 75
1000
0000
0100
0000
0010
0000
0000
0110
,  // measure 76
0000
0100
0010
0001
,  // measure 77
1000
0001
0100
0001
,  // measure 78
0200
0000
0320
0000
,  // measure 79
2030
0000
0002
0000
,  // measure 80
0000
0000
0000
0000
,  // measure 81
3003
1001
0000
0000
;

//---------------dance-single - ----------------
#NOTES:
     dance-single:
     :
     Beginner:
     1:
     0.152,0.196,0.114,0.016,0.000: // measure 1
1001
0000
0000
0000
,  // measure 2
0000
0000
0000
0000
,  // measure 3
0110
0000
0000
0000
,  // measure 4
0100
0000
0001
0000
,  // measure 5
1001
0000
0000
0000
,  // measure 6
0001
0000
0100
0000
,  // measure 7
0001
0000
0000
0000
,  // measure 8
1000
0000
0000
0000
,  // measure 9
0001
0000
1000
0000
,  // measure 10
0100
0000
0010
0000
,  // measure 11
0100
0000
0000
0000
,  // measure 12
1001
0000
0000
0000
,  // measure 13
0001
0000
0100
0000
,  // measure 14
0001
0000
1000
0000
,  // measure 15
0100
0000
0000
0000
,  // measure 16
0010
0000
0000
0000
,  // measure 17
0100
0000
0010
0000
,  // measure 18
0100
0000
0010
0000
,  // measure 19
0001
0000
1000
0000
,  // measure 20
0001
0000
0000
0000
,  // measure 21
1000
0000
0000
0000
,  // measure 22
0001
0000
1000
0000
,  // measure 23
0001
0000
0000
0000
,  // measure 24
0100
0000
0100
0000
,  // measure 25
0100
0000
0010
0000
,  // measure 26
1000
0000
0001
0000
,  // measure 27
1000
0000
0000
0000
,  // measure 28
0001
0000
0000
0000
,  // measure 29
0010
0000
0001
0000
,  // measure 30
1000
0000
0100
0000
,  // measure 31
0010
0000
0000
0000
,  // measure 32
0110
0000
0000
0000
,  // measure 33
0000
0000
0000
0000
,  // measure 34
1001
0000
0001
0000
,  // measure 35
0100
0000
0010
0000
,  // measure 36
1000
0000
0100
0000
,  // measure 37
0010
0000
0100
0000
,  // measure 38
1000
0000
0000
0000
,  // measure 39
0001
0000
0100
0000
,  // measure 40
0001
0000
0000
0000
,  // measure 41
0100
0000
0010
0000
,  // measure 42
0110
0000
0000
0000
,  // measure 43
0100
0000
0001
0000
,  // measure 44
1000
0000
0000
0000
,  // measure 45
0001
0000
1000
0000
,  // measure 46
0001
0000
1000
0000
,  // measure 47
0100
0000
0010
0000
,  // measure 48
0110
0000
0000
0000
,  // measure 49
0010
0000
0001
0000
,  // measure 50
1001
0000
0000
0000
,  // measure 51
1000
0000
0000
0000
,  // measure 52
0100
0000
0000
0000
,  // measure 53
0010
0000
0000
0000
,  // measure 54
0001
0000
0000
0000
,  // measure 55
0100
0000
0000
0000
,  // measure 56
0010
0000
0000
0000
,  // measure 57
1000
0000
0000
0000
,  // measure 58
1001
0000
0000
0000
,  // measure 59
0110
0000
0000
0000
,  // measure 60
1001
0000
0001
0000
,  // measure 61
1000
0000
1000
0000
,  // measure 62
0010
0000
0010
0000
,  // measure 63
0100
0000
0100
0000
,  // measure 64
0001
0000
0100
0000
,  // measure 65
0010
0000
1000
0000
,  // measure 66
0001
0000
0010
0000
,  // measure 67
0100
0000
0000
0000
,  // measure 68
0010
0000
0001
0000
,  // measure 69
1000
0000
0001
0000
,  // measure 70
0100
0000
0010
0000
,  // measure 71
1000
0000
0001
0000
,  // measure 72
1000
0000
0100
0000
,  // measure 73
0010
0000
0001
0000
,  // measure 74
1000
0000
0000
0000
,  // measure 75
0001
0000
0100
0000
,  // measure 76
0220
0000
0000
0000
,  // measure 77
0000
0000
0000
0000
,  // measure 78
0000
0000
0000
0000
,  // measure 79
0000
0000
0000
0000
,  // measure 80
0000
0000
0000
0000
,  // measure 81
0330
0110
0000
0000
;
