#TITLE:AKATSUKI;
#SUBTITLE:;
#ARTIST:L.E.D. Vs GUHROOVY;
#TITLETRANSLIT:;
#SUBTITLETRANSLIT:;
#ARTISTTRANSLIT:;
#CREDIT:;
#BANNER:AKATSUKI.png;
#BACKGROUND:AKATSUKI-bg.png;
#LYRICSPATH:;
#CDTITLE:;
#MUSIC:AKATSUKI.mp3;
#OFFSET:-2.590;
#SAMPLESTART:71.800;
#SAMPLELENGTH:10.250;
#SELECTABLE:YES;
#DISPLAYBPM:94.000:187.000;
#BPMS:0.000=187.215,144.000=93.607,160.000=187.215;
#STOPS:192.000=2.243
;
#BGCHANGES:;

//---------------dance-single - ----------------
#NOTES:
     dance-single:
     :
     Hard:
     8:
     0.616,0.647,0.385,0.046,0.050: // measure 1
1001
0000
0000
1000
0000
0100
0000
0010
,  // measure 2
0001
0100
0000
0010
0000
1000
0000
0001
,  // measure 3
0100
0000
0000
0001
0000
0010
0000
0001
,  // measure 4
1000
0100
0000
0010
0000
0100
0000
0010
,  // measure 5
0001
1000
0000
0010
0000
0001
0000
0010
,  // measure 6
1000
0100
0000
0001
0000
0100
0000
1000
,  // measure 7
0010
0100
0000
0010
0000
0100
0000
0001
,  // measure 8
1000
0001
0000
1000
0000
0100
0010
0001
,  // measure 9
0010
0100
0000
0010
0001
1000
0001
0001
,  // measure 10
1000
0010
0000
0100
0001
1000
0100
0000
,  // measure 11
0010
0100
0000
0010
0001
0100
0001
0001
,  // measure 12
1000
0000
0010
0000
0000
0000
0100
0000
0001
0000
0000
1000
0000
0001
0000
1000
,  // measure 13
0100
0010
0000
0100
1000
0010
0100
0001
,  // measure 14
1000
0000
0100
0000
0000
0000
0001
0000
0100
0000
0000
1000
0000
0001
1000
0000
,  // measure 15
0010
0001
0000
0001
0010
1000
0100
0010
,  // measure 16
0220
0000
0000
0330
,  // measure 17
1001
0000
0001
0000
0100
0010
0100
0010
,  // measure 18
1000
0000
0100
0010
0000
0010
0100
0000
,  // measure 19
0010
0000
0001
0000
1000
0001
1000
0001
,  // measure 20
0100
0000
0010
1000
0000
1000
0001
0100
,  // measure 21
0010
0000
1000
0000
0100
0001
0100
1000
,  // measure 22
0100
0000
0010
0001
0000
0001
0100
0010
,  // measure 23
0100
0000
0001
0000
0010
0001
0010
1000
,  // measure 24
0010
0000
0000
0001
0000
0000
0100
0000
0001
0000
1000
0000
0100
0000
0010
0000
,  // measure 25
0001
0000
1000
0100
1000
0000
0001
0100
,  // measure 26
0010
0100
0001
0010
0100
0000
0010
0001
,  // measure 27
0100
0000
0010
1000
0010
0000
1000
0100
,  // measure 28
0010
0001
0010
0001
1000
0100
0010
0100
,  // measure 29
1000
0000
0010
0100
0001
0000
0010
0100
,  // measure 30
0010
0001
0100
0010
1000
0010
0001
0010
,  // measure 31
0100
0000
0001
1000
0100
0000
0010
0001
,  // measure 32
1000
0100
0010
0001
0100
0010
1000
0001
,  // measure 33
1001
0000
0000
0000
,  // measure 34
0000
0000
0000
0000
,  // measure 35
2000
0000
0000
0000
,  // measure 36
0002
0000
0000
3003
,  // measure 37
1001
0000
1000
0001
0100
0000
0001
0100
,  // measure 38
0001
0010
0100
0010
0011
0000
0001
1000
,  // measure 39
1010
0000
0010
0100
0110
0000
0010
1000
,  // measure 40
0100
0000
0001
0000
0100
0000
1000
0000
0001
0000
0100
0001
0000
0001
1000
0001
,  // measure 41
1000
0000
0001
0100
0000
0100
0001
0000
,  // measure 42
1001
1000
0100
0001
,  // measure 43
0100
0000
1000
0010
1000
0000
0010
0000
,  // measure 44
0110
0000
0100
0001
1000
0000
0100
0000
,  // measure 45
0011
0000
0001
1000
0001
0000
1000
0000
,  // measure 46
1010
0000
0010
0100
0001
0000
1000
0000
,  // measure 47
1010
0100
0001
0010
,  // measure 48
1000
0100
0001
0020
,  // measure 49
0030
0000
1001
0000
1000
0100
0010
0000
,  // measure 50
0100
0000
0010
0001
0100
0000
0010
1000
,  // measure 51
0100
0000
0010
0000
0100
1000
0010
0000
,  // measure 52
0100
0000
0001
1000
0001
1000
0100
0010
,  // measure 53
0100
0000
0010
0000
0001
0100
1000
0000
,  // measure 54
0100
0000
0001
0010
0001
0000
1000
0010
,  // measure 55
1000
0000
0010
0001
0010
1000
0100
0000
,  // measure 56
0010
0000
0100
0010
0001
0100
0010
1000
,  // measure 57
0001
0100
0001
1000
0001
0100
1000
0100
,  // measure 58
0010
0000
0110
0000
1001
0000
0001
0010
,  // measure 59
0100
1000
0100
1000
0001
0010
0001
1000
,  // measure 60
0010
1000
1100
0000
0011
0000
0001
0010
,  // measure 61
0100
1000
0100
0010
0001
0100
0010
1000
,  // measure 62
0001
0100
0101
0000
1001
0000
1000
0100
,  // measure 63
0010
0000
0001
0100
1000
0100
0010
1000
,  // measure 64
0100
0001
0100
0010
0100
0010
0001
0010
,  // measure 65
0001
1000
1001
0000
1100
0000
0011
0000
,  // measure 66
0101
0000
0001
0100
1000
0100
0001
1000
,  // measure 67
0100
0010
0110
0000
0011
0000
0101
0000
,  // measure 68
1010
0000
0010
1000
0100
0010
0100
1000
,  // measure 69
0010
0100
0101
0000
0011
0000
1100
0000
,  // measure 70
1010
0000
0010
0100
0001
1000
0100
0001
,  // measure 71
0100
1000
1100
0000
0011
0000
1001
0000
,  // measure 72
1010
0000
0101
0000
0001
1000
0100
0010
,  // measure 73
0100
1000
1001
0000
0000
0001
0101
0000
,  // measure 74
0000
0100
0110
0000
1010
0000
0101
0000
,  // measure 75
0001
1000
0001
1000
0001
0000
0000
0000
0000
0000
0000
0000
0000
0000
0000
0000
;

//---------------dance-single - ----------------
#NOTES:
     dance-single:
     :
     Medium:
     5:
     0.453,0.477,0.092,0.101,0.000: // measure 1
1001
0000
0000
1000
0000
0100
0000
0010
,  // measure 2
0001
0000
0000
0001
0000
0100
0000
0010
,  // measure 3
1000
0000
0000
0010
0000
1000
0000
0100
,  // measure 4
0010
0000
0000
0100
0000
0010
0000
0001
,  // measure 5
1000
0000
0000
0001
0000
0100
0000
0010
,  // measure 6
0100
0000
0000
0010
0000
1000
0000
0100
,  // measure 7
0010
0000
0000
0100
0000
0010
0000
0001
,  // measure 8
1000
0000
0000
0001
0000
1000
0001
1000
,  // measure 9
0001
0000
0000
1000
0010
0000
0100
0000
,  // measure 10
0001
0000
0000
1000
0100
0010
0001
0000
,  // measure 11
0100
0000
0000
0010
1000
0000
0001
0000
,  // measure 12
0010
0000
0000
0100
0010
0100
0010
0000
,  // measure 13
0001
0000
0000
1000
0010
0000
1000
0000
,  // measure 14
0001
0000
0000
0010
0001
1000
0100
0000
,  // measure 15
1000
0000
0000
0010
1000
0000
0001
0000
,  // measure 16
2002
0000
0000
3003
,  // measure 17
1000
0000
0010
0000
0100
0001
0100
0000
,  // measure 18
0001
0000
1000
0100
0000
0100
1000
0000
,  // measure 19
0001
0000
0010
0000
0100
0010
0100
0000
,  // measure 20
0010
0000
0001
1000
0000
1000
0001
0100
,  // measure 21
0010
0000
0100
0000
0001
0100
0001
0000
,  // measure 22
1000
0000
0100
0010
0000
0100
0010
0000
,  // measure 23
0001
0000
1000
0000
0010
1000
0010
0000
,  // measure 24
1000
0000
0001
0000
1000
0001
1000
0000
,  // measure 25
0001
0000
0100
0001
0100
0000
0001
1000
,  // measure 26
0001
0000
1000
0000
0100
0010
0100
0000
,  // measure 27
0010
0000
0001
1000
0010
0000
0100
0001
,  // measure 28
1000
0000
0001
0000
0010
0100
0010
0000
,  // measure 29
1000
0000
0100
0000
0001
0100
1000
0000
,  // measure 30
0010
0000
0100
0001
0000
0001
0100
0000
,  // measure 31
0001
0000
0010
0000
1000
0010
0001
0000
,  // measure 32
1000
0000
0010
1000
0001
0000
1000
0000
,  // measure 33
1001
0000
0000
0000
,  // measure 34
0000
0000
0000
0000
,  // measure 35
2000
0000
0000
0000
,  // measure 36
3020
0000
0000
0000
,  // measure 37
0130
0000
0010
1000
0010
0000
0100
0001
,  // measure 38
0100
0000
0001
0000
1000
0000
0100
0010
,  // measure 39
0100
0000
0010
0001
0010
0000
0001
1000
,  // measure 40
0010
0100
0001
0000
,  // measure 41
1000
0100
0001
0100
,  // measure 42
1000
0000
0001
0100
,  // measure 43
0010
0100
0001
1000
,  // measure 44
0100
0000
0010
0001
,  // measure 45
0100
0000
0010
1000
,  // measure 46
0100
0000
0010
0001
,  // measure 47
0100
1000
0100
0001
,  // measure 48
1000
0001
0101
2002
,  // measure 49
3003
0000
1000
0000
0100
0010
0100
0000
,  // measure 50
0010
0000
0001
0000
0100
0000
0010
1000
,  // measure 51
0010
0000
0100
0000
0001
0010
0100
0000
,  // measure 52
0010
0000
0001
0000
0100
0000
0010
1000
,  // measure 53
0100
0000
0010
0000
0001
0100
0010
0000
,  // measure 54
0100
0000
0001
0000
1000
0000
0100
0010
,  // measure 55
0001
0000
0100
0000
0010
1000
0001
0000
,  // measure 56
1000
0000
0100
0000
0010
0000
0001
1000
,  // measure 57
0001
0000
1001
0000
1000
1000
0100
0000
,  // measure 58
0010
0000
0001
0000
0100
0000
0010
0010
,  // measure 59
0010
0000
0100
0000
0001
0001
1000
0000
,  // measure 60
0100
0000
0010
0000
0100
0000
1000
1000
,  // measure 61
1000
0000
0010
0000
0100
0001
0010
0000
,  // measure 62
0100
0000
0010
0000
0001
0000
0100
0100
,  // measure 63
0100
0000
0010
0000
1000
0100
0010
0000
,  // measure 64
0100
0000
0010
0000
0001
0000
1000
1000
,  // measure 65
1000
0010
1000
0100
,  // measure 66
0110
0000
0010
0000
0001
0000
1000
0001
,  // measure 67
1000
0001
0100
0010
,  // measure 68
0110
0000
0100
0000
0001
0000
1000
0100
,  // measure 69
0010
0100
0010
0001
,  // measure 70
0101
0000
0100
0000
0010
0000
1000
0010
,  // measure 71
0100
0001
1000
0100
,  // measure 72
1100
0000
1000
0000
0010
0000
0100
0001
,  // measure 73
0100
0000
0002
0000
0000
1000
2003
0000
,  // measure 74
0000
0010
3020
0000
0230
0000
0302
0000
,  // measure 75
1003
0001
1000
0000
0000
0000
0000
0000
;

//---------------dance-single - ----------------
#NOTES:
     dance-single:
     :
     Easy:
     4:
     0.311,0.443,0.101,0.028,0.000: // measure 1
1000
0000
0001
0000
,  // measure 2
0100
0000
0010
0100
,  // measure 3
0010
0000
1000
0000
,  // measure 4
0100
0000
0010
0100
,  // measure 5
0010
0000
0001
0000
,  // measure 6
1000
0000
0001
0100
,  // measure 7
0001
0000
1000
0000
,  // measure 8
0010
0000
0100
0010
,  // measure 9
0110
0000
0010
1000
,  // measure 10
0001
0000
1000
0000
,  // measure 11
0001
0000
1000
0100
,  // measure 12
0010
0000
0100
0000
,  // measure 13
0010
0000
0001
1000
,  // measure 14
0001
0000
1000
0000
,  // measure 15
0010
0000
0100
0010
,  // measure 16
0100
0000
0000
0000
,  // measure 17
1001
0000
0001
1000
,  // measure 18
0001
1000
0100
0000
,  // measure 19
0010
0000
0001
0010
,  // measure 20
0001
0100
0010
1000
,  // measure 21
0010
0000
0100
0001
,  // measure 22
1000
0100
0010
0000
,  // measure 23
0100
0000
0010
0001
,  // measure 24
1000
0001
1000
0010
,  // measure 25
0110
0000
0010
1000
,  // measure 26
0001
0001
1000
0100
,  // measure 27
0010
0000
0100
0010
,  // measure 28
0001
0001
0100
0010
,  // measure 29
1000
0000
0010
0100
,  // measure 30
0010
0010
1000
0100
,  // measure 31
0010
0000
0100
0010
,  // measure 32
0100
0100
1000
0001
,  // measure 33
1001
0000
0000
0000
,  // measure 34
0000
0000
0000
0000
,  // measure 35
2000
0000
0000
0000
,  // measure 36
3002
0000
0000
0000
,  // measure 37
1003
0001
0100
0000
,  // measure 38
0010
0100
0001
0000
,  // measure 39
1000
0100
0010
0000
,  // measure 40
0100
0010
0001
0000
,  // measure 41
1000
0000
0001
0100
,  // measure 42
0001
0000
1000
0100
,  // measure 43
0010
0001
0100
0010
,  // measure 44
1000
0000
0010
0100
,  // measure 45
0001
0000
0010
0001
,  // measure 46
1000
0000
0010
1000
,  // measure 47
0100
0001
0100
1000
,  // measure 48
0001
0001
0001
0002
,  // measure 49
0003
1000
0001
1000
,  // measure 50
0010
0100
0000
0010
,  // measure 51
0000
0100
0001
0100
,  // measure 52
0001
1000
0000
0100
,  // measure 53
0000
0010
0100
0010
,  // measure 54
0001
0100
0000
0010
,  // measure 55
0000
1000
0001
0100
,  // measure 56
0001
0010
0100
0010
,  // measure 57
0001
1000
0001
0100
,  // measure 58
0010
1000
0000
0010
,  // measure 59
0000
0100
0010
1000
,  // measure 60
0100
0010
0000
0100
,  // measure 61
0000
0010
0001
0100
,  // measure 62
0001
0010
0000
0001
,  // measure 63
0000
1000
0010
0100
,  // measure 64
0010
1000
1000
0100
,  // measure 65
0100
0010
0100
1000
,  // measure 66
0100
0010
0100
1000
,  // measure 67
0000
0001
0100
0010
,  // measure 68
0100
0001
0100
0010
,  // measure 69
0000
0001
1000
0100
,  // measure 70
0001
0100
1000
0010
,  // measure 71
0000
0100
0010
1000
,  // measure 72
0100
0010
0001
0100
,  // measure 73
0010
0110
0000
1001
,  // measure 74
0000
0110
0110
1001
,  // measure 75
1001
0110
0000
0000
;

//---------------dance-single - ----------------
#NOTES:
     dance-single:
     :
     Beginner:
     2:
     0.181,0.272,0.119,0.000,0.000: // measure 1
1000
0000
0000
0000
,  // measure 2
1000
0000
0000
0000
,  // measure 3
0001
0000
0000
0000
,  // measure 4
0001
0000
0000
0000
,  // measure 5
0100
0000
0000
0000
,  // measure 6
0010
0000
0000
0000
,  // measure 7
1000
0000
0000
0000
,  // measure 8
0001
0000
0000
0000
,  // measure 9
1001
0000
0000
0000
,  // measure 10
0010
0000
1000
0000
,  // measure 11
0100
0000
0000
0000
,  // measure 12
0010
0000
0001
0000
,  // measure 13
0100
0000
0000
0000
,  // measure 14
0010
0000
1000
0000
,  // measure 15
0001
0000
0000
0000
,  // measure 16
1001
0000
0000
0000
,  // measure 17
0110
0000
0000
0000
,  // measure 18
0100
0000
0100
0000
,  // measure 19
0100
0000
0000
0000
,  // measure 20
0010
0000
0010
0000
,  // measure 21
0010
0000
0000
0000
,  // measure 22
1000
0000
1000
0000
,  // measure 23
1000
0000
0000
0000
,  // measure 24
0001
0000
0001
0000
,  // measure 25
0001
0000
1000
0000
,  // measure 26
0100
0000
0010
0000
,  // measure 27
0100
0000
0010
0000
,  // measure 28
0001
0000
1000
0000
,  // measure 29
0001
0000
1000
0000
,  // measure 30
0010
0000
0100
0000
,  // measure 31
0001
0000
1000
0000
,  // measure 32
0100
0000
0010
0000
,  // measure 33
0110
0000
0000
0000
,  // measure 34
0000
0000
0000
0000
,  // measure 35
0001
0000
0000
0000
,  // measure 36
1000
0000
0000
0000
,  // measure 37
1001
0000
0001
0000
,  // measure 38
1000
0000
0100
0000
,  // measure 39
0010
0000
0100
0000
,  // measure 40
1000
0000
0001
0000
,  // measure 41
1001
0000
0001
0000
,  // measure 42
0100
0000
0000
0000
,  // measure 43
0010
0000
0100
0000
,  // measure 44
0001
0000
0000
0000
,  // measure 45
1000
0000
0001
0000
,  // measure 46
1000
0000
0000
0000
,  // measure 47
0001
0000
0010
0000
,  // measure 48
0001
0000
1000
0000
,  // measure 49
0001
1000
0000
1000
,  // measure 50
0000
0001
0000
0100
,  // measure 51
0000
0010
0000
0010
,  // measure 52
0000
0100
0000
0001
,  // measure 53
0000
1000
0000
1000
,  // measure 54
0000
0100
0000
0010
,  // measure 55
0000
0100
0000
1000
,  // measure 56
0000
0001
0000
1000
,  // measure 57
0000
1001
0000
0001
,  // measure 58
0000
0100
0000
1000
,  // measure 59
0000
0100
0000
0001
,  // measure 60
0000
1000
0000
0001
,  // measure 61
0000
1000
0000
0100
,  // measure 62
0000
0001
0000
0100
,  // measure 63
0000
1000
0000
0001
,  // measure 64
0000
0100
0000
0100
,  // measure 65
0000
0110
0000
0010
,  // measure 66
0000
1000
0000
0001
,  // measure 67
0000
1000
0000
0100
,  // measure 68
0000
0010
0000
0100
,  // measure 69
0000
0010
0000
0001
,  // measure 70
0000
0100
0000
1000
,  // measure 71
0000
0100
0000
0001
,  // measure 72
0000
1000
0000
0100
,  // measure 73
0000
0110
0000
1001
,  // measure 74
0000
0110
0000
1001
,  // measure 75
0000
0110
0000
0000
;
