#TITLE:2hot2eat;
#SUBTITLE:;
#ARTIST:Osamu Kubota;
#TITLETRANSLIT:;
#SUBTITLETRANSLIT:;
#ARTISTTRANSLIT:;
#CREDIT:;
#BANNER:;
#BACKGROUND:;
#LYRICSPATH:;
#CDTITLE:;
#MUSIC:2hot2eat.mp3;
#OFFSET:-6.870;
#SAMPLESTART:34.310;
#SAMPLELENGTH:12.000;
#SELECTABLE:YES;
#BPMS:0.000=140.000,164.000=143.000,172.000=146.000,180.000=149.000,188.000=152.000,196.000=155.000,210.000=149.000,216.000=140.000;
#STOPS:;
#BGCHANGES:;

//---------------dance-single - ----------------
#NOTES:
     dance-single:
     :
     Hard:
     9:
     0.436,0.581,0.144,0.224,0.498:
1000
0010
0100
0000
0010
0100
0001
0010
,
0100
0000
0000
0010
0000
0000
0100
0000
1000
0000
0001
0100
0000
0000
0000
0000
,
0001
0100
0010
0000
0100
0001
1000
0001
,
1000
0000
0000
0100
0000
0000
0010
0000
0001
0000
0000
0100
0000
0000
0010
0000
,
1000
0000
0000
0100
0000
0000
0010
0000
0210
0000
0000
0000
0000
0000
0000
0000
,
1000
0000
0000
1000
0000
0000
1000
0000
0000
1000
0000
0000
1300
0000
0000
0000
,
2002
0000
0000
3003
,
1000
0000
0000
0010
0000
0000
0100
0000
0000
0001
0000
0000
1001
0000
0100
0020
,
0200
0000
0000
0330
,
0010
0000
0000
0100
0000
0000
0001
0000
0000
1000
0000
0000
1100
0000
0000
0000
,
0022
0000
0000
0033
,
0001
0000
1000
0010
0000
0000
0100
0000
0001
0000
0010
0100
0000
0000
0010
0002
,
2000
0000
0000
3003
,
1000
0000
0000
0010
0000
0000
0100
0000
0000
0010
0000
0000
1000
0000
0000
0001
,
1000
0000
0000
0001
0000
0000
0100
0000
0220
0000
0000
0000
0000
0000
0000
0000
,
0000
0000
0000
0330
,
0010
0000
1000
0001
0000
0000
0100
0000
0001
0000
1000
0001
0000
0000
0010
0000
,
0001
0000
1000
0001
0000
0000
1000
0000
0100
0000
0010
0100
0000
0000
0000
0000
,
0010
0001
1000
0000
1001
0000
0000
0000
0001
0000
1000
0010
0000
0000
0100
0000
,
0001
0000
1000
0010
0000
0000
0001
0000
1000
0000
0100
0010
0000
0000
0000
0000
,
0001
0000
0000
0000
0000
0000
0100
0000
0000
0000
0000
0000
0010
0000
0000
0000
0000
0000
1000
0000
0000
0000
0000
0000
0100
0000
0000
0001
0000
0000
0000
0000
0100
0000
0000
0000
1000
0000
0000
0000
0100
0000
0000
0000
1000
0000
0000
0000
,
0100
0000
0010
0000
0100
0000
0010
0000
0001
1000
0000
0100
0000
0010
0001
0100
,
0000
1000
0000
0100
0002
0000
0000
0000
0000
0000
0000
0000
0003
0000
0000
0000
,
2002
0000
0000
0000
,
3000
0000
0203
0000
,
0320
0000
0000
0000
,
0000
0000
2030
3200
,
0320
0000
0000
0000
,
0000
0000
0032
0000
,
1003
0000
0001
1000
0002
0000
0000
0000
0000
0000
0000
0000
0000
0000
0000
0000
,
0000
0000
2003
0000
,
3100
0000
0000
0000
0000
0000
0000
0010
0001
0010
0000
0000
0000
0000
0000
0000
,
0000
0000
0000
0000
0000
0000
0000
0100
1000
0100
0000
0000
0000
0000
0000
0000
,
0010
0000
0000
0000
0000
0000
0000
0001
1000
0001
0000
0000
0000
0000
0000
0000
,
0000
0000
0000
0000
0000
0000
0000
0100
0001
0100
0000
0000
0001
0000
0000
0000
,
1001
0000
0000
0000
0000
0000
0000
1000
0100
0010
0000
0000
0000
0000
0000
0000
,
0000
0000
0000
0000
0000
0000
0000
0100
0010
0001
0000
0000
0000
0000
0000
0000
,
1001
0000
0000
0000
0000
0000
0000
1000
0001
0100
0000
0000
0000
0000
0000
0000
,
0010
0000
0000
0100
0000
0000
0001
0000
0000
1000
0000
0000
1001
0000
0000
0000
,
0001
0000
0001
1000
0000
0000
1000
0000
0010
0000
0010
0100
0000
0000
0100
0000
,
0001
0000
0001
1000
0000
0000
0100
0000
0010
0000
0100
0010
0000
0001
0000
1000
,
0001
0000
1000
0001
0000
0000
0100
0000
0010
0000
0100
0001
0000
0000
0100
0000
,
0001
0000
1000
0100
0000
0000
0010
0000
0100
0000
0010
0001
0000
0000
0000
0000
,
1000
0001
1000
0001
0000
0000
0100
0000
0001
0100
0001
0100
0000
0000
0001
0000
,
1000
0001
1000
0001
0000
0000
1000
0000
0100
0000
0010
0001
0000
0000
0000
0000
,
1000
0000
0001
0000
1000
0000
0001
0100
0000
0100
0010
0000
0010
1000
0000
1000
,
0001
1000
0001
1000
0001
0100
0010
1000
0100
0010
0100
1000
,
0001
0000
0100
1000
0000
0100
0000
0001
0000
1000
0000
0100
0010
0000
0001
0000
,
0010
0000
0001
0100
0000
0001
0000
1000
0000
0010
0000
0100
0000
0001
0000
1100
,
0000
0000
0000
0000
1001
0000
0001
0000
0100
0000
0010
1000
0010
0000
0100
0000
,
0001
0000
0010
0000
0001
0000
1000
0100
0000
0100
1000
0000
0001
0010
0000
0000
,
0010
0001
0010
0001
0010
0000
0001
0000
1000
0000
0010
0100
0000
0000
0000
0000
,
0001
1000
0001
1000
0001
0000
1000
0000
0100
0010
0000
0110
0000
0000
0010
0001
,
0000
0011
0000
0010
0200
0000
0000
0000
0000
0000
0000
0000
0000
0000
0000
0000
,
0300
0010
0002
2000
0000
0000
0000
0000
0000
0000
0000
0000
0000
0000
0000
0000
,
0000
0000
0000
0000
,
0000
0000
0000
0000
,
0000
0000
0000
0000
,
0000
0000
0000
0000
0000
0000
3003
1001
;

//---------------dance-single - ----------------
#NOTES:
     dance-single:
     :
     Medium:
     7:
     0.352,0.449,0.161,0.332,0.206:
1000
0001
1000
0001
,
0100
0000
0000
0100
0000
0000
0010
0000
0000
0010
0000
0000
0100
0000
0000
0000
,
0001
1000
0001
1000
,
0100
0000
0000
0100
0000
0000
0010
0000
0000
0010
0000
0000
0100
0000
0000
0000
,
2001
0000
0000
0000
,
0001
0000
0000
0001
0000
0000
0001
0000
0000
0001
0000
0000
3001
0000
0000
0000
,
0220
0000
0000
0330
,
0100
0000
0000
0010
0000
0000
1000
0000
0000
0001
0000
0000
1000
0000
0000
0000
,
0220
0000
0000
0330
,
0100
0000
0000
0010
0000
0000
1000
0000
0000
0001
0000
0000
1000
0000
0000
0000
,
2002
0000
0000
3003
,
1000
0000
0000
1000
0000
0000
0001
0000
0100
0000
0000
0100
0000
0000
0000
0000
,
0220
0000
0000
0330
,
0100
0000
0000
0010
0000
0000
0100
0000
0000
0010
0000
0000
0100
0000
0000
0000
,
2002
0000
0000
0000
,
0000
0000
0000
3003
,
1000
0010
1000
0000
0001
0100
0001
0000
,
1000
0010
0100
0001
0010
0100
1000
0000
,
0001
1000
0001
0000
1000
0100
1000
0000
,
0001
0010
0100
0010
0001
1000
0001
0000
,
1000
0001
0100
0000
0010
0100
0001
0000
,
1000
0000
0100
0000
0010
0000
0001
0000
1000
0000
0000
0001
0000
0000
1000
0000
,
0000
0001
0000
0000
2002
0000
0000
0000
0000
0000
0000
0000
3003
0000
0000
0000
,
2002
0000
0000
0000
,
0003
0000
3020
0000
,
0230
0000
0000
0000
,
0000
0000
0320
0230
,
0302
0000
0000
0000
,
0000
0000
2003
0000
,
3001
1000
0200
0000
0000
0000
0000
0000
,
0000
0000
0320
0000
,
0031
0000
0000
0000
0000
0000
0000
1000
0000
2000
0000
0000
0000
0000
0000
0000
,
0000
0000
0000
0000
0000
0000
0000
0010
0000
3020
0000
0000
0000
0000
0000
0000
,
0230
0000
0000
0000
0000
0000
0000
0001
0000
0302
0000
0000
0000
0000
0000
0000
,
0000
0000
0000
0000
0000
0000
0000
1000
0000
2003
0000
0000
3200
0000
0000
0000
,
0320
0000
0000
0000
0000
0000
0000
0001
0000
0032
0000
0000
0000
0000
0000
0000
,
0000
0000
0000
0000
0000
0000
0000
1000
0000
2003
0000
0000
0000
0000
0000
0000
,
3020
0000
0000
0000
,
0130
0000
0000
0010
0000
0000
0100
0000
0000
0010
0000
0000
0100
0000
0000
0000
,
1001
0000
1000
0000
0001
0010
0001
0000
,
1000
0000
0010
0000
0100
0000
0001
0000
0100
0000
0000
0001
0000
0000
1000
0000
,
0100
0010
0100
0000
0010
0001
0010
0000
,
0001
0000
1000
0000
0010
0000
0100
0000
0010
0000
0000
1000
0000
0000
0001
0000
,
1000
0000
0000
1010
0000
0000
0010
0000
0100
0000
0000
0101
0000
0000
0001
0000
,
1000
0000
0000
1100
0000
0000
0100
0000
0010
0000
0000
0011
0000
0000
0001
0000
,
1000
0010
0100
0001
0010
0001
1000
0100
,
0010
0001
0010
0001
0000
0000
1000
0001
1000
0001
0000
0000
,
1000
0010
0100
0001
0010
0001
1000
0100
,
0001
0100
1000
0010
0100
0001
1000
0010
,
1000
0000
0101
0000
0001
0000
1000
0100
,
0010
0000
0100
0000
0010
0000
0000
0001
0000
0000
1000
0000
0000
0001
0000
0000
,
1000
0000
0001
0000
1000
0000
0001
0000
0010
0000
0000
0110
0000
0000
0000
0000
,
0100
0000
0010
0000
0001
0000
1000
0000
0001
0000
0000
0100
0000
0000
0010
0000
,
0000
1000
0000
0000
2002
0000
0000
0000
0000
0000
0000
0000
0000
0000
0000
0000
,
3003
0000
0000
0220
0000
0000
0000
0000
0000
0000
0000
0000
0000
0000
0000
0000
,
0000
0000
0000
0000
,
0000
0000
0000
0000
,
0000
0000
0000
0000
,
0000
0000
0000
0000
0000
0000
0330
0110
;

//---------------dance-single - ----------------
#NOTES:
     dance-single:
     :
     Easy:
     4:
     0.233,0.264,0.108,0.368,0.000: // measure 1
1000
0001
0100
0010
,  // measure 2
2000
0000
3002
0000
,  // measure 3
0103
0001
0010
0100
,  // measure 4
0020
0000
0032
0000
,  // measure 5
1003
0001
2002
0000
,  // measure 6
0000
0000
0000
3003
,  // measure 7
0220
0000
0000
0330
,  // measure 8
0010
1000
0100
0010
,  // measure 9
0220
0000
0000
0330
,  // measure 10
0100
0010
0001
1000
,  // measure 11
2002
0000
0000
3003
,  // measure 12
0001
1000
0010
0100
,  // measure 13
0220
0000
0000
0330
,  // measure 14
0010
1000
0100
0010
,  // measure 15
0001
1000
2002
0000
,  // measure 16
0000
0000
0000
3003
,  // measure 17
1001
1000
0010
0100
,  // measure 18
0001
0010
0100
0100
,  // measure 19
0010
0001
0100
0010
,  // measure 20
1000
0001
0100
0100
,  // measure 21
0010
1000
0100
0000
,  // measure 22
0010
0001
0220
0000
,  // measure 23
0000
0330
0000
0000
,  // measure 24
2002
0000
0000
0000
,  // measure 25
0003
0000
3200
0000
,  // measure 26
0320
0000
0000
0000
,  // measure 27
0000
0000
0032
2003
,  // measure 28
3020
0000
0000
0000
,  // measure 29
0000
0000
2030
0000
,  // measure 30
3001
0002
0000
0000
,  // measure 31
0000
0000
0203
0000
,  // measure 32
0320
0000
0000
0000
,  // measure 33
0000
0000
2030
0000
,  // measure 34
3200
0000
0000
0000
,  // measure 35
0000
0000
0320
0032
,  // measure 36
2003
0000
0000
0000
,  // measure 37
0000
0000
3020
0000
,  // measure 38
0230
0000
0000
0000
,  // measure 39
0002
0000
0000
0303
,  // measure 40
1001
1000
0100
0001
,  // measure 41
0100
1000
0001
1000
,  // measure 42
0001
0001
0100
0010
,  // measure 43
1000
0100
0010
0010
,  // measure 44
0100
0000
0010
0000
,  // measure 45
0001
0000
1000
0000
,  // measure 46
0001
0100
0010
1000
,  // measure 47
0001
1000
0001
0100
,  // measure 48
0010
0000
0100
0001
,  // measure 49
1000
0100
0010
0100
,  // measure 50
0010
0000
0001
1000
,  // measure 51
0010
0100
0001
0010
,  // measure 52
0001
1000
0100
0100
,  // measure 53
0010
0001
2002
0000
,  // measure 54
0000
3003
0000
0000
,  // measure 55
0000
0220
0000
0000
0000
0000
0000
0000
,  // measure 56
0000
0000
0000
0000
,  // measure 57
0000
0000
0000
0000
,  // measure 58
0000
0000
0000
0000
,  // measure 59
0000
0000
0000
0000
0000
0000
0000
0330
;

//---------------dance-single - ----------------
#NOTES:
     dance-single:
     :
     Beginner:
     1:
     0.113,0.146,0.063,0.000,0.000: // measure 1
1000
0000
0001
0000
,  // measure 2
0100
0000
0000
0000
,  // measure 3
0010
0000
0100
0000
,  // measure 4
0001
0000
1000
0000
,  // measure 5
0100
0000
0000
0000
,  // measure 6
0010
0000
0000
0000
,  // measure 7
1001
0000
0000
0000
,  // measure 8
0001
0000
1000
0000
,  // measure 9
0010
0000
0000
0000
,  // measure 10
0100
0000
0010
0000
,  // measure 11
1000
0000
0010
0000
,  // measure 12
0100
0000
0001
0000
,  // measure 13
1000
0000
0000
0000
,  // measure 14
0001
0000
0010
0000
,  // measure 15
0100
0000
0010
0000
,  // measure 16
0001
0000
0000
0000
,  // measure 17
1001
0000
0001
0000
,  // measure 18
0100
0000
0010
0000
,  // measure 19
0100
0000
0001
0000
,  // measure 20
1000
0000
0100
0000
,  // measure 21
0010
0000
0000
0000
,  // measure 22
0100
0000
0110
0000
,  // measure 23
0000
1001
0000
0000
,  // measure 24
0001
0000
0000
0000
,  // measure 25
0000
0000
0001
0000
,  // measure 26
0100
0000
0000
0000
,  // measure 27
0000
0000
0100
0010
,  // measure 28
0100
0000
0000
0000
,  // measure 29
0000
0000
0010
0000
,  // measure 30
1000
0000
0000
0000
,  // measure 31
0000
0000
1000
0000
,  // measure 32
0001
0000
0000
0000
,  // measure 33
0000
0000
0000
0000
,  // measure 34
1000
0000
0000
0000
,  // measure 35
0000
0000
0000
0000
,  // measure 36
0100
0000
0000
0000
,  // measure 37
0000
0000
0000
0000
,  // measure 38
0010
0000
0000
0000
,  // measure 39
1001
0000
0000
0000
,  // measure 40
1000
0000
0001
0000
,  // measure 41
0100
0000
0010
0000
,  // measure 42
0100
0000
0010
0000
,  // measure 43
1000
0000
0001
0000
,  // measure 44
1000
0000
1000
0000
,  // measure 45
0100
0000
0100
0000
,  // measure 46
0010
0000
0010
0000
,  // measure 47
0001
0000
0001
0000
,  // measure 48
1000
0000
0001
0000
,  // measure 49
0100
0000
0010
0000
,  // measure 50
1000
0000
0100
0000
,  // measure 51
1000
0000
0100
0000
,  // measure 52
0010
0000
0001
0000
,  // measure 53
0010
0000
0001
0000
,  // measure 54
0000
1001
0000
0000
,  // measure 55
0000
0110
0000
0000
0000
0000
0000
0000
;
