#TITLE:werewolf howls.;
#SUBTITLE:;
#ARTIST:Camellia;
#TITLETRANSLIT:;
#SUBTITLETRANSLIT:;
#ARTISTTRANSLIT:;
#CREDIT:;
#BANNER:;
#BACKGROUND:;
#LYRICSPATH:;
#CDTITLE:;
#MUSIC:werewolf howls.mp3;
#OFFSET:-0.020;
#SAMPLESTART:19.470;
#SAMPLELENGTH:12.970;
#SELECTABLE:YES;
#BPMS:0.000=111.000,20.000=222.000,244.000=111.000,260.000=222.000;
#STOPS:;
#BGCHANGES:;

//---------------dance-single - ----------------
#NOTES:
     dance-single:
     :
     Hard:
     12:
     1.000,1.000,0.857,0.479,0.731: // measure 1
0000
0000
0000
0000
,  // measure 2
0000
0000
0100
0000
,  // measure 3
0000
0000
0100
0000
,  // measure 4
0000
0000
0100
0000
,  // measure 5
0000
0000
0000
0000
0000
0000
0000
0000
2002
0000
0000
0000
0000
0000
0000
3003
,  // measure 6
1001
0001
0100
0010
0100
0001
0010
0000
,  // measure 7
0001
0010
0001
1000
1100
0000
1001
0000
,  // measure 8
0101
0100
0110
0010
1000
0001
0010
0000
,  // measure 9
0100
0000
0000
0010
0000
0000
0001
0000
0000
1000
0000
0000
0010
0000
1000
0000
0010
0000
0100
0000
0000
0000
0000
0000
,  // measure 10
0010
1000
1001
0001
0010
0001
1001
1000
,  // measure 11
0100
0010
0011
0001
1000
1001
1001
0000
,  // measure 12
0001
0000
0100
0000
1000
0000
0100
0000
0001
0100
0010
1000
0100
0010
0001
1000
,  // measure 13
0100
0010
0100
0010
0100
0010
1001
0000
,  // measure 14
1000
0100
1000
0000
0001
0000
0100
0000
0010
0100
0010
0000
1000
0000
0001
0000
,  // measure 15
1000
0100
0001
0100
1000
0100
0001
0100
,  // measure 16
1000
0100
0010
0000
0100
0000
0010
0000
0001
0100
0010
0000
0100
0000
0010
0000
,  // measure 17
1000
0000
0010
0000
0100
0000
1000
0000
0100
0000
0001
1000
0001
0000
1000
0000
,  // measure 18
0001
0010
0001
0000
1000
0000
0100
0000
1000
0100
1000
0000
0001
0000
0100
0000
,  // measure 19
0010
0100
0001
0010
0100
0010
0001
1000
,  // measure 20
0001
1000
0001
0000
1000
0000
0010
0000
0100
0010
1000
0000
0001
0000
1000
0000
,  // measure 21
0100
0000
0010
0000
0100
0000
1000
0000
0001
0000
1000
0001
1000
0001
1000
0000
,  // measure 22
0001
0000
0100
0001
0100
0000
0010
0000
1000
0000
1000
0000
0100
0010
0100
0000
,  // measure 23
1000
0000
0010
1000
0001
0000
0100
0000
0001
0000
0100
0000
0001
0010
0001
0000
,  // measure 24
1000
0000
0000
0000
0100
0000
0000
0000
0010
0000
0000
0000
0001
0000
0000
0000
0000
0000
0100
0000
0000
0000
0000
0000
0010
0000
0000
0100
0000
0000
0010
0000
0000
0000
0000
0000
1000
0000
0000
0001
0000
0000
1000
0000
0000
0000
0000
0000
,  // measure 25
0001
0000
1000
0000
0100
0000
0010
0001
0010
0000
0001
0100
0010
1000
0010
0000
,  // measure 26
0100
0001
0100
0000
0010
0000
0110
0000
0000
0000
1010
0000
1000
0000
1100
0000
,  // measure 27
0000
0000
0101
0000
1001
0000
0000
0000
1000
0000
0100
0000
1000
0001
1000
0001
,  // measure 28
0100
0101
0110
1001
,  // measure 29
1000
0100
0001
0010
1000
0001
1001
0000
,  // measure 30
0101
0000
0000
0101
0000
0000
0110
0000
0000
0110
0000
0000
0010
0000
1000
0000
,  // measure 31
1001
0000
0000
1001
0000
0000
0011
0000
0010
0000
0110
0000
0000
1100
0000
0000
,  // measure 32
1001
0000
0000
1001
0000
0000
0101
0000
0000
0101
0000
0000
0020
0000
0030
0000
,  // measure 33
1000
0000
0100
0000
0010
0000
0001
1000
0001
0000
0100
0000
0220
0000
0330
0000
,  // measure 34
1010
0000
0000
1001
0000
0000
1100
0000
0000
1001
0000
0000
0001
0000
0100
0000
,  // measure 35
0101
0000
0000
0011
0000
0000
0110
0000
0010
0000
0011
0000
0000
1001
0000
0000
,  // measure 36
1000
0000
0000
1010
0000
0000
0010
0000
0100
0000
0000
0101
0000
0000
0001
0000
,  // measure 37
1000
0000
0100
0000
0010
0000
0001
0000
1000
0001
1000
0002
0103
0000
0000
0000
,  // measure 38
2001
0000
0000
0000
0100
0100
0100
0000
,  // measure 39
0001
0001
0001
0000
3100
0000
0000
0000
,  // measure 40
0012
0010
0010
0000
1000
1000
1000
0000
,  // measure 41
0100
0100
0100
0000
1003
0000
0000
0000
,  // measure 42
1000
0100
1000
0100
1000
0000
0000
0000
0001
0010
0001
0010
0001
0000
0000
0000
,  // measure 43
1000
0010
1000
0010
1000
0000
0000
0000
0002
0000
0200
0000
0303
0000
0000
0000
,  // measure 44
0001
1000
0001
1000
0001
0000
0000
0000
1000
0100
0010
0001
0100
0010
1000
0010
,  // measure 45
1000
0100
1000
0001
1001
1001
1001
0000
,  // measure 46
0001
0100
0010
0000
1000
0000
1100
0000
0000
0000
0110
0000
0000
0000
1100
0000
,  // measure 47
1000
0001
1000
0000
0001
0000
0101
0000
0000
0000
0110
0000
0000
0000
0101
0000
,  // measure 48
0001
0100
0010
0000
0100
0000
0110
0000
0000
0000
1001
0000
0000
0000
1100
0000
,  // measure 49
0010
0001
0010
0000
0001
0000
1000
0000
0010
1000
0010
0000
0100
0000
0001
0000
,  // measure 50
1000
0100
0010
0000
0100
0000
0020
0000
0130
0000
0020
0000
0031
0000
0020
0000
,  // measure 51
0130
0010
0001
0000
1000
0000
0020
0000
0130
0000
0020
0000
0031
0000
0020
0000
,  // measure 52
0130
0010
1000
0000
0100
0000
0020
0000
1030
0000
0020
0000
0031
0000
0020
0000
,  // measure 53
0130
0000
0010
0000
0001
0000
1000
0000
0010
0100
0010
0000
1000
0000
0001
0000
,  // measure 54
1000
0000
0010
0000
0110
0000
0100
0000
0010
1000
0010
0000
0100
0001
0100
0000
,  // measure 55
0001
0010
0001
0000
1000
0000
0100
0000
1000
0100
1000
0000
0001
0010
0001
0000
,  // measure 56
1000
0000
0000
0001
0000
0000
1000
0000
0100
0000
0010
0000
0100
0000
1000
0000
0100
0000
0010
0000
0000
0011
0000
0000
,  // measure 57
0001
0101
0100
0110
0010
1010
1000
1001
,  // measure 58
0202
0000
0000
0303
0001
0000
1000
0100
1000
0000
0100
0010
0001
0000
1000
0000
,  // measure 59
2020
0000
0000
0000
0000
0000
0000
0000
0000
3030
0000
0000
1000
0000
0000
0000
0000
0000
0010
0000
0000
0000
0000
0000
0100
0000
0000
0000
1000
0000
0000
0000
0100
0000
0000
0000
0010
0000
0000
0000
0000
0000
1000
0000
0000
0000
0000
0000
,  // measure 60
2002
0000
0000
3003
1000
0000
0100
0000
0010
0000
0011
0000
0000
0000
1001
0000
,  // measure 61
1000
0100
1000
0000
0001
0000
1000
0000
0010
0000
0010
0000
0110
0000
0000
0000
,  // measure 62
2000
0000
0000
3200
0000
0000
0320
0000
0032
0000
0000
0203
0000
0000
0320
0000
,  // measure 63
0230
0000
0000
2300
0000
0000
3200
0000
0302
0000
0000
2003
0000
0000
3200
0000
,  // measure 64
2300
0000
0000
3002
0000
0000
0203
0000
0302
0000
0000
0023
0000
0000
0230
0000
,  // measure 65
1300
0100
1000
0100
0010
0001
0010
0001
1000
0010
0100
0001
1000
0010
0100
0001
2000
0000
0000
0000
0000
0000
0000
0000
3010
0100
0010
0100
0001
0100
0001
1000
,  // measure 66
0001
0000
0100
0001
0100
0000
0010
0000
1000
0001
1000
0000
0100
0000
0010
0000
,  // measure 67
0001
0000
1000
0000
0010
0000
0100
0000
0001
0000
1000
0000
0001
1000
0001
1000
,  // measure 68
0100
0000
0010
0001
0010
0000
0001
0000
1000
0010
1000
0000
0001
0000
0200
0000
,  // measure 69
0300
0000
0010
0100
0010
0100
0001
0000
1000
0000
0001
1000
0001
1000
0100
0000
,  // measure 70
1000
0100
0010
0000
0100
0000
0010
0000
0001
1000
0001
0000
0100
0010
0100
0000
,  // measure 71
0001
0100
0010
0000
1000
0000
0001
0000
1000
0100
1000
0000
0001
0100
0002
0000
,  // measure 72
0000
1003
0100
0001
0100
1000
0010
0100
,  // measure 73
0010
0000
0100
0000
0001
0000
1000
0000
0001
0020
0100
0000
0100
0000
0130
0000
,  // measure 74
0010
0000
0001
1000
0001
0000
0100
0000
0001
1000
0001
0000
1000
0000
1100
0000
,  // measure 75
0000
0000
1001
0000
0000
0000
0101
0000
0000
0000
0110
0000
0010
1000
0010
0000
,  // measure 76
1000
0000
0100
0010
0001
0000
1000
0000
0010
0100
0001
0000
1000
0000
1100
0000
,  // measure 77
0000
0000
1000
0100
0010
0100
1000
0000
0001
0000
0100
0010
1000
0010
0100
0000
,  // measure 78
0010
0000
0100
0001
1000
0000
0010
0000
1000
0100
0010
0100
0010
0001
1000
0000
,  // measure 79
0001
0000
0100
0010
1000
0000
0001
0000
1000
0100
1000
0100
0010
0001
0020
0000
,  // measure 80
0000
0032
0000
0203
0000
0310
0100
1002
,  // measure 81
1000
0000
0000
0000
0000
0000
0103
0000
0010
1000
0001
1000
0001
1000
0100
1000
,  // measure 82
0100
0000
0010
0000
0001
0000
0100
0000
0010
1000
0010
0000
0100
0000
0001
0000
,  // measure 83
1000
0100
1000
0000
0100
0010
0100
0000
0010
0001
0010
0000
0001
1000
0001
0000
,  // measure 84
1000
0000
0010
0000
0100
0000
0001
0000
1000
0100
1000
0000
0001
0000
0100
0000
,  // measure 85
0001
0100
0010
0000
0100
0010
1000
0000
0010
1000
0001
0000
1000
0001
0010
0000
,  // measure 86
0001
0000
0010
0000
0100
0000
0010
0000
0001
1000
0001
0000
1000
0000
0001
0000
,  // measure 87
1000
0010
0100
0000
0100
0010
1000
0000
1000
0001
0010
0000
0010
0001
1000
0000
,  // measure 88
0001
0000
1000
0000
0100
0000
0010
0000
0100
0010
0100
0000
0010
0000
0001
0000
,  // measure 89
1000
0001
1000
0000
0001
0000
0100
0000
0010
0000
0010
0000
0220
0000
0330
0000
,  // measure 90
0101
0000
0000
0101
0000
0000
0110
0000
0110
0000
0000
0000
0010
0000
1000
0000
,  // measure 91
1010
0000
0000
1001
0000
0000
1100
0000
0100
0000
0110
0000
0000
0011
0000
0000
,  // measure 92
0101
0000
0000
1001
0000
0000
1100
0000
0000
0110
0000
0000
2002
0000
3003
0000
,  // measure 93
0010
0000
0100
0000
0001
0000
0010
0001
1000
0000
0001
0000
1000
0000
0100
0000
,  // measure 94
1100
0000
0000
0110
0000
0000
1100
0000
0000
0110
0000
0000
0010
0000
0001
0000
,  // measure 95
0101
0000
0000
0110
0000
0000
0101
0000
0100
0000
0110
0000
0000
1010
0000
0000
,  // measure 96
1000
0000
0100
1000
0001
0000
0010
0000
0001
0000
1000
0001
0100
0000
0002
0000
,  // measure 97
1000
0000
1000
0000
1000
0000
1003
0000
1000
0100
0010
0001
0200
0000
0000
0000
,  // measure 98
0300
0000
0000
0000
;

//---------------dance-single - ----------------
#NOTES:
     dance-single:
     :
     Medium:
     9:
     0.742,0.734,0.361,0.277,0.168: // measure 1
0000
0000
0000
0000
,  // measure 2
0000
0000
0100
0000
,  // measure 3
0000
0000
0100
0000
,  // measure 4
0000
0000
0100
0000
,  // measure 5
0000
0000
0100
0000
,  // measure 6
2002
0000
0000
0000
,  // measure 7
3003
0000
0000
0000
,  // measure 8
0110
0220
0000
0000
,  // measure 9
0330
0000
0000
0000
0000
0000
0100
0010
0100
0010
0000
0000
,  // measure 10
0100
0110
0010
1010
,  // measure 11
1000
0000
1001
0000
0001
0010
0011
0000
,  // measure 12
1100
0000
1100
0000
1000
0001
1000
0001
,  // measure 13
0200
0000
0000
0300
,  // measure 14
0010
0100
0010
0100
0001
0100
0001
0000
,  // measure 15
1000
0100
1000
0100
0010
0100
0010
0000
,  // measure 16
0001
1000
0001
1000
0010
0100
0001
0010
,  // measure 17
0100
0010
0001
1000
0010
1000
0010
0000
,  // measure 18
0100
0001
0100
1000
0100
0010
0100
0000
,  // measure 19
0010
1000
0001
0100
0001
0010
0100
0000
,  // measure 20
0010
0001
1000
0100
0001
0100
1000
0010
,  // measure 21
0100
0001
0010
0001
1000
1000
1000
0000
,  // measure 22
0001
0100
0100
0001
1000
0100
0010
0001
,  // measure 23
1000
0100
0100
1000
0001
0100
0010
1000
,  // measure 24
0001
0000
1000
0000
0001
0000
1000
0000
0000
0001
0000
0000
0100
0000
0000
0100
0000
0000
0010
0000
0000
0010
0000
0000
,  // measure 25
1000
0100
0010
0001
0100
0010
0100
0000
,  // measure 26
0001
1000
0100
0010
0000
0011
0000
0101
,  // measure 27
0000
1000
1100
0000
1000
0001
1000
0001
,  // measure 28
0100
0110
1010
1001
,  // measure 29
1000
0100
0010
0001
0100
0010
1001
0000
,  // measure 30
1000
0000
0000
0100
0000
0000
1000
0000
0000
0100
0000
0000
0010
0000
0001
0000
,  // measure 31
1000
0000
0000
0001
0000
0000
0100
0000
0001
0000
1000
0000
0000
0001
0000
0000
,  // measure 32
0010
0000
0000
0100
0000
0000
0010
0000
0000
0001
0000
0000
2002
0000
3003
0000
,  // measure 33
1000
0100
1000
0001
1000
0010
0200
0300
,  // measure 34
0010
0000
0000
0100
0000
0000
0010
0000
0000
1000
0000
0000
0001
0000
0010
0000
,  // measure 35
0001
0000
0000
1000
0000
0000
0100
0000
0010
0000
0100
0000
0000
0010
0000
0000
,  // measure 36
0001
0000
0000
0011
0000
0000
0001
0000
1000
0000
0000
1010
0000
0000
0010
0000
,  // measure 37
0100
0010
1000
0001
0010
0010
0010
0000
,  // measure 38
2001
0000
0100
0000
,  // measure 39
0001
0000
0010
0000
,  // measure 40
3002
0000
0010
0000
,  // measure 41
1000
0000
0100
0000
,  // measure 42
1003
0100
1000
0000
0001
0010
0001
0000
,  // measure 43
1000
0010
0100
0000
0020
0100
0030
0000
,  // measure 44
1000
0100
1000
0000
0001
0100
0001
1000
,  // measure 45
0200
0000
0000
0000
0010
0010
0310
0000
,  // measure 46
0001
0100
0010
0200
0000
0010
0000
0301
,  // measure 47
1000
0100
0010
0200
0000
0010
0000
1300
,  // measure 48
0001
1000
0100
0020
0000
0001
0000
0130
,  // measure 49
0010
0001
1000
0010
0100
0001
0100
0010
,  // measure 50
1000
0001
1000
0200
0000
0001
0000
1300
,  // measure 51
0001
1000
0010
0200
0000
1000
0000
0301
,  // measure 52
0010
0001
1000
0020
0000
0001
0000
1030
,  // measure 53
0100
0001
1000
0010
0001
1000
0010
0000
,  // measure 54
1000
0000
0101
0000
0010
1000
0100
0010
,  // measure 55
0100
0000
0011
0000
0001
1000
0001
1000
,  // measure 56
0010
0000
0000
0000
0000
0000
0100
0000
0010
0000
0100
0000
0010
0000
0100
0000
0010
0000
0100
0000
0000
0010
0000
0000
,  // measure 57
1000
0000
0001
0010
0001
0010
0001
0000
,  // measure 58
0100
0000
1001
0000
0001
0100
0010
1000
,  // measure 59
0100
0000
0000
0000
0000
0000
1001
0000
0000
0000
0000
0000
0010
0000
0001
0000
0010
0000
0001
0000
0000
0100
0000
0000
,  // measure 60
0010
0000
1001
0000
0000
1100
0000
0001
,  // measure 61
0100
0010
0100
0001
0100
0010
0100
0000
,  // measure 62
1002
0000
0100
0000
,  // measure 63
2003
0000
0100
0000
,  // measure 64
3002
0000
0100
0000
,  // measure 65
1003
0100
0010
0001
0100
0010
0100
0010
0200
0000
0000
0000
0300
0000
0000
0000
,  // measure 66
0001
0100
0001
1000
0000
1100
0000
1001
,  // measure 67
0000
0101
0000
0011
0000
0010
0100
0010
,  // measure 68
0001
1000
0010
0100
0000
0010
0100
0001
,  // measure 69
0000
1000
0100
0001
0100
0010
0100
1000
,  // measure 70
0100
0010
0001
2000
0000
3010
0100
0001
,  // measure 71
0010
0100
0010
0002
0000
1003
0001
0100
,  // measure 72
0010
0100
0010
0100
0001
1000
0001
1000
,  // measure 73
0000
1000
0100
0000
0010
0001
0010
0001
,  // measure 74
1000
0010
0100
0001
0000
0001
0100
0010
,  // measure 75
0000
0110
0000
1001
0000
0110
0000
0010
,  // measure 76
0001
1000
0100
0010
0100
1000
0001
0100
,  // measure 77
0000
0010
1000
0100
0010
0001
1000
0001
,  // measure 78
1000
0010
1000
0002
0000
1003
0100
1000
,  // measure 79
0100
0010
0001
2000
0000
3100
0010
0001
,  // measure 80
0000
0101
0000
0110
0000
1100
0000
0220
,  // measure 81
0000
0330
0000
2002
0000
0000
3003
0000
,  // measure 82
1000
0100
1000
0100
0010
0100
1000
0000
,  // measure 83
0001
0100
0001
0100
0010
0100
0001
0000
,  // measure 84
1000
0100
0010
0100
0010
0001
1000
0010
,  // measure 85
0100
0010
1000
0001
1000
0100
1000
0000
,  // measure 86
0001
0010
0100
0010
0001
0010
0001
0000
,  // measure 87
1000
0010
0100
0010
1000
0001
1000
0000
,  // measure 88
0001
0010
0001
1000
0001
0100
0010
0100
,  // measure 89
0001
1000
0010
0100
0010
1000
0001
0000
,  // measure 90
1000
0000
0000
0100
0000
0000
1000
0000
0000
0010
0000
0000
0100
0000
0001
0000
,  // measure 91
0100
0000
0000
0001
0000
0000
1000
0000
0001
0000
0000
0010
0000
0000
0100
0000
,  // measure 92
0010
0000
0000
0001
0000
0000
1000
0000
0000
0001
0000
0000
2002
0000
3003
0000
,  // measure 93
0001
0100
0010
0100
0010
0000
1001
0000
,  // measure 94
0001
0000
0000
0010
0000
0000
0001
0000
0000
1000
0000
0000
0001
0000
0100
0000
,  // measure 95
0010
0000
0000
0100
0000
0000
0010
0000
0010
0000
0000
1000
0000
0000
0001
0000
,  // measure 96
1000
0000
0000
1100
0000
0000
1000
0000
0001
0000
0000
0101
0000
0000
0001
0000
,  // measure 97
1000
0000
0001
0000
1000
0000
0001
0000
1000
0001
1000
0001
2000
0000
0000
0000
,  // measure 98
3000
0000
0000
0000
;

//---------------dance-single - ----------------
#NOTES:
     dance-single:
     :
     Easy:
     7:
     0.532,0.652,0.361,0.387,0.000: // measure 1
0000
0000
0000
0000
,  // measure 2
0000
0000
0100
0000
,  // measure 3
0000
0000
0100
0000
,  // measure 4
0000
0000
0100
0000
,  // measure 5
0000
0000
0100
0000
,  // measure 6
1001
0000
0000
0000
,  // measure 7
0000
0000
0000
0000
,  // measure 8
1001
1001
0000
0000
,  // measure 9
0000
0000
0100
0110
,  // measure 10
0010
0110
0100
0101
,  // measure 11
0001
1001
1000
1001
,  // measure 12
1001
1001
0110
0110
,  // measure 13
2002
0000
0000
3003
,  // measure 14
1001
0000
0100
0000
1000
0100
1000
0000
,  // measure 15
0001
0000
0100
0000
0010
0100
0010
0000
,  // measure 16
1000
0010
1000
0000
0001
0100
0001
0000
,  // measure 17
0010
0000
0001
0000
1000
0100
0010
0001
,  // measure 18
0010
0000
0001
0000
1000
0010
1000
0000
,  // measure 19
0001
0000
0100
0000
0001
1000
0100
0000
,  // measure 20
0010
0001
0100
0000
0010
1000
0001
0000
,  // measure 21
1000
0000
0100
0000
0010
0001
0010
0000
,  // measure 22
0001
1000
0001
0000
1000
0000
0100
0000
,  // measure 23
1000
0100
1000
0000
0100
0000
0010
0000
,  // measure 24
0001
1001
0010
0100
,  // measure 25
0010
1000
0010
0000
0100
0001
0100
0000
,  // measure 26
0001
0000
1000
0100
0000
1100
0000
1001
,  // measure 27
0000
0001
1000
0000
0001
0100
0001
0000
,  // measure 28
1000
0100
1000
0001
,  // measure 29
0100
0010
0100
0010
0100
0010
0100
0000
,  // measure 30
2002
0000
0000
3003
,  // measure 31
0220
0000
0000
0330
,  // measure 32
2002
0000
0000
3003
,  // measure 33
1000
0000
0100
0000
0010
0001
0010
0000
,  // measure 34
2002
0000
0000
3003
,  // measure 35
0220
0000
0000
0330
,  // measure 36
2002
3003
0220
0330
,  // measure 37
1001
0000
0110
0000
0001
1000
0001
0000
,  // measure 38
2002
0000
0000
0000
,  // measure 39
0000
0000
0000
0000
,  // measure 40
0000
0000
0000
0000
,  // measure 41
0000
0000
3003
0000
,  // measure 42
1000
0100
0010
0100
,  // measure 43
1000
0001
0100
0010
,  // measure 44
0100
0000
0001
0000
1000
0001
1000
0002
,  // measure 45
2000
0000
0000
3003
,  // measure 46
0001
0100
0010
0000
0100
0000
0001
0000
,  // measure 47
1000
0100
0010
0000
0100
0000
1000
0000
,  // measure 48
0001
0100
0001
0000
1000
0000
0100
0000
,  // measure 49
1000
0100
0010
0001
,  // measure 50
1000
0010
1000
0000
0001
0000
0100
0000
,  // measure 51
0010
1000
0100
0000
0010
0000
0100
0000
,  // measure 52
0010
0001
1000
0000
0001
0000
0100
0000
,  // measure 53
0010
0100
0001
1000
,  // measure 54
0100
0000
1001
0000
1000
0001
1000
0000
,  // measure 55
0001
0000
0100
0000
0010
0100
0010
0000
,  // measure 56
1000
0002
0010
1003
,  // measure 57
0001
0000
0100
0000
0010
1000
0001
0000
,  // measure 58
1000
0000
1100
0000
0100
0010
0100
0000
,  // measure 59
0001
0000
1001
0000
1000
0001
1000
0000
,  // measure 60
0001
0000
0110
0000
0000
0110
0000
1001
,  // measure 61
0000
0000
0001
0000
1000
0001
1000
0000
,  // measure 62
1002
0000
0100
0000
,  // measure 63
2003
0000
0100
0000
,  // measure 64
3002
0000
0100
0000
,  // measure 65
2000
0000
3003
0000
,  // measure 66
1000
0000
0100
0000
1000
0000
0001
0100
,  // measure 67
0000
0010
0000
0100
0000
0001
0000
0010
,  // measure 68
0100
0000
0010
0000
0001
0000
1000
0010
,  // measure 69
0000
0100
0010
0000
1000
0001
1000
0000
,  // measure 70
0001
0000
1000
0100
0000
1000
0100
0000
,  // measure 71
0010
0000
0001
1000
0000
0001
1000
0002
,  // measure 72
0000
0010
0000
1003
0000
0001
0100
0001
,  // measure 73
0000
1000
0100
0000
0010
0100
0010
0100
,  // measure 74
0010
0000
0001
1000
0000
0001
0100
0020
,  // measure 75
0000
0100
0000
1000
0000
0130
0000
0000
,  // measure 76
1001
0000
0001
0010
0000
0010
0001
1000
,  // measure 77
0000
0100
1000
0000
0001
0000
0100
0000
,  // measure 78
0010
0000
0100
0010
0000
1000
0001
0000
,  // measure 79
1000
0000
0001
0010
0000
0100
1000
0200
,  // measure 80
0000
0010
0000
1000
0000
0010
0000
0020
,  // measure 81
0000
0330
0000
2002
0000
0000
3003
0000
,  // measure 82
0001
0100
1000
0100
,  // measure 83
0001
1000
0001
0000
0010
0000
0100
0000
,  // measure 84
0010
0001
0100
0001
,  // measure 85
1000
0001
1000
0000
0100
0010
0100
0000
,  // measure 86
0010
0100
1000
0100
,  // measure 87
0010
0001
1000
0000
0001
0000
0100
0000
,  // measure 88
0010
0001
0010
1000
,  // measure 89
0001
1000
0001
0000
1000
0100
1000
0000
,  // measure 90
2002
0000
0000
3003
,  // measure 91
0220
0000
0000
0330
,  // measure 92
2002
0000
0000
3003
,  // measure 93
1000
0000
0100
0000
0010
0001
0010
0000
,  // measure 94
2002
0000
0000
3003
,  // measure 95
0220
0000
0000
0330
,  // measure 96
2002
3003
0220
0330
,  // measure 97
0001
1000
0001
1000
0001
1000
0002
0000
,  // measure 98
0003
0000
0000
0000
;

//---------------dance-single - ----------------
#NOTES:
     dance-single:
     :
     Beginner:
     4:
     0.251,0.325,0.261,0.000,0.000: // measure 1
0000
0000
0000
0000
,  // measure 2
0000
0000
0100
0000
,  // measure 3
0000
0000
0100
0000
,  // measure 4
0000
0000
0100
0000
,  // measure 5
0000
0000
0100
0000
,  // measure 6
1001
0000
0000
0000
,  // measure 7
0000
0000
0000
0000
,  // measure 8
1001
0000
0000
0000
,  // measure 9
0110
0000
0000
0000
,  // measure 10
0100
0000
0000
0000
,  // measure 11
0110
0000
0010
0000
,  // measure 12
1001
0000
1000
0000
,  // measure 13
1001
0000
0000
0000
,  // measure 14
0001
0000
0100
0000
,  // measure 15
0001
0000
1000
0000
,  // measure 16
0100
0000
0010
0000
,  // measure 17
0100
0000
1000
0000
,  // measure 18
0001
0000
0001
0000
,  // measure 19
1000
0000
1000
0000
,  // measure 20
0100
0000
0010
0000
,  // measure 21
1001
0000
0000
0000
,  // measure 22
1000
0000
0010
0000
,  // measure 23
1000
0000
0001
0000
,  // measure 24
0100
0000
0010
0000
,  // measure 25
0100
0000
0001
0000
,  // measure 26
1000
0000
0100
0000
,  // measure 27
0010
0000
0001
0000
,  // measure 28
0100
0100
0100
0100
,  // measure 29
0100
0000
0000
0000
,  // measure 30
0110
0000
0000
0000
,  // measure 31
1001
0000
0000
0000
,  // measure 32
0110
0000
0000
0000
,  // measure 33
1001
0000
0001
0000
,  // measure 34
1001
0000
0000
0000
,  // measure 35
0110
0000
0000
0000
,  // measure 36
1001
0000
1001
0000
,  // measure 37
0110
0000
0110
0000
,  // measure 38
1001
0000
0000
0000
,  // measure 39
0000
0000
0000
0000
,  // measure 40
0000
0000
0000
0000
,  // measure 41
0000
0000
0000
0000
,  // measure 42
1000
0000
0000
0000
,  // measure 43
0001
0000
0000
0000
,  // measure 44
0100
0000
0000
0000
,  // measure 45
1001
0000
0000
0000
,  // measure 46
0001
0000
0001
0000
,  // measure 47
1000
0000
1000
0000
,  // measure 48
0100
0000
0010
0000
,  // measure 49
0100
0000
0010
0000
,  // measure 50
0100
0000
0100
0000
,  // measure 51
0010
0000
0010
0000
,  // measure 52
0001
0000
1000
0000
,  // measure 53
0001
0000
0100
0000
,  // measure 54
0010
0010
0000
0000
,  // measure 55
0100
0000
0010
0000
,  // measure 56
1000
1000
0000
0000
,  // measure 57
0001
0000
0010
0000
,  // measure 58
0100
0100
0100
0000
,  // measure 59
0010
0010
0010
0000
,  // measure 60
0001
0001
0001
0000
,  // measure 61
1000
0000
0001
0000
,  // measure 62
1001
0000
0100
0000
,  // measure 63
0010
0000
0100
0000
,  // measure 64
0010
0000
0001
0000
,  // measure 65
1001
0000
0000
0000
,  // measure 66
0001
0000
0100
0000
,  // measure 67
0001
0001
0001
0001
,  // measure 68
0001
0000
0010
0000
,  // measure 69
0100
0100
0100
0100
,  // measure 70
0100
0000
0010
0000
,  // measure 71
0001
0000
1000
0000
,  // measure 72
0010
0000
1000
1000
,  // measure 73
1000
0000
1001
0000
,  // measure 74
0110
0000
0100
0100
,  // measure 75
0100
0000
0000
0000
,  // measure 76
0010
0000
1000
1000
,  // measure 77
1000
0000
0001
0000
,  // measure 78
1000
0000
0100
0000
,  // measure 79
0010
0010
0010
0000
,  // measure 80
0100
0000
0010
0000
,  // measure 81
1001
0000
0000
0000
,  // measure 82
0001
0000
0100
0000
,  // measure 83
0010
0010
0010
0010
,  // measure 84
0010
0000
1000
0000
,  // measure 85
0100
0100
0100
0100
,  // measure 86
0100
0000
0010
0000
,  // measure 87
0001
0001
0001
0001
,  // measure 88
0001
0000
1000
0000
,  // measure 89
0010
0010
0010
0010
,  // measure 90
0110
0000
0000
0000
,  // measure 91
1001
0000
0000
0000
,  // measure 92
0110
0000
0000
0000
,  // measure 93
0001
0000
1000
0000
,  // measure 94
1001
0000
0000
0000
,  // measure 95
0110
0000
0000
0000
,  // measure 96
1001
0000
1001
0000
,  // measure 97
0100
0100
0100
0100
;
