#TITLE:u gotta groove;
#SUBTITLE:-extend joy style-;
#ARTIST:dj nagureo remixed by Mr.T;
#TITLETRANSLIT:;
#SUBTITLETRANSLIT:;
#ARTISTTRANSLIT:;
#CREDIT:;
#BANNER:;
#BACKGROUND:;
#LYRICSPATH:;
#CDTITLE:;
#MUSIC:u gotta groove -extend joy style-.mp3;
#OFFSET:-0.020;
#SAMPLESTART:61.950;
#SAMPLELENGTH:15.480;
#SELECTABLE:YES;
#BPMS:0.000=124.000;
#STOPS:;
#BGCHANGES:;

//---------------dance-single - ----------------
#NOTES:
     dance-single:
     :
     Hard:
     6:
     0.379,0.365,0.199,0.298,0.050: // measure 1
0000
0000
0000
0000
,  // measure 2
0000
0000
0000
0000
,  // measure 3
0000
0000
0000
0000
,  // measure 4
0000
0000
0000
0000
,  // measure 5
2000
0000
0000
0000
0010
0000
0000
0020
0000
0000
0000
0000
3030
0000
0000
0000
,  // measure 6
0002
0000
0000
0000
0100
0000
0000
0200
0000
0000
0000
0000
0303
0000
0000
0000
,  // measure 7
0001
0000
0000
0000
1000
0000
0000
1000
0100
0000
0000
0000
0010
0000
0000
0000
,  // measure 8
0001
0000
0000
0000
0100
0000
0000
0100
0010
0000
0000
0000
0100
0000
0000
0000
,  // measure 9
0001
0000
1001
0000
1000
0100
1000
0000
,  // measure 10
0001
0000
0010
0000
0100
0010
0001
0000
,  // measure 11
0201
0000
0310
0000
0100
0000
0010
2000
,  // measure 12
0001
0002
0000
3003
,  // measure 13
0001
0000
0000
0000
0100
0000
0000
0020
0000
0000
0000
0000
1030
0000
0000
0000
,  // measure 14
0100
0000
1000
0000
0100
0000
0000
0020
0000
0000
0000
0000
0031
0000
0000
0000
,  // measure 15
1000
0000
0000
0000
0001
0000
0000
0201
0000
0000
0000
0000
0310
0000
0000
0000
,  // measure 16
0010
1000
0001
0000
1000
0001
1000
0000
,  // measure 17
0001
0000
0101
0000
1000
0100
0010
0000
,  // measure 18
0100
1000
0001
1000
0001
0000
0100
0000
,  // measure 19
0110
0000
0001
0000
1000
0100
0010
0000
,  // measure 20
0001
0010
0001
0100
0001
0000
1010
0000
,  // measure 21
1000
0100
0001
0000
0100
1000
0001
0000
,  // measure 22
0100
0001
0100
0000
0110
0000
1001
0000
,  // measure 23
0100
1001
0010
0101
,  // measure 24
0010
1000
0010
1000
0001
0100
0001
0000
,  // measure 25
2000
0000
0010
0000
0001
0001
3001
0000
,  // measure 26
1000
0100
0000
0000
1000
0000
0000
0000
0001
0000
0100
0000
0001
0000
0000
0000
,  // measure 27
0002
0000
0010
0000
1000
1000
1003
0000
,  // measure 28
0001
0100
0000
0000
0001
1000
0000
0000
1000
0000
0100
0000
0010
0000
0000
0000
,  // measure 29
0001
0010
0200
0000
0010
0000
1300
0000
,  // measure 30
1000
0010
0200
0000
0010
0000
0301
0000
,  // measure 31
1000
0010
2000
0000
0010
0000
3001
0000
,  // measure 32
0001
1001
0110
1001
,  // measure 33
0001
0100
0001
0000
0100
0000
0001
0000
,  // measure 34
2000
0010
0001
3100
,  // measure 35
1000
0100
0010
0000
0100
1000
0001
0000
,  // measure 36
0200
0010
0001
0310
,  // measure 37
0100
0010
1000
0000
0010
0100
0001
0000
,  // measure 38
2000
0010
0001
3010
,  // measure 39
0001
0100
0001
0000
0010
0001
0100
0000
,  // measure 40
1001
0010
2002
3003
,  // measure 41
1000
0010
1000
0001
0100
0000
0021
0000
,  // measure 42
0031
0010
0200
1300
,  // measure 43
0001
0010
0001
1000
0100
0000
1020
0000
,  // measure 44
1030
0010
0200
0310
,  // measure 45
0100
0010
1000
0001
0010
0000
2001
0000
,  // measure 46
3010
0100
0020
0130
,  // measure 47
0010
0100
0010
1000
0001
0000
1200
0000
,  // measure 48
2300
0010
0001
3100
,  // measure 49
2002
0000
0000
0000
,  // measure 50
3003
0000
0000
0000
;

//---------------dance-single - ----------------
#NOTES:
     dance-single:
     :
     Beginner:
     1:
     0.108,0.143,0.099,0.000,0.000: // measure 1
0000
0000
0000
0000
,  // measure 2
0000
0000
0000
0000
,  // measure 3
0000
0000
0000
0000
,  // measure 4
0000
0000
0000
0000
,  // measure 5
1001
0000
0000
0000
,  // measure 6
0001
0000
0100
0000
,  // measure 7
0010
0000
0000
0000
,  // measure 8
1000
0000
0100
0000
,  // measure 9
0110
0000
0000
0000
,  // measure 10
1001
0000
0000
0000
,  // measure 11
0110
0000
0000
0000
,  // measure 12
1000
0000
0001
0000
,  // measure 13
1001
0000
0000
0000
,  // measure 14
0001
0000
0100
0000
,  // measure 15
0001
0000
0000
0000
,  // measure 16
1001
0000
0000
0000
,  // measure 17
0100
0000
0100
0000
,  // measure 18
0010
0000
0000
0000
,  // measure 19
0010
0000
1000
0000
,  // measure 20
0001
0000
0000
0000
,  // measure 21
0010
0000
0010
0000
,  // measure 22
0001
0000
0000
0000
,  // measure 23
1000
0000
0001
0000
,  // measure 24
1001
0000
0000
0000
,  // measure 25
1001
0000
0000
0000
,  // measure 26
0001
0000
0100
0000
,  // measure 27
0010
0000
0000
0000
,  // measure 28
0100
0000
0001
0000
,  // measure 29
1000
0000
0000
0000
,  // measure 30
0100
0000
0010
0000
,  // measure 31
0001
0000
0000
0000
,  // measure 32
1000
0000
0001
0000
,  // measure 33
1001
0000
0000
0000
,  // measure 34
1000
0000
0010
0000
,  // measure 35
1000
0000
0000
0000
,  // measure 36
0001
0000
0100
0000
,  // measure 37
0001
0000
0000
0000
,  // measure 38
0100
0000
0010
0000
,  // measure 39
0100
0000
0000
0000
,  // measure 40
0010
0000
1000
0000
,  // measure 41
0001
0000
0000
0000
,  // measure 42
0001
0000
0001
0000
,  // measure 43
0001
0000
0000
0000
,  // measure 44
1000
0000
1000
0000
,  // measure 45
1000
0000
0000
0000
,  // measure 46
0100
0000
0010
0000
,  // measure 47
0100
0000
0010
0000
,  // measure 48
0001
0000
1000
0000
,  // measure 49
1001
0000
0000
0000
;

//---------------dance-single - ----------------
#NOTES:
     dance-single:
     :
     Easy:
     1:
     0.157,0.195,0.050,0.079,0.000: // measure 1
0000
0000
0000
0000
,  // measure 2
0000
0000
0000
0000
,  // measure 3
0000
0000
0000
0000
,  // measure 4
0000
0000
0000
0000
,  // measure 5
1000
0000
1000
0000
,  // measure 6
0001
0000
0001
0000
,  // measure 7
0100
0000
0100
0000
,  // measure 8
0010
0000
0010
0000
,  // measure 9
1000
0000
0000
0000
,  // measure 10
0001
0000
0000
0000
,  // measure 11
0100
0000
0010
0000
,  // measure 12
0100
0100
0100
0100
,  // measure 13
0100
0000
0010
0000
,  // measure 14
1000
0000
0001
0000
,  // measure 15
0010
0000
0001
0000
,  // measure 16
2002
0000
3003
0000
,  // measure 17
1001
0000
1000
0000
,  // measure 18
0100
0000
1000
1000
,  // measure 19
1000
0000
0001
0000
,  // measure 20
0100
0100
0100
0000
,  // measure 21
0010
0000
0100
0000
,  // measure 22
0001
0000
0010
0010
,  // measure 23
0010
0000
0001
0000
,  // measure 24
2002
0000
3003
0000
,  // measure 25
1000
0100
1000
0000
,  // measure 26
0001
0000
0100
0000
,  // measure 27
0001
0100
0001
0000
,  // measure 28
1000
0000
0010
0000
,  // measure 29
0100
0010
0100
0000
,  // measure 30
0010
0000
1000
0000
,  // measure 31
0001
0010
0001
0000
,  // measure 32
2002
0000
3003
0000
,  // measure 33
1000
0000
0100
0000
,  // measure 34
1000
0000
1000
0000
,  // measure 35
0001
0000
0100
0000
,  // measure 36
0001
0000
0001
0000
,  // measure 37
0010
0000
0100
0000
,  // measure 38
0010
0000
0010
0000
,  // measure 39
0001
0000
0100
0000
,  // measure 40
0010
0000
0010
0000
,  // measure 41
1000
0000
0100
0000
,  // measure 42
1000
1000
1000
0000
,  // measure 43
0001
0000
0100
0000
,  // measure 44
0010
0010
0010
0000
,  // measure 45
0100
0000
0001
0000
,  // measure 46
0010
0010
0010
0000
,  // measure 47
0100
0000
0010
0000
,  // measure 48
0001
0001
1000
1000
,  // measure 49
2002
0000
0000
0000
,  // measure 50
3003
0000
0000
0000
;

//---------------dance-single - ----------------
#NOTES:
     dance-single:
     :
     Medium:
     4:
     0.326,0.316,0.179,0.348,0.000: // measure 1
0000
0000
0000
0000
,  // measure 2
0000
0000
0000
0000
,  // measure 3
0000
0000
0000
0000
,  // measure 4
0000
0000
0000
0000
,  // measure 5
0002
0000
0200
0303
,  // measure 6
2000
0000
0200
3300
,  // measure 7
0002
0010
2000
3003
,  // measure 8
2000
0010
0002
3003
,  // measure 9
1000
0100
0020
0130
,  // measure 10
0010
0001
0200
0310
,  // measure 11
0100
0000
0110
0000
1001
0000
0001
0100
,  // measure 12
0002
1000
2000
3003
,  // measure 13
1000
0010
0100
0110
,  // measure 14
0010
1000
0001
1001
,  // measure 15
1000
0100
1000
0000
0001
0000
0100
0000
,  // measure 16
0010
0100
0002
0000
0010
0000
1003
0000
,  // measure 17
0010
1001
0100
1001
,  // measure 18
0010
0000
1000
0000
0100
0100
0100
0000
,  // measure 19
0010
0101
0010
1100
,  // measure 20
0010
0010
0010
0000
0001
0001
0001
0000
,  // measure 21
1000
0101
0010
1001
,  // measure 22
0100
0000
0010
0000
1000
0010
1000
0000
,  // measure 23
0001
0110
1000
0110
,  // measure 24
1000
0100
1000
0000
0001
0100
0001
0000
,  // measure 25
2000
0010
0001
3001
,  // measure 26
1000
0001
0100
0010
,  // measure 27
0200
0010
0001
0301
,  // measure 28
0100
0010
0110
1001
,  // measure 29
0002
0010
1000
0103
,  // measure 30
0001
0100
0010
1000
,  // measure 31
0200
1000
0010
1300
,  // measure 32
0100
0010
2002
3003
,  // measure 33
0001
0000
0100
0000
0010
0100
0010
0000
,  // measure 34
2000
0000
3002
0000
,  // measure 35
1003
0000
0100
0000
0010
0001
1000
0000
,  // measure 36
0002
0000
2003
0000
,  // measure 37
3010
0000
1000
0000
0001
0100
0001
0000
,  // measure 38
0020
0000
0032
0000
,  // measure 39
1003
0000
0100
0000
1000
0100
0010
0000
,  // measure 40
0110
0100
2002
3003
,  // measure 41
0001
0010
0001
0000
1000
0100
1000
0000
,  // measure 42
0002
0000
0203
0000
,  // measure 43
0310
0100
0010
0000
1000
0001
1000
0000
,  // measure 44
0002
0000
2003
0000
,  // measure 45
3100
0010
0001
0000
0001
0010
0100
0000
,  // measure 46
0020
0000
0032
0000
,  // measure 47
1003
0100
1000
0000
0001
0100
0001
0000
,  // measure 48
1000
0001
0100
0010
,  // measure 49
2002
0000
0000
0000
,  // measure 50
3003
0000
0000
0000
;
