#TITLE:microwave popcorn;
#SUBTITLE:;
#ARTIST:Mr.T;
#TITLETRANSLIT:;
#SUBTITLETRANSLIT:;
#ARTISTTRANSLIT:;
#CREDIT:;
#BANNER:;
#BACKGROUND:;
#LYRICSPATH:;
#CDTITLE:;
#MUSIC:microwave popcorn.mp3;
#OFFSET:-4.040;
#SAMPLESTART:48.020;
#SAMPLELENGTH:12.000;
#SELECTABLE:YES;
#BPMS:0.000=120.000;
#STOPS:;
#BGCHANGES:;

//---------------dance-single - ----------------
#NOTES:
     dance-single:
     :
     Hard:
     8:
     0.599,0.633,0.512,0.256,0.256:
1000
0001
0100
0000
0010
0100
1001
0000
,
1000
0100
0010
0001
0100
0010
1000
0001
,
1001
0000
1000
0010
0100
0000
0010
1000
,
1010
0010
0100
0001
1001
0000
0011
0000
,
1100
0000
1001
0000
0001
0100
1010
0000
,
1001
0001
0101
0110
1001
0000
0110
0000
,
0010
0000
1000
0100
0000
0000
0010
0000
0000
0001
0000
0000
1000
0000
0000
0010
0000
0000
0001
0000
0000
0010
0000
0200
,
0000
0000
0000
0010
0000
0000
0010
0000
0000
0001
0000
0002
0000
0000
0000
0000
0000
0000
0303
0000
0000
0000
0000
0000
,
0001
0000
0010
0001
0000
0000
1000
0000
0000
0100
0000
0000
1000
0000
0001
0000
0000
1001
0000
0000
1000
0000
0000
0020
,
0000
0000
0000
0100
0000
0000
0100
0000
0000
1000
0000
2000
0000
0000
0000
0000
0000
0000
3030
0000
0000
0000
0000
0000
,
1001
0000
0000
0001
0000
0000
0100
0000
0001
0000
0000
0100
0000
0000
0001
1000
0000
0000
0100
0000
0000
0001
0000
0000
,
0100
0000
0000
1000
0000
0000
0001
0000
0000
0100
0000
0020
0000
0000
0000
0000
0000
0000
0000
0000
0000
0000
0000
0000
,
1030
0100
0010
0001
1000
0010
0100
0001
,
0101
0010
1001
0000
1100
0000
0011
0000
,
1000
0000
0010
0100
0000
0000
0001
0000
0000
0010
0000
0000
0200
0000
0000
0000
0000
0000
0310
0000
0000
0000
0000
0000
,
0100
0000
1000
0001
0000
0000
0100
0000
0000
0010
0000
0000
1000
0000
0000
0100
0000
0000
0011
0000
0000
0000
0000
0000
,
1000
0000
0010
0100
0000
0000
0001
0000
0000
0010
0000
0000
0100
0000
1000
0001
0000
0000
0100
0000
0000
0010
0000
0000
,
0200
1000
0002
0303
,
1000
0000
0100
0001
0000
0000
0100
0000
0000
0010
0000
0000
0001
0000
0000
0000
0000
0000
1001
0000
0000
0000
0000
1000
,
0001
0000
0100
1000
0000
0000
0100
0000
0000
0010
0000
0000
1000
0000
0000
0000
0000
0000
1001
0000
0000
0000
0000
0000
,
0010
0000
0100
0010
0000
0100
0010
0000
1000
0001
0000
1000
0001
0000
0010
0100
0000
0000
0010
0000
0000
0001
0000
0000
,
1100
1100
0011
0011
2002
0000
3003
0000
,
1001
0000
0001
0100
0000
0000
1000
0000
0000
0100
0000
0000
0002
0000
0000
0000
0000
0000
0013
0000
0000
0000
0000
0000
,
0001
0000
0010
1000
0000
0000
0010
0000
0000
0100
0000
0000
1000
0000
0000
0001
0000
0000
1000
0000
0000
0010
0000
1000
,
0010
0000
0100
0001
0000
0000
1000
0000
0000
0100
0000
0000
0010
0000
0000
0000
0000
0000
1001
0000
0000
0000
0000
0000
,
0010
0000
0000
0001
0000
0000
0100
0000
0000
1000
0000
0000
0010
0000
0000
0000
0000
0000
0100
0000
0000
0010
0000
0001
,
1000
0000
0001
1000
0000
0000
0010
0000
0000
0100
0000
0010
1000
0000
0001
1000
0000
0000
0100
0000
0000
0010
0000
0001
,
1000
0000
0001
0010
0000
0000
0100
0000
0000
0010
0000
0000
0001
0000
0000
0000
0000
0000
1001
0000
0000
0100
0000
1000
,
0100
0000
0100
1000
0000
0000
0001
0000
0000
0100
0000
0000
1010
0000
0000
0000
0000
0000
1001
0000
0000
0000
0000
0000
,
0101
0100
1010
1001
1002
0100
0100
0103
,
0001
1000
0100
0010
0100
0000
1000
0000
,
0002
0023
0230
0000
,
1300
0010
0100
0001
0010
0010
0100
0010
,
0002
2003
3020
0000
,
0130
0010
1000
0100
0001
0100
1000
0001
,
2000
3200
0320
0000
,
0031
0100
1000
0100
0001
1000
0010
0100
,
0110
1010
1100
1001
,
1000
0000
0100
1000
0000
0000
0001
0000
0000
1000
0000
0100
1000
0000
0000
0001
0000
0000
0100
0000
0000
0010
0000
0000
,
1010
1001
0220
0330
,
0010
0000
0100
0010
0000
0000
1000
0000
0000
0010
0000
0100
0010
0000
0000
1000
0000
0000
0001
0000
0000
0010
0000
0000
,
0011
1100
2002
3003
,
1000
0000
0100
0010
0000
0000
0001
0000
0000
1000
0000
0010
0100
0000
0000
0001
0000
0000
1000
0000
0000
0001
0000
0000
,
0101
1010
1100
0011
,
1000
0000
0100
0010
0000
0000
0100
0000
0000
1000
0000
0010
0100
0000
0000
0010
0000
0000
1000
0000
0000
0001
0000
0000
,
0011
1100
1010
0101
2002
0000
3003
0000
,
0001
0000
0010
0001
0000
0000
0100
0000
0000
1000
0000
0000
0100
0000
0000
0010
0000
0000
1000
0000
0000
0100
0000
0000
,
0010
0000
0100
0010
0000
0000
0001
0000
0000
1000
0000
0000
0020
0000
0000
0000
0000
0000
0130
0000
0000
0010
0000
0100
,
0001
0000
0100
0001
0000
0000
1000
0000
0000
0100
0000
0000
0010
0000
0000
0100
0000
0000
1000
0000
0000
0001
0000
0000
,
1000
0000
0000
0100
0000
0000
0001
0000
0000
0100
0000
0000
2000
0000
0000
0000
0000
0000
3001
0000
0000
0010
0000
0001
,
0100
0000
0100
0001
0000
0000
1000
0000
0000
0100
0000
1000
0001
0000
0001
1000
0000
0000
0100
0000
0000
0010
0000
0001
,
1000
0000
1000
0010
0000
0000
0100
0000
0000
0001
0000
0000
2000
0000
0000
0000
0000
0000
3010
0000
0000
1000
0000
0001
,
0010
0000
0001
0100
0000
0000
0010
0000
0000
1000
0000
0000
0101
0000
0000
0010
0000
0000
1000
0000
0000
0100
0000
0000
,
0011
0000
0000
0001
0000
0000
0100
0000
0000
0010
0000
0000
2000
0000
0000
0000
0000
0000
3010
0000
0000
1000
0000
0010
,
0100
0000
0001
0100
0000
0000
0010
0000
0000
1000
0000
0000
1100
0000
0000
0000
0000
0000
0011
0000
0000
0000
0000
0000
,
1000
0000
0100
0001
0000
0000
0100
0000
0000
1000
0000
0010
0001
0000
0000
0010
0000
0000
1000
0000
0000
0001
0000
0000
,
0110
0000
0000
0000
0000
0000
1001
0000
0000
0000
0000
0000
0001
0000
1000
0001
0000
0000
0110
0000
0000
0000
0000
0000
;

//---------------dance-single - ----------------
#NOTES:
     dance-single:
     :
     Beginner:
     1:
     0.139,0.164,0.066,0.000,0.000: // measure 1
0100
0000
0010
0000
,  // measure 2
0100
0000
0010
0000
,  // measure 3
0100
0000
0001
0000
,  // measure 4
1001
0000
0000
0000
,  // measure 5
1001
0000
0000
0000
,  // measure 6
0001
0001
0001
0000
,  // measure 7
1000
0000
0100
0000
,  // measure 8
0010
0000
0100
0000
,  // measure 9
1000
0000
0001
0000
,  // measure 10
0100
0000
0000
0000
,  // measure 11
0010
0000
0100
0000
,  // measure 12
0010
0000
1000
0000
,  // measure 13
0001
0000
1000
0000
,  // measure 14
0001
0001
0001
0000
,  // measure 15
1001
0000
0000
0000
,  // measure 16
0110
0000
0000
0000
,  // measure 17
0001
0000
1000
0000
,  // measure 18
0001
0000
0000
0000
,  // measure 19
0110
0000
0000
0000
,  // measure 20
1001
0000
0000
0000
,  // measure 21
1000
0000
0001
0000
,  // measure 22
0100
0100
0100
0000
,  // measure 23
0010
0000
0000
0000
,  // measure 24
1000
0000
0000
0000
,  // measure 25
0001
0000
0010
0000
,  // measure 26
0001
0000
1000
0000
,  // measure 27
0100
0000
0100
0000
,  // measure 28
0100
0000
0010
0000
,  // measure 29
0100
0000
0010
0010
,  // measure 30
0010
0000
0000
0000
,  // measure 31
1000
0000
0000
0000
,  // measure 32
0100
0100
0100
0000
,  // measure 33
1000
0000
0000
0000
,  // measure 34
0001
0001
0001
0000
,  // measure 35
0100
0000
0000
0000
,  // measure 36
0010
0010
0010
0000
,  // measure 37
1000
0000
0000
0000
,  // measure 38
0001
0001
0001
0001
,  // measure 39
0001
0000
0010
0000
,  // measure 40
0100
0000
0010
0000
,  // measure 41
0001
0000
1000
0000
,  // measure 42
0010
0000
1000
0000
,  // measure 43
0001
0000
0100
0000
,  // measure 44
0010
0000
0100
0000
,  // measure 45
0001
0000
0010
0000
,  // measure 46
0100
0100
0100
0000
,  // measure 47
1001
0000
0000
0000
,  // measure 48
0110
0000
0000
0000
,  // measure 49
0010
0000
1000
0000
,  // measure 50
0001
0000
1000
0000
,  // measure 51
0100
0000
0100
0000
,  // measure 52
1000
0000
0001
0000
,  // measure 53
0100
0100
0100
0000
,  // measure 54
0010
0000
1000
0000
,  // measure 55
0001
0000
1000
0000
,  // measure 56
0001
0000
0010
0000
,  // measure 57
0100
0100
0100
0100
;

//---------------dance-single - ----------------
#NOTES:
     dance-single:
     :
     Easy:
     3:
     0.232,0.281,0.140,0.124,0.000: // measure 1
1001
0000
0001
1000
,  // measure 2
1001
0000
0001
0100
,  // measure 3
0110
0000
1001
0000
,  // measure 4
0001
1000
1001
1001
,  // measure 5
1001
0000
0100
0000
,  // measure 6
0010
0010
0020
0030
,  // measure 7
1000
0000
0001
0000
,  // measure 8
1000
0100
1000
0000
,  // measure 9
0001
0000
1000
0000
,  // measure 10
0001
0010
0001
0000
,  // measure 11
1000
0001
0100
0000
,  // measure 12
0010
0100
0010
0000
,  // measure 13
1000
0001
1000
0100
,  // measure 14
0010
0100
0020
0030
,  // measure 15
1001
1000
2000
3000
,  // measure 16
0001
0001
0002
0003
,  // measure 17
0100
0010
1000
0001
,  // measure 18
0010
0100
0010
0000
,  // measure 19
0001
0010
0001
0000
,  // measure 20
1000
0100
1000
0000
,  // measure 21
0001
0100
0010
1000
,  // measure 22
0001
1000
2002
3003
,  // measure 23
0110
0000
0010
1000
,  // measure 24
0001
0000
0010
0000
,  // measure 25
0001
0000
0010
0001
,  // measure 26
1000
0100
1000
0000
,  // measure 27
0001
1000
0001
0100
,  // measure 28
0010
0100
0001
0000
,  // measure 29
1000
0100
0010
0001
,  // measure 30
0100
0010
0220
0330
,  // measure 31
0002
0000
0000
0000
,  // measure 32
1000
1000
1003
0000
,  // measure 33
2000
0000
0000
0000
,  // measure 34
0001
0001
3001
0000
,  // measure 35
0020
0000
1000
0000
,  // measure 36
0100
0100
0130
0000
,  // measure 37
0200
0000
0001
0000
,  // measure 38
0010
0010
0020
0330
,  // measure 39
0110
0000
0001
0000
,  // measure 40
1000
0100
0010
0000
,  // measure 41
1001
0000
0001
0000
,  // measure 42
1000
0010
0100
0000
,  // measure 43
0110
0000
0100
0000
,  // measure 44
0001
1000
0100
1000
,  // measure 45
0001
0000
0010
0001
,  // measure 46
1000
0100
0010
0000
,  // measure 47
0110
0000
0100
0000
,  // measure 48
0010
0001
1000
0000
,  // measure 49
0001
0000
0100
0000
,  // measure 50
0010
0100
0001
0000
,  // measure 51
1000
0100
1000
0100
,  // measure 52
0010
0001
0010
0000
,  // measure 53
0001
0100
0001
1000
,  // measure 54
0001
0000
0100
0000
,  // measure 55
2002
3003
0001
0100
,  // measure 56
0001
0100
0001
1000
,  // measure 57
0100
0010
0100
0110
;

//---------------dance-single - ----------------
#NOTES:
     dance-single:
     :
     Medium:
     5:
     0.383,0.351,0.116,0.405,0.000:
2002
3003
0001
0100
,
0220
0330
0100
0001
,
1001
0000
1000
0100
1000
0000
0001
0000
,
0010
0010
0100
0100
0100
0000
0010
0000
,
1002
0010
1000
0013
,
1000
0010
1000
0010
1000
0000
0101
0000
,
1000
0100
1000
0000
0001
0100
0001
0000
,
1000
0000
0010
0100
0002
0000
0003
0000
,
0001
0010
0001
0000
1000
0100
1000
0000
,
0001
0000
1000
0100
0020
0000
0030
0000
,
0100
0010
0001
0000
1000
0000
0001
0000
,
0100
0010
1000
0010
2000
0000
3000
0000
,
0001
0100
0001
0000
0100
0010
0100
0010
,
0200
0001
0020
0330
,
0010
1000
0001
0000
1000
0000
1001
0000
,
0001
0010
0100
0000
0220
0000
0330
0000
,
0010
0001
0010
0000
0100
1000
0100
0000
,
2000
0010
0002
3003
,
0001
0100
0001
1000
0200
0000
1300
0000
,
1000
0100
1000
0001
0020
0000
0031
0000
,
0100
0001
1000
0001
0100
0000
0001
0000
,
1000
0001
1000
0002
2000
0000
3003
0000
,
1000
0010
1000
0010
1000
0000
0001
0000
,
0100
0000
0010
0100
0002
0000
0003
0000
,
0010
0001
1000
0001
0100
0000
0010
0000
,
1000
0000
0100
1000
0002
0000
0003
0000
,
1000
0100
1000
0000
0001
0100
0001
0000
,
1000
0000
0001
0100
0020
0000
0130
0000
,
1001
0000
1000
0100
2000
0000
0010
0000
,
3001
0000
1000
0001
0200
0000
0300
0000
,
0002
0000
0010
0000
,
2003
3200
2300
0000
,
3020
0000
0100
0000
,
2030
3002
0023
0000
,
0230
0000
0001
0000
,
0320
0032
2003
0000
,
3002
0000
0010
0000
,
2003
3200
1300
0100
,
1000
0001
1000
0000
0001
0100
0001
0000
,
1000
0001
0220
0330
,
0001
0100
0010
0000
0100
0001
1000
0000
,
0001
0010
2200
3300
,
1000
0010
0100
0000
0001
1000
0100
0000
,
1000
0001
1001
0100
,
0001
0100
0010
0000
1000
0010
1000
0010
,
1000
0001
2002
3003
,
1000
0100
1000
0100
1000
0000
0001
0000
,
0100
0001
0100
0001
0100
0000
0010
0000
,
1000
0001
0010
0000
0100
0010
0001
0000
,
1000
0000
0001
0100
0020
0000
0030
0000
,
1000
0010
1000
0000
0001
0100
0001
0000
,
1000
0000
0100
1000
0002
0000
0003
0000
,
0010
0000
0001
0100
0001
0000
1000
0000
,
0200
1000
0020
0330
,
0110
0000
0001
1000
0001
0000
0100
0000
,
0001
0000
1000
0100
1000
0000
0001
0100
,
0002
0010
1003
0110
;
