#TITLE:You Are the Only One;
#SUBTITLE:;
#ARTIST:Sergey Lazarev;
#TITLETRANSLIT:;
#SUBTITLETRANSLIT:;
#ARTISTTRANSLIT:;
#CREDIT:;
#BANNER:You Are the Only One.png;
#BACKGROUND:You Are the Only One-bg.PNG;
#LYRICSPATH:;
#CDTITLE:;
#MUSIC:You Are the Only One.mp3;
#OFFSET:-0.020;
#SAMPLESTART:50.600;
#SAMPLELENGTH:15.000;
#SELECTABLE:YES;
#BPMS:0.000=96.000,54.000=128.000,154.000=96.000,172.000=128.000;
#STOPS:196.000=1.406
;
#BGCHANGES:0.000=You Are the Only One.avi=1.000=1=1=0,
227.000=You Are the Only One-bg.PNG=1.000=1=0=1,
99999=-nosongbg-=1.000=0=0=0 // don't automatically add -songbackground-
;

//---------------dance-single - ----------------
#NOTES:
     dance-single:
     :
     Hard:
     8:
     0.470,0.461,0.287,0.172,0.693: // measure 1
0000
0000
0000
0000
,  // measure 2
0000
0000
0000
0000
0200
0000
0000
1000
,  // measure 3
0000
0000
0000
0000
0010
0000
0000
0000
0000
0000
1000
0000
0300
0000
0001
1000
,  // measure 4
0002
0000
0000
0010
0000
0000
1000
0000
,  // measure 5
0000
0000
0103
0000
0100
0000
0001
2000
0002
0000
0000
0000
3003
0000
1000
0100
,  // measure 6
1000
0000
0001
0000
0100
0000
0010
0000
0100
0000
0001
0000
1000
0000
0100
1000
,  // measure 7
0200
0000
0000
0000
0300
0000
0010
0001
0010
0000
0001
0000
0100
0000
0010
0000
,  // measure 8
0100
0000
0001
0000
1000
0000
0010
0100
0020
0000
0000
0000
0030
0000
1000
0100
,  // measure 9
1000
0100
0010
0000
0001
0000
0100
0000
0010
0000
1000
0000
0001
0000
0010
0000
,  // measure 10
0200
0000
0000
0000
0300
0000
0010
0001
0010
0001
1000
0000
0010
0000
1000
0000
,  // measure 11
2000
0000
0000
0000
3100
0010
0100
0010
,  // measure 12
0001
0000
0010
0000
0001
0000
1000
0000
0001
0000
1000
0000
0010
0000
0010
1000
,  // measure 13
0100
0100
0020
0000
0000
0000
0000
0000
,  // measure 14
0000
0000
0030
0000
,  // measure 15
0000
0000
1000
0001
0100
0001
1000
0000
0000
1100
0000
0010
,  // measure 16
0001
0000
1000
0100
1000
0000
0010
0000
1000
0000
0100
0000
,  // measure 17
0010
0000
0001
0000
0100
0000
0010
0000
0000
1000
0001
1000
,  // measure 18
0001
0000
1000
0100
0010
0000
0001
0000
0100
0000
0010
0000
,  // measure 19
1001
0000
0000
0001
0010
0100
1000
0000
0000
0001
0100
0001
,  // measure 20
0100
0000
0010
1000
0010
0000
1000
0000
0100
0000
1000
0000
,  // measure 21
0001
0000
0100
0000
0010
0000
2001
0000
0000
3100
0000
0000
,  // measure 22
1002
0103
0220
0000
,  // measure 23
0330
0000
0010
1000
0100
0010
0001
0000
1001
0000
1000
0000
,  // measure 24
0010
0000
0110
0000
0100
0000
0010
0000
1000
0100
0010
0000
,  // measure 25
0001
0000
1000
0010
0100
0010
1000
0000
0100
1000
0001
0000
,  // measure 26
0100
0000
0001
0000
0010
0000
1100
0000
1010
0000
0101
0000
,  // measure 27
1001
0000
1000
0010
0100
0001
0010
0000
0001
0000
1000
0000
,  // measure 28
1010
0000
0010
0100
0001
0010
0001
0000
1000
0000
0100
0000
,  // measure 29
0011
0000
0010
0001
0100
0010
1000
0000
0001
0000
0100
0000
,  // measure 30
1100
0000
0100
0000
0001
0000
1000
0000
0100
0010
0001
0000
,  // measure 31
1001
0000
0000
0110
0000
0000
1001
0000
0001
0000
0100
0000
,  // measure 32
0101
0000
0001
0000
1000
0000
1100
0000
1000
0100
0010
0001
,  // measure 33
0100
0000
0001
0000
0100
0000
0110
0000
0010
1000
0100
0010
,  // measure 34
0001
0000
0010
0000
0001
0000
0011
0000
0001
0000
0100
0000
,  // measure 35
0110
0000
0000
1000
0001
1000
0001
0000
1000
0100
0010
0001
,  // measure 36
0010
0000
0001
0000
0100
0001
0100
0000
0010
0000
1000
0000
,  // measure 37
0001
0000
1000
0000
0100
0010
0001
0000
0000
1000
0010
1000
,  // measure 38
0100
0000
0010
0000
0001
0000
0101
0000
0110
0000
1010
0000
,  // measure 39
2002
3003
0220
0000
,  // measure 40
0000
0000
0000
0000
,  // measure 41
0330
0000
0000
0000
,  // measure 42
1000
0000
0000
0000
0000
0100
0000
0000
0000
0000
0010
0000
0000
0000
0001
0000
0000
0000
0000
0000
0200
0000
0000
0000
0000
0000
0000
0000
0000
0000
0000
0000
,  // measure 43
0000
0000
0000
0000
,  // measure 44
0300
0000
0000
0000
0000
0000
0000
0000
0010
1000
0001
1000
,  // measure 45
0001
0000
1000
0100
0010
0000
0100
0000
1000
0000
0001
0000
,  // measure 46
0100
0000
0010
0100
0001
0100
0010
0000
1000
0001
1000
0000
,  // measure 47
0001
0000
0010
0001
0100
0001
1000
0000
0010
0100
0010
0000
,  // measure 48
0100
0000
0010
0000
1000
0000
0100
0000
0010
0000
0001
0000
,  // measure 49
1001
0000
1000
0100
0010
0000
0001
0000
1000
0010
0100
0001
,  // measure 50
0200
0300
0000
1001
0000
1000
0100
1000
0000
0001
0000
0100
,  // measure 51
0001
0100
0010
0100
0000
0010
0000
1000
0000
1001
0000
0001
,  // measure 52
0010
0001
1000
0100
0000
1000
0100
1000
0100
0010
0000
0001
,  // measure 53
0000
0100
0001
0100
0000
0010
0100
0001
0100
0001
0000
1000
,  // measure 54
0000
0100
0000
1001
0000
0001
0100
0010
1000
0100
0000
0010
,  // measure 55
0000
0001
0000
0011
0000
0101
0000
1010
0000
2002
0000
0000
,  // measure 56
0000
0000
0000
3003
0000
0000
0000
0000
0000
0000
0000
1000
,  // measure 57
0100
0010
0001
0100
0000
0000
0000
0000
0000
0000
0000
0000
;

//---------------dance-single - ----------------
#NOTES:
     dance-single:
     :
     Medium:
     6:
     0.327,0.369,0.197,0.189,0.250:
0000
0000
0000
0000
,
0000
0000
0000
0000
2000
0000
0000
0010
,
0000
0000
0001
0000
0000
0100
0000
0000
,
3002
0000
0000
0010
0000
0000
1000
0000
,
0000
0100
0000
0000
2000
0000
3003
0010
,
0100
0010
1000
0000
0001
0010
0000
0010
,
0200
0000
0300
0010
0001
1000
0001
0000
,
0100
0010
1000
0010
0200
0000
0300
0001
,
0100
0010
1000
0000
1000
0001
0000
0001
,
0020
0000
0030
0100
0010
0001
1000
0001
,
2000
0000
0000
0000
3001
0000
0001
0100
,
0000
0100
0010
0000
0010
1000
0010
1000
,
0100
0010
0200
0000
0000
0000
0000
0000
,
0000
0000
0300
0000
,
0000
0000
0000
0000
0000
0000
1001
0000
0000
0010
0000
0100
,
0010
0000
0000
1000
0000
0000
0010
0000
1000
0000
0010
0000
,
0100
0000
0001
0000
0100
0000
0001
0000
0000
0011
0000
0000
,
1000
0000
0100
1000
0000
0000
0001
0000
0100
0000
0001
0000
,
2000
0000
0000
3100
0000
0000
0110
0000
0000
1000
0000
0001
,
0100
0000
0000
0010
0000
0000
0100
0000
0010
0000
0100
0000
,
0010
0000
1000
0000
0001
0000
0020
0000
0000
0130
0000
0000
,
2001
3100
0220
0000
,
0330
0000
0000
0000
0000
0000
1001
0000
0001
0100
0000
0000
,
0010
0000
1000
0100
0000
0000
1000
0000
0000
0100
0000
0000
,
0010
0000
0100
1000
0000
0000
0001
0000
0100
0000
0001
0000
,
0100
0000
0000
1010
0000
0000
0100
0000
0010
0000
1000
0000
,
0001
0000
0000
1001
0000
0000
1000
0000
0100
1000
0000
0000
,
0001
0000
0100
0001
0000
0000
1000
0000
0100
0000
1000
0000
,
0100
0000
0000
0011
0000
0000
0001
0000
0100
0000
0010
0000
,
1000
0000
0000
1010
0000
0000
1000
0000
0001
0000
1000
0000
,
0001
0000
0000
1001
0000
0000
2000
0000
0010
0000
0001
0000
,
3001
0000
0000
0110
0000
0000
0002
0000
0010
0000
1000
0000
,
1003
0000
0000
0110
0000
0000
1000
0000
0100
0000
1000
0000
,
0001
0000
0100
0000
0010
0000
1000
0000
0100
0000
0010
0000
,
0001
0000
0000
0011
0000
0000
1000
0000
0001
0100
0000
0000
,
0010
0000
0000
0100
0000
0000
0001
0000
0010
0000
0001
0000
,
0100
0000
0000
0101
0000
0000
0010
0000
0000
1000
0000
0100
,
1000
0000
0000
0001
0000
0000
0010
0000
0001
0000
1000
0000
,
0020
0130
2002
0000
,
0000
0000
0000
0000
,
3003
0000
0000
0000
,
0000
0000
0220
0000
,
0000
0000
0000
0000
,
0330
0000
0000
0100
,
1001
0000
0000
0100
0000
0000
0001
0000
0000
1000
0000
0100
,
1000
0000
0000
0100
0000
0000
0010
0000
0001
0000
1000
0000
,
0001
0000
0000
0100
0000
0000
1000
0000
0000
0100
0000
0010
,
1000
0000
0000
0010
0000
0000
1000
0000
0001
0000
0010
0000
,
0100
0000
0000
0110
0000
0000
0010
0000
0000
0001
1000
0002
,
2000
3003
0000
1001
0000
0000
0001
0000
0100
0001
0000
0000
,
0100
0000
0000
0010
0000
1000
0000
0001
0000
1000
0000
0000
,
0011
0000
0000
1001
0000
0000
0001
0000
0100
0001
0000
0000
,
1000
0000
0000
0100
0000
0000
1000
0000
0000
0001
0000
0010
,
0000
0100
0000
0010
0000
0000
0001
0000
1000
0001
0000
0000
,
1010
0000
0000
0100
0000
0010
0000
1000
0000
0002
0000
0000
,
0000
0003
0000
0000
,
0000
1001
0000
0000
;

//---------------dance-single - ----------------
#NOTES:
     dance-single:
     :
     Easy:
     3:
     0.219,0.277,0.139,0.164,0.000:
0000
0000
0000
0000
,
0000
0000
2000
0000
,
0000
0001
0000
0000
,
3002
0000
0000
2000
,
0000
0000
3003
0000
,
0000
0000
0001
0000
0000
0100
0000
0000
,
0001
0000
0000
1000
,
0000
0100
0000
0000
1000
0000
0000
0000
,
0000
0000
0001
0000
0000
0100
0000
0000
,
0010
0000
0000
1000
,
0000
0100
0000
0000
0010
0000
0000
0001
,
0000
0000
1000
0000
0000
0001
0000
0000
,
2002
0000
0000
0000
,
0000
0000
3003
0000
,
0000
0000
1001
0000
,
0001
0100
0001
0010
,
0100
0010
0110
0000
,
0010
0001
1000
0001
,
0100
0010
0110
0000
,
0100
0010
1000
0001
,
0010
0100
0020
0001
,
0130
0000
2002
0000
,
3003
0000
0010
1000
,
0001
0010
0100
0010
,
0001
1000
0001
0001
,
0100
0100
0010
1000
,
1001
0000
0001
0010
,
0100
1000
0100
0001
,
0100
1000
0010
0100
,
0001
1000
0010
0100
,
1001
1001
2000
0010
,
3001
0000
0002
0100
,
1003
0000
0001
0100
,
0010
1000
0100
0010
,
0110
0000
0010
0001
,
1000
0100
0001
1000
,
0010
0001
1000
1000
,
0001
0100
0010
0100
,
0220
0330
2002
0000
,
0000
0000
0000
0000
,
3003
0000
0000
0000
,
0000
0000
0220
0000
,
0000
0000
0000
0000
,
0330
0000
0000
0000
,
1000
1000
0001
0001
,
1000
0010
0100
0001
,
0010
0010
0100
0100
,
0010
0001
1000
0100
,
1000
0010
0100
0001
,
2002
3003
0000
1000
0000
0000
0100
0000
0000
0001
0000
0000
,
0100
1000
0010
0100
,
0000
0001
0001
0100
,
0100
0010
1000
0001
,
0010
0100
0100
0010
,
0010
0110
1001
0220
,
0000
0330
0000
0000
,
0000
1001
0000
0000
;

//---------------dance-single - ----------------
#NOTES:
     dance-single:
     :
     Beginner:
     1:
     0.109,0.161,0.090,0.000,0.000:
0000
0000
0000
0000
,
0000
0000
1000
0000
,
0000
0100
0000
0000
,
1000
0000
0000
0001
,
0000
0000
0100
0000
,
0000
0000
0000
0000
,
0001
0000
0000
0000
,
0000
0000
1000
0000
,
0000
0000
0000
0000
,
0100
0000
0000
0000
,
0000
0000
0010
0000
,
0000
0100
0000
0000
,
1001
0000
0000
0000
,
0000
0000
0000
0000
,
0000
0000
1001
0000
,
0001
0000
0100
0000
,
0001
0000
1000
0000
,
0100
0000
0010
0000
,
0000
0000
0100
0000
,
0010
0000
0100
0000
,
1000
0000
0001
0000
,
0001
0000
1001
0000
,
0000
0000
1000
0000
,
0100
0000
1000
0000
,
0001
0000
0100
0000
,
0001
0000
0010
0000
,
0000
0000
0010
0000
,
0001
0000
0100
0000
,
0010
0000
1000
0000
,
0010
0000
0100
0000
,
0000
0000
0110
0000
,
0100
0000
1001
0000
,
0001
0000
1000
0000
,
0100
0000
0110
0000
,
0000
0000
0001
0000
,
0100
0000
0001
0000
,
1000
0000
0100
0000
,
0010
0000
0110
0000
,
0000
0000
1001
0000
,
0000
0000
0000
0000
,
0000
0000
0000
0000
,
0000
0000
0100
0000
,
0000
0000
0000
0000
,
0000
0000
0000
0000
,
1001
0000
0001
0000
,
0100
0000
0010
0010
,
0010
0000
0100
0000
,
0001
0000
1000
0000
,
0100
0000
0010
0000
,
1001
0001
0000
0100
,
0000
0001
0001
0001
,
0000
1000
0000
0100
,
0000
0010
0000
0001
,
0000
1000
0000
0001
,
0000
0100
0100
0100
,
0000
0000
0000
0000
,
0000
1001
0000
0000
;
