#TITLE:Want You Bad;
#SUBTITLE:;
#ARTIST:The Offspring;
#TITLETRANSLIT:;
#SUBTITLETRANSLIT:;
#ARTISTTRANSLIT:;
#CREDIT:;
#BANNER:Want You Bad.png;
#BACKGROUND:Want You Bad-bg.PNG;
#LYRICSPATH:;
#CDTITLE:;
#MUSIC:Want You Bad.mp3;
#OFFSET:-0.020;
#SAMPLESTART:40.940;
#SAMPLELENGTH:15.910;
#SELECTABLE:YES;
#BPMS:0.000=211.100;
#STOPS:;
#BGCHANGES:0.000=Want You Bad.avi=1.000=1=1=0,
426.000=Want You Bad.avi=1.000=1=0=1,
99999=-nosongbg-=1.000=0=0=0 // don't automatically add -songbackground-
;

//---------------dance-single - ----------------
#NOTES:
     dance-single:
     :
     Hard:
     8:
     0.623,0.684,0.169,0.242,0.000: // measure 1
0000
0000
0000
0000
,  // measure 2
0000
0000
0000
0000
,  // measure 3
0000
0000
0000
0000
,  // measure 4
0000
0000
0000
0000
,  // measure 5
1001
0000
0000
0001
0100
0000
0000
0100
,  // measure 6
0001
0000
0001
1000
0000
1000
0100
0000
,  // measure 7
1100
0000
0000
1000
0001
0000
0000
0001
,  // measure 8
0100
0000
0100
0010
0000
0010
1000
0000
,  // measure 9
1001
0000
0001
0000
0100
0010
0100
0000
,  // measure 10
0001
0000
1000
0000
0100
0010
0100
0000
,  // measure 11
0010
0001
1000
0000
0001
0100
0010
0000
,  // measure 12
1000
0100
0010
0001
1000
0001
1000
0001
,  // measure 13
0100
0000
0010
0000
0100
0000
0001
1000
,  // measure 14
0000
0001
1000
0000
0100
0000
0010
0000
,  // measure 15
0100
0000
1000
0000
0100
0000
0010
0001
,  // measure 16
0000
0010
0001
0000
1000
0001
0100
0000
,  // measure 17
1010
0000
0000
1000
0001
0000
0100
0000
,  // measure 18
0010
0000
0100
0000
0001
1000
0100
0000
,  // measure 19
2000
0000
3010
0000
0100
0001
0100
0000
,  // measure 20
0002
0000
1003
0000
0100
0010
0001
0000
,  // measure 21
2200
0000
3300
0000
0001
0000
0100
0001
,  // measure 22
0000
1000
0010
0000
0100
0000
0001
0000
,  // measure 23
1000
0000
0100
0000
0010
0000
0100
0010
,  // measure 24
0000
0001
1000
0000
0010
0100
0010
1000
,  // measure 25
0001
0000
0000
1000
0100
0000
0001
0000
,  // measure 26
0100
0000
1000
0000
0001
0010
0100
0000
,  // measure 27
0010
0001
0010
0000
0100
1000
0100
0000
,  // measure 28
1000
0010
0100
0001
0100
0010
1000
0000
,  // measure 29
1002
1000
0010
1000
,  // measure 30
0203
1000
0020
0330
,  // measure 31
0010
1000
0200
0000
0001
0000
0010
0000
,  // measure 32
0001
0010
2000
3300
,  // measure 33
1000
0100
0001
0000
0010
0000
1000
0000
,  // measure 34
0010
0000
0001
0000
0100
1000
0001
0000
,  // measure 35
1010
0100
0011
0100
,  // measure 36
2002
0000
0000
3003
,  // measure 37
1010
0000
0100
0000
0001
0000
0010
0001
,  // measure 38
1000
0100
0010
0000
0001
1000
0001
0000
,  // measure 39
0100
0000
0010
0000
1000
0000
0001
0100
,  // measure 40
0010
1000
0100
0000
0010
0001
1000
0000
,  // measure 41
0001
0000
0100
0000
0010
0000
1000
0010
,  // measure 42
0100
0010
1000
0000
0001
0010
0100
0010
,  // measure 43
0001
0000
0001
1000
0001
0000
0100
0010
,  // measure 44
0100
0000
0010
0000
1000
0010
0100
0001
,  // measure 45
0100
0000
0001
0000
1000
0100
1000
0100
,  // measure 46
1000
0001
0010
0100
,  // measure 47
0010
0000
0001
0000
0100
0000
0010
1000
,  // measure 48
0001
1000
0100
0010
,  // measure 49
0001
0000
1000
0000
0001
0000
0010
0100
,  // measure 50
0010
0001
1000
0000
0010
0100
0001
0000
,  // measure 51
1000
0100
1000
0000
0001
0100
0001
0000
,  // measure 52
1000
0010
1000
0001
0010
0001
0100
0000
,  // measure 53
1001
0000
0001
0100
0001
0000
1000
0100
,  // measure 54
0010
0000
0100
1000
0000
1000
0100
0000
,  // measure 55
0010
0000
0001
1000
0001
0000
0100
0010
,  // measure 56
0100
0000
0001
1000
0000
0001
1000
0010
,  // measure 57
0100
0000
0001
0010
0100
0000
0010
0001
,  // measure 58
1000
0000
0100
1000
0000
1000
0010
0100
,  // measure 59
0001
0000
0100
1000
0100
0000
0100
0001
,  // measure 60
0100
0000
0001
0010
0000
0100
1000
0002
,  // measure 61
1000
1000
1000
1000
,  // measure 62
1000
1000
1000
1000
,  // measure 63
1000
1000
1000
1000
,  // measure 64
1003
0000
0001
0010
0001
1000
0001
1000
,  // measure 65
0200
0300
0010
0001
,  // measure 66
1000
0000
0001
0000
0100
0000
0010
0100
,  // measure 67
0020
0030
1000
0100
,  // measure 68
0001
0100
1000
0010
,  // measure 69
0120
0000
2030
0000
,  // measure 70
3200
0000
0000
0000
0320
0000
0000
0200
,  // measure 71
0000
0000
0000
0000
,  // measure 72
0330
0000
0000
0000
1000
0001
1000
0001
,  // measure 73
2000
3000
0001
0100
,  // measure 74
0001
0010
0100
0010
,  // measure 75
0002
0003
1000
0010
,  // measure 76
0100
0001
0100
0010
,  // measure 77
0102
0000
0023
0000
,  // measure 78
0230
0000
0000
0000
0320
0000
0000
0002
,  // measure 79
0030
0000
0000
0000
,  // measure 80
1003
0001
1000
0001
1000
0001
1000
0001
,  // measure 81
0100
0000
0001
0000
1000
0000
0001
0010
,  // measure 82
0001
1000
0001
0000
0100
0010
0100
0000
,  // measure 83
0010
0000
1000
0000
0001
0000
1000
0100
,  // measure 84
0010
0100
1000
0000
0001
0100
0010
0000
,  // measure 85
0100
0000
0001
0000
1000
0000
0010
1000
,  // measure 86
0001
0000
0010
0001
1000
0000
0001
0000
,  // measure 87
1000
0000
0100
0001
0100
0000
0100
1000
,  // measure 88
0100
0010
0100
0010
0001
1000
0001
1000
,  // measure 89
0010
0000
0100
0000
0001
0000
1000
0010
,  // measure 90
0200
0000
0310
0000
1000
0001
0010
0000
,  // measure 91
0100
0010
0001
1000
,  // measure 92
0200
0000
0310
0000
0100
1000
0001
0100
,  // measure 93
0010
0000
0100
0000
0001
0000
1000
0010
,  // measure 94
0100
0010
1000
0000
0001
0010
0001
0000
,  // measure 95
1001
0000
0100
0000
0010
1000
0001
0000
,  // measure 96
1001
0000
0100
0000
0010
0001
1000
0000
,  // measure 97
0110
0000
1001
0000
0001
0010
0100
0000
,  // measure 98
0011
0000
1100
0000
0001
0010
0100
1000
,  // measure 99
0100
0000
1000
0001
1000
0000
0001
0100
,  // measure 100
0010
0000
0100
0001
0000
0001
1000
0000
,  // measure 101
1001
0000
0001
0100
0010
0000
1000
0100
,  // measure 102
0010
0000
0100
1000
0000
0001
0100
0010
,  // measure 103
1000
0000
0001
0100
0010
0000
1000
0100
,  // measure 104
0010
0000
0001
0100
0000
0010
1000
0000
,  // measure 105
2002
0000
0000
0000
,  // measure 106
0000
0000
0000
0000
,  // measure 107
3003
0000
0000
0000
;

//---------------dance-single - ----------------
#NOTES:
     dance-single:
     :
     Medium:
     6:
     0.451,0.598,0.339,0.153,0.000: // measure 1
0000
0000
0000
0000
,  // measure 2
0000
0000
0000
0000
,  // measure 3
0000
0000
0000
0000
,  // measure 4
0000
0000
0000
0000
,  // measure 5
1001
0000
0100
0001
,  // measure 6
0100
0000
0010
1000
,  // measure 7
0001
0000
1000
0100
,  // measure 8
0010
0100
1000
0001
,  // measure 9
1001
0000
0001
0000
,  // measure 10
0100
0010
0100
0001
,  // measure 11
1001
0000
0101
0000
,  // measure 12
1001
0000
0100
0000
1000
0001
1000
0001
,  // measure 13
1000
0000
0001
0100
,  // measure 14
1000
0100
0001
0100
,  // measure 15
0101
0000
1000
0010
,  // measure 16
0100
0001
0010
0100
,  // measure 17
1100
0000
1001
0000
,  // measure 18
1000
0010
0100
0000
,  // measure 19
0001
0100
0010
1000
,  // measure 20
0001
0000
1000
0000
0100
0010
0100
0000
,  // measure 21
0110
0000
1000
0001
,  // measure 22
0100
1000
0100
0001
,  // measure 23
0101
0000
0001
0010
,  // measure 24
0100
0010
0001
1000
,  // measure 25
1010
0000
0110
0000
,  // measure 26
0100
0001
1000
0000
,  // measure 27
0001
0010
0001
1000
,  // measure 28
0100
0000
1000
0000
0001
1000
0001
0000
,  // measure 29
1001
0000
1000
0010
,  // measure 30
0100
0010
0100
0000
,  // measure 31
0001
0010
0100
0010
,  // measure 32
0002
1000
0103
0000
,  // measure 33
1000
0010
0100
0010
,  // measure 34
0100
0001
0010
0000
,  // measure 35
0011
0000
1100
0000
,  // measure 36
2002
0000
0000
3003
,  // measure 37
1001
0000
0001
0100
,  // measure 38
1000
0100
0001
0000
,  // measure 39
1001
0000
0001
0010
,  // measure 40
1000
0010
0001
0000
,  // measure 41
1000
0100
0010
0100
,  // measure 42
1000
0010
0100
0000
,  // measure 43
0001
0000
0000
0001
1000
0000
0000
1000
,  // measure 44
0001
0100
0010
1000
,  // measure 45
1001
0000
1000
0001
,  // measure 46
0100
0001
0010
0000
,  // measure 47
0001
0000
1000
0010
,  // measure 48
0100
0001
0100
0000
,  // measure 49
0010
1000
0001
0010
,  // measure 50
0100
0010
0001
1000
,  // measure 51
1001
0000
0110
0000
,  // measure 52
1001
1001
0110
0110
,  // measure 53
1001
0000
0000
0001
0100
0000
0001
0000
,  // measure 54
1000
0000
0001
0010
,  // measure 55
0100
0000
0000
0010
0001
0000
1000
0000
,  // measure 56
0100
1000
0001
0100
,  // measure 57
0010
0000
0000
1000
0010
0000
0100
0000
,  // measure 58
0001
0000
0010
0001
,  // measure 59
0101
0000
0000
0010
0100
0000
0010
0000
,  // measure 60
1000
0000
0001
0000
1000
0000
0001
1000
,  // measure 61
0200
0000
0000
0000
,  // measure 62
0000
0000
0000
0000
,  // measure 63
0000
0000
0000
0000
,  // measure 64
0300
0000
1000
0001
0000
1000
0001
0000
,  // measure 65
1000
0100
0010
0001
,  // measure 66
0200
0010
0301
0000
,  // measure 67
0001
0100
0010
1000
,  // measure 68
0200
0010
1300
0000
,  // measure 69
1002
0000
0203
0000
,  // measure 70
0320
0000
2030
0000
,  // measure 71
0002
0000
0000
0000
,  // measure 72
3003
0000
0000
0000
0100
0010
0100
0010
,  // measure 73
0200
0300
0001
1000
,  // measure 74
0100
1000
0001
0000
,  // measure 75
1001
0000
1000
0100
,  // measure 76
0010
0001
0100
0001
,  // measure 77
0102
0000
2003
0000
,  // measure 78
3200
0000
0320
0000
,  // measure 79
0032
0000
0000
0000
,  // measure 80
1003
0001
1000
0000
0001
1000
0001
1000
,  // measure 81
0001
0100
1000
0100
,  // measure 82
0010
1000
0001
0000
,  // measure 83
0010
0001
1000
0100
,  // measure 84
0001
0100
1000
0000
,  // measure 85
0001
0010
0100
0010
,  // measure 86
0001
1000
0010
0100
,  // measure 87
0001
0000
0000
0001
1000
0000
0000
1000
,  // measure 88
0100
0010
0001
1000
,  // measure 89
1001
0000
0001
0100
,  // measure 90
1000
0100
0001
0000
,  // measure 91
1001
0000
0001
0010
,  // measure 92
0100
0010
0001
0000
,  // measure 93
1100
0000
0010
0001
,  // measure 94
0100
0010
1000
0001
,  // measure 95
0101
0000
0001
1000
,  // measure 96
1100
0000
1000
0100
,  // measure 97
0110
0000
0010
0001
,  // measure 98
1001
1001
0110
0110
,  // measure 99
1001
0000
0000
0001
0100
0000
0001
0000
,  // measure 100
1000
0000
0100
0010
,  // measure 101
0001
0000
0000
1000
0100
0000
1000
0000
,  // measure 102
0010
0000
0000
0000
0100
0010
0100
0000
,  // measure 103
0010
0000
0000
1000
0010
0000
0100
0000
,  // measure 104
0001
0000
1000
0001
0000
1000
0001
0000
,  // measure 105
2002
0000
0000
0000
,  // measure 106
0000
0000
0000
0000
,  // measure 107
3003
0000
0000
0000
;

//---------------dance-single - ----------------
#NOTES:
     dance-single:
     :
     Easy:
     4:
     0.330,0.427,0.218,0.161,0.000: // measure 1
0000
0000
0000
0000
,  // measure 2
0000
0000
0000
0000
,  // measure 3
0000
0000
0000
0000
,  // measure 4
0000
0000
0000
0000
,  // measure 5
1000
0000
0100
0000
,  // measure 6
1000
0000
0001
0100
,  // measure 7
0001
0000
1000
0000
,  // measure 8
0001
0000
0100
0010
,  // measure 9
0100
0000
0100
0000
,  // measure 10
0010
0000
0010
0000
,  // measure 11
1000
0000
0001
0000
,  // measure 12
1000
0001
1000
0001
,  // measure 13
2001
0000
0001
0000
,  // measure 14
0100
0000
3100
1000
,  // measure 15
0002
0000
0100
0000
,  // measure 16
0100
0000
1003
0001
,  // measure 17
0100
0000
0010
0000
,  // measure 18
0100
0010
0100
0000
,  // measure 19
0010
0000
1000
0000
,  // measure 20
0001
0010
0100
1000
,  // measure 21
1002
0000
0010
0000
,  // measure 22
1000
0000
0103
0001
,  // measure 23
2000
0000
0010
0000
,  // measure 24
0001
0000
3001
1000
,  // measure 25
0100
0000
0010
0000
,  // measure 26
0100
0010
0001
1000
,  // measure 27
0001
0000
0100
0000
,  // measure 28
0010
0100
0010
0000
,  // measure 29
0110
0000
0010
1000
,  // measure 30
0002
0000
0103
0000
,  // measure 31
0001
0100
0001
1000
,  // measure 32
0200
0000
0310
0000
,  // measure 33
0010
0001
1000
0000
,  // measure 34
0001
0100
0001
0000
,  // measure 35
1001
0000
0110
0000
,  // measure 36
2002
0000
3003
0000
,  // measure 37
1001
0000
1000
0000
,  // measure 38
0100
0000
1000
0000
,  // measure 39
0001
0000
0100
0000
,  // measure 40
0010
0100
0010
0000
,  // measure 41
1000
0000
0001
0000
,  // measure 42
0010
0100
0010
0000
,  // measure 43
1000
0000
0100
0000
,  // measure 44
0010
0001
1000
0001
,  // measure 45
0100
0000
0010
0100
,  // measure 46
0010
0000
1001
0000
,  // measure 47
1000
0000
0100
0010
,  // measure 48
0100
0000
1001
0000
,  // measure 49
0001
0000
0100
0010
,  // measure 50
1000
0000
0001
0000
,  // measure 51
1001
0000
1001
0000
,  // measure 52
0110
0000
0110
0000
,  // measure 53
1001
0000
1000
0000
,  // measure 54
0100
1000
0100
1000
,  // measure 55
0001
0000
0100
0000
,  // measure 56
0001
0100
0001
0100
,  // measure 57
0010
0000
0100
0000
,  // measure 58
0010
1000
0001
0010
,  // measure 59
0100
0000
0010
0000
,  // measure 60
0100
0010
0001
1000
,  // measure 61
0002
0000
0000
0000
,  // measure 62
0000
0000
0000
0000
,  // measure 63
0000
0000
0000
0000
,  // measure 64
0003
0000
0000
0000
,  // measure 65
1001
0000
1000
0000
,  // measure 66
0100
0000
0010
0000
,  // measure 67
0200
0000
0000
0000
,  // measure 68
0010
0010
0310
0000
,  // measure 69
0001
0000
0100
0000
,  // measure 70
0010
0000
1000
0000
,  // measure 71
2002
0000
0000
0000
,  // measure 72
3003
0000
0000
0000
,  // measure 73
1001
0000
0001
0000
,  // measure 74
0010
0000
0100
0000
,  // measure 75
2000
0000
0000
0000
,  // measure 76
0001
0001
3001
0000
,  // measure 77
1002
0000
2003
0000
,  // measure 78
3002
0000
2003
0000
,  // measure 79
0002
0000
3003
0000
,  // measure 80
1000
0001
1000
0001
,  // measure 81
1000
0000
0001
0100
,  // measure 82
0001
0000
1001
0000
,  // measure 83
0001
0000
1000
0100
,  // measure 84
1000
0000
1001
0000
,  // measure 85
1000
0000
0100
0010
,  // measure 86
0001
0000
1000
0000
,  // measure 87
0001
0000
0100
0000
,  // measure 88
0010
0100
0010
0100
,  // measure 89
0001
0000
0010
0100
,  // measure 90
0010
0000
1001
0000
,  // measure 91
1000
0000
0010
0100
,  // measure 92
0010
0000
1001
0000
,  // measure 93
1000
0000
0100
0010
,  // measure 94
0001
0000
1000
0000
,  // measure 95
1001
0000
0001
0000
,  // measure 96
0110
0000
0100
0000
,  // measure 97
1001
0000
0010
0000
,  // measure 98
1001
0000
1000
0000
,  // measure 99
0001
0000
0100
0001
,  // measure 100
0100
0001
0100
0000
,  // measure 101
0001
0000
1000
0100
,  // measure 102
1000
0100
1000
0000
,  // measure 103
0001
0000
0010
0001
,  // measure 104
1000
0100
0010
0000
,  // measure 105
2002
0000
0000
0000
,  // measure 106
0000
0000
0000
0000
,  // measure 107
3003
0000
0000
0000
;

//---------------dance-single - ----------------
#NOTES:
     dance-single:
     :
     Beginner:
     2:
     0.180,0.252,0.145,0.000,0.000:
0000
0000
0000
0000
,
0000
0000
0000
0000
,
0000
0000
0000
0000
,
0000
0000
0000
0000
,
1000
0000
0001
0000
,
1000
0000
0000
0000
,
0001
0000
0100
0000
,
0001
0000
0000
0000
,
1001
0000
0000
0000
,
0100
0000
0000
0000
,
0110
0000
0000
0000
,
0010
0000
0010
0010
,
0010
0000
0000
0000
,
0100
0000
0000
0000
,
1001
0000
0000
0000
,
0010
0000
0000
0000
,
1001
0000
0000
0000
,
0100
0000
0001
0000
,
0100
0000
0001
0000
,
1000
0000
0100
0000
,
0110
0000
0000
0000
,
0010
0000
0000
0000
,
1001
0000
0000
0000
,
0100
0000
0000
0000
,
1000
0000
0001
0000
,
0100
0000
0010
0000
,
0100
0000
0001
0000
,
1000
0000
0000
0000
,
0001
0000
0000
0000
,
0001
0000
0000
0000
,
1000
0000
0000
0000
,
1000
0000
0000
0000
,
0100
0000
0000
0000
,
0010
0000
0000
0000
,
0100
0000
0100
0000
,
0100
0000
0000
0000
,
1001
0000
0000
0000
,
0001
0000
0000
0000
,
0100
0000
0001
0000
,
0100
0000
0000
0000
,
0001
0000
1000
0000
,
0001
0000
1000
0000
,
0100
0000
0000
0000
,
0010
0000
0000
0000
,
0100
0000
0010
0000
,
0100
0000
0000
0000
,
0010
0000
0001
0000
,
0010
0000
0000
0000
,
0001
0000
1000
0000
,
0001
0000
0000
0000
,
1000
0000
0100
0000
,
0010
0000
0001
0000
,
1001
0000
0000
0000
,
0001
0000
0000
0000
,
1001
0000
0000
0000
,
0100
0000
0000
0000
,
0110
0000
0000
0000
,
0010
0000
0000
0000
,
1001
0000
0000
0000
,
0001
0000
0000
0000
,
1001
0000
0000
0000
,
0000
0000
0000
0000
,
0000
0000
0000
0000
,
0000
0000
0000
0000
,
1000
0000
1000
0000
,
0001
0000
0001
0000
,
0100
0000
0000
0000
,
0001
0000
0010
0000
,
0001
0000
0000
0000
,
1000
0000
0100
0000
,
1000
0000
0000
0000
,
0100
0000
0000
0000
,
0010
0000
0010
0000
,
0100
0000
0100
0000
,
0010
0000
0000
0000
,
1000
0000
0010
0000
,
1000
0000
0000
0000
,
0001
0000
0100
0000
,
0001
0000
0000
0000
,
1001
0000
0000
0000
,
0100
0000
0010
0000
,
0100
0000
0000
0000
,
0001
0000
1000
0000
,
0001
0000
0000
0000
,
1000
0000
0100
0000
,
0010
0000
0001
0000
,
1000
0000
0000
0000
,
0001
0000
0000
0000
,
0100
0000
0001
0000
,
0100
0000
0000
0000
,
0010
0000
1000
0000
,
0010
0000
0000
0000
,
0100
0000
0001
0000
,
1000
0000
0100
0000
,
0010
0000
0010
0000
,
0100
0000
0100
0000
,
0010
0000
0010
0000
,
0001
0000
0001
0000
,
1001
0000
0000
0000
,
0100
0000
0000
0000
,
0110
0000
0000
0000
,
0010
0000
0100
0000
,
0110
0000
0000
0000
,
0110
0000
0000
0000
,
1001
0000
0000
0000
;
